osu file format v14

[General]
AudioFilename: audio.mp3
AudioLeadIn: 0
PreviewTime: 54444
Countdown: 0
SampleSet: Soft
StackLeniency: 0.7
Mode: 0
LetterboxInBreaks: 0
WidescreenStoryboard: 1

[Editor]
DistanceSpacing: 0.8
BeatDivisor: 4
GridSize: 32
TimelineZoom: 2.499999

[Metadata]
Title:Hito toshite Jiku ga Bureteiru (TV Size)
TitleUnicode:人として軸がぶれている (TV Size)
Artist:Kenji Ohtsuki to Zetsubou Shoujotachi
ArtistUnicode:大槻ケンヂと絶望少女達
Creator:keevy
Version:Hard
Source:さよなら絶望先生
Tags:sayonara zetsubou sensei op 1 bure kenji ootsuki ohtsuki despair j rock jrock j-rock japanese
BeatmapID:3726462
BeatmapSetID:1815708

[Difficulty]
HPDrainRate:4
CircleSize:3.8
OverallDifficulty:6.8
ApproachRate:8
SliderMultiplier:1.4
SliderTickRate:1

[Events]
//Background and Video events
0,0,"cropped-1920-1080-73159.jpg",0,0
//Break Periods
//Storyboard Layer 0 (Background)
//Storyboard Layer 1 (Fail)
//Storyboard Layer 2 (Pass)
//Storyboard Layer 3 (Foreground)
//Storyboard Layer 4 (Overlay)
//Storyboard Sound Samples

[TimingPoints]
244,323.014804845222,4,2,1,60,1,0
244,-100,4,2,1,60,0,0
890,-100,4,2,1,60,0,0
1536,319.148936170213,4,2,1,60,1,0
2493,310.880829015544,4,2,1,60,1,0
2881,300,4,2,1,75,1,1
2881,-100,4,2,1,75,0,1
3781,324.324324324324,4,2,1,75,1,1
3781,-100,4,2,1,75,0,1
4753,337.078651685394,4,2,1,75,1,1
4753,-100,4,2,1,75,0,1
5405,315.789473684211,4,2,1,75,1,1
5405,-100,4,2,1,75,0,1
6352,326.08695652174,4,2,1,75,1,1
6352,-100,4,2,1,75,0,1
6515,-100,4,2,1,75,0,1
7982,320.855614973262,4,2,1,75,1,1
7982,-100,4,2,1,75,0,1
9907,331.491712707182,4,2,1,75,1,1
9907,-100,4,2,1,75,0,1
10569,324.324324324324,4,2,1,75,1,1
10569,-100,4,2,1,75,0,1
11541,317.460317460317,4,2,1,75,1,1
11541,-100,4,2,1,75,0,1
11699,-100,4,2,1,75,0,1
12017,-100,4,2,1,75,0,1
12493,320.855614973262,4,2,1,75,1,1
12493,-100,4,2,1,75,0,1
13134,324.324324324324,4,2,1,60,1,0
13134,-100,4,2,1,60,0,0
14431,320.855614973262,4,2,1,60,1,0
14431,-100,4,2,1,60,0,0
15714,326.086956521739,4,2,1,50,1,0
15714,-100,4,2,1,50,0,0
17018,323.450134770889,4,2,1,50,1,0
17018,-100,4,2,1,50,0,0
19605,321.71581769437,4,2,1,50,1,0
19605,-100,4,2,1,50,0,0
19926,304.568527918782,4,2,1,50,1,0
19926,-100,4,2,1,50,0,0
20535,319.148936170213,4,2,1,50,1,0
20535,-100,4,2,1,50,0,0
20854,335.195530726257,4,2,1,50,1,0
20854,-100,4,2,1,50,0,0
22194,319.148936170213,4,2,1,50,1,0
22194,-100,4,2,1,50,0,0
23470,312.5,4,2,1,50,1,0
23470,-100,4,2,1,50,0,0
24095,320.855614973262,4,2,1,50,1,0
24095,-100,4,2,1,50,0,0
24736,338.983050847458,4,2,1,50,1,0
24736,-100,4,2,1,50,0,0
25413,320.855614973262,4,2,1,50,1,0
25413,-100,4,2,1,50,0,0
26054,315.789473684211,4,2,1,50,1,0
26054,-100,4,2,1,50,0,0
26369,-100,4,2,1,50,0,0
27317,324.324324324324,4,2,1,50,1,0
27317,-100,4,2,1,50,0,0
29262,-100,4,2,1,50,0,0
31208,320.855614973262,4,2,1,60,1,0
31208,-100,4,2,1,60,0,0
33694,-100,4,2,1,5,0,0
33774,-100,4,2,1,60,0,0
35058,327.868852459016,4,2,1,50,1,0
35058,-100,4,2,1,50,0,0
36369,315.78947368421,4,2,1,50,1,0
36369,-100,4,2,1,50,0,0
37000,-100,4,2,1,50,0,0
37632,324.324324324325,4,2,1,50,1,0
37632,-100,4,2,1,50,0,0
37956,335.195530726257,4,2,1,50,1,0
37956,-100,4,2,1,50,0,0
38123,-100,4,2,1,50,0,0
38626,312.5,4,2,1,50,1,0
38626,-100,4,2,1,50,0,0
38938,322.58064516129,4,2,1,50,1,0
38938,-100,4,2,1,50,0,0
39583,312.5,4,2,1,50,1,0
39583,-100,4,2,1,50,0,0
39895,322.58064516129,4,2,1,50,1,0
39895,-100,4,2,1,50,0,0
40237,319.148936170213,4,2,1,50,1,0
40237,-100,4,2,1,50,0,0
41513,324.324324324324,4,2,1,50,1,0
41513,-100,4,2,1,50,0,0
43783,329.67032967033,4,2,1,50,1,0
43783,-100,4,2,1,50,0,0
44112,326.086956521739,4,2,1,60,1,0
44112,-100,4,2,1,60,0,0
45416,-100,4,2,1,60,0,0
46068,320.855614973262,4,2,1,65,1,0
46068,-100,4,2,1,65,0,0
46711,317.460317460317,4,2,1,65,1,0
46711,-100,4,2,1,65,0,0
48457,-100,4,2,1,65,0,0
49268,326.086956521739,4,2,1,65,1,0
49268,-100,4,2,1,65,0,0
50574,322.58064516129,4,2,1,65,1,0
50574,-100,4,2,1,65,0,0
50896,-100,4,2,1,65,0,0
51864,-100,4,2,1,65,0,0
52670,-100,4,2,1,65,0,0
53152,309.278350515464,4,2,1,65,1,0
53152,-100,4,2,1,65,0,0
53770,337.078651685393,4,2,1,65,1,0
53770,-100,4,2,1,65,0,0
54444,335.195530726257,4,2,1,65,1,0
54444,-100,4,2,1,80,0,1
55114,324.324324324324,4,2,1,75,1,0
55114,-100,4,2,1,75,0,0
55438,328.767123287671,4,2,1,85,1,1
55438,-100,4,2,1,85,0,0
55602,-100,4,2,1,80,0,1
56095,317.460317460317,4,2,1,80,1,1
56095,-100,4,2,1,80,0,1
57047,321.71581769437,4,2,1,80,1,1
57047,-100,4,2,1,80,0,1
58333,317.460317460317,4,2,1,80,1,1
58333,-100,4,2,1,80,0,1
59285,-100,4,2,1,80,0,1
59602,324.324324324324,4,2,1,80,1,1
59602,-100,4,2,1,80,0,1
62196,319.148936170213,4,2,1,80,1,1
62196,-100,4,2,1,80,0,1
64112,335.195530726257,4,2,1,80,1,1
64112,-100,4,2,1,80,0,1
64780,326.086956521739,4,2,1,80,1,1
64780,-100,4,2,1,80,0,1
65106,-100,4,2,1,80,0,1
65432,314.13612565445,4,2,1,75,1,1
65432,-100,4,2,1,75,0,1
65903,-100,4,2,1,80,0,1
66374,322.58064516129,4,2,1,80,1,1
66374,-100,4,2,1,80,0,1
67341,324.324324324324,4,2,1,80,1,1
67341,-100,4,2,1,80,0,1
68638,317.460317460317,4,2,1,80,1,1
68638,-100,4,2,1,80,0,1
68646,-100,4,2,1,80,0,1
69114,-100,4,2,1,80,0,1
69272,322.58064516129,4,2,1,80,1,1
69272,-100,4,2,1,80,0,1
69594,329.67032967033,4,2,1,80,1,1
69594,-100,4,2,1,80,0,1
69923,317.460317460317,4,2,1,65,1,0
69923,-100,4,2,1,65,0,0
70557,-100,4,2,1,65,0,0
71194,355.029585798817,4,2,1,65,1,0
71194,-100,4,2,1,65,0,0
71549,314.13612565445,4,2,1,65,1,0
72177,-100,4,2,1,65,0,0
72519,320.855614973262,4,2,1,65,1,0
72519,-100,4,2,1,65,0,0
73481,331.491712707182,4,2,1,65,1,0
73481,-100,4,2,1,65,0,0
74143,312.5,4,2,1,65,1,0
74143,-100,4,2,1,65,0,0
75080,329.67032967033,4,2,1,65,1,0
76728,317.460317460317,4,2,1,50,1,0
76728,-100,4,2,1,50,0,0
77680,315.789473684211,4,2,1,50,1,0
77680,-100,4,2,1,50,0,0
78627,326.086956521739,4,2,1,50,1,0
78627,-100,4,2,1,50,0,0
79442,-100,4,2,1,40,0,0
80277,324.324324324324,4,2,1,40,1,0
80277,-100,4,2,1,40,0,0
88060,-100,4,2,1,15,0,0

[Colours]
Combo1 : 236,197,228
Combo2 : 246,237,165
Combo3 : 137,193,219
Combo4 : 212,244,162

[HitObjects]
65,201,244,5,4,1:2:0:0:
65,201,405,1,0,1:2:0:0:
129,268,567,2,0,P|155:220|149:166,1,105.000004005432,8|0,0:0|0:0,0:0:0:0:
154,153,890,2,0,P|177:125|231:117,1,70,0|0,1:2|1:2,0:0:0:0:
317,83,1213,2,0,P|303:132|313:207,1,105,8|0,0:0|0:0,0:0:0:0:
321,198,1536,2,0,P|369:214|396:197,1,70,8|8,0:0|0:0,0:0:0:0:
403,210,1775,1,8,0:0:0:0:
416,216,1855,2,0,P|426:237|426:257,3,35,8|8|8|8,1:2|0:0|0:0|0:0,0:0:0:0:
440,293,2174,2,0,P|432:314|418:329,3,35,8|8|8|8,1:2|0:0|0:0|0:0,0:0:0:0:
385,358,2493,5,8,1:3:0:0:
247,302,2881,2,0,P|256:253|267:153,1,140,14|0,1:2|1:2,0:0:0:0:
272,60,3331,2,0,P|235:88|199:87,1,70,12|0,0:0|1:2,0:0:0:0:
143,64,3631,1,0,1:2:0:0:
39,19,3781,2,0,P|66:78|76:176,1,140,12|0,0:0|1:2,0:0:0:0:
30,227,4267,1,12,0:0:0:0:
89,287,4429,2,0,P|137:289|173:269,1,70,0|0,1:2|1:2,0:0:0:0:
252,212,4753,2,0,P|245:267|259:342,1,105,12|0,0:0|0:0,0:0:0:0:
266,328,5090,2,0,P|323:338|343:364,1,70,8|0,0:0|1:2,0:0:0:0:
425,348,5405,6,0,L|435:267,1,70,12|0,0:0|1:2,0:0:0:0:
496,220,5720,1,0,1:2:0:0:
441,152,5878,2,0,P|406:152|371:179,1,70,12|0,0:0|1:2,0:0:0:0:
306,199,6194,1,0,1:2:0:0:
238,148,6352,1,12,0:0:0:0:
238,148,6515,2,0,P|240:85|318:57,1,140,0|12,1:2|0:0,0:0:0:0:
380,22,7004,1,0,1:2:0:0:
380,22,7167,1,0,1:2:0:0:
453,70,7330,2,0,P|467:119|460:175,1,105,12|0,0:0|0:0,0:0:0:0:
459,202,7656,2,0,P|424:187|380:184,1,70,8|0,0:0|1:2,0:0:0:0:
285,239,7982,6,0,B|305:276|305:276|302:330,1,70,12|0,0:0|0:0,0:0:0:0:
244,360,8302,1,0,1:2:0:0:
159,333,8463,2,0,L|86:322,1,70,12|0,0:0|0:0,0:0:0:0:
7,348,8784,1,0,1:2:0:0:
3,246,8944,5,12,0:0:0:0:
3,246,9104,2,0,B|104:226|82:261|171:230,1,140,0|12,1:2|0:0,0:0:0:0:
222,193,9586,2,0,P|225:151|192:115,1,70,0|0,1:2|1:2,0:0:0:0:
194,21,9907,1,12,0:0:0:0:
111,0,10072,1,0,1:2:0:0:
37,45,10238,2,0,P|24:91|35:124,1,70,8|0,0:0|1:2,0:0:0:0:
144,167,10569,6,0,B|244:143|208:191|308:166,1,140,12|0,0:0|1:2,0:0:0:0:
368,121,11055,2,0,L|361:209,1,70,12|0,0:0|1:2,0:0:0:0:
346,269,11379,1,0,1:2:0:0:
432,313,11541,1,12,0:0:0:0:
432,313,11699,2,0,P|482:289|480:191,1,140,0|12,1:2|0:0,0:0:0:0:
446,144,12175,1,0,1:2:0:0:
446,144,12334,1,4,1:2:0:0:
503,89,12493,2,0,P|494:45|466:24,2,70,12|0|8,0:0|1:2|0:0,0:0:0:0:
446,144,12974,1,4,0:3:0:0:
375,81,13134,6,0,P|322:70|298:94,1,70,4|0,1:2|0:0,0:0:0:0:
296,154,13458,2,0,B|161:156|256:210|98:227,1,210,8|0,0:0|1:2,0:0:0:0:
17,194,14106,2,0,P|34:251|51:322,1,105,8|0,0:0|1:2,0:0:0:0:
55,308,14431,6,0,P|99:338|105:365,1,70,2|2,1:2|1:2,0:0:0:0:
189,382,14751,2,0,P|196:336|208:313,1,70,10|2,0:0|1:3,0:0:0:0:
286,270,15072,1,2,1:2:0:0:
286,270,15233,1,2,1:2:0:0:
227,202,15393,1,10,0:0:0:0:
227,202,15553,1,2,1:2:0:0:
288,136,15714,6,0,P|341:153|366:227,1,140,0|8,1:2|0:0,0:0:0:0:
286,270,16203,2,0,L|239:277,2,35,0|0|0,1:2|1:2|1:2,0:0:0:0:
360,334,16529,1,0,1:2:0:0:
360,334,16692,2,0,P|401:335|428:354,1,70,8|0,0:0|1:2,0:0:0:0:
438,353,16936,1,0,1:2:0:0:
452,347,17018,6,0,L|469:268,1,70,2|2,1:2|1:2,0:0:0:0:
381,233,17341,2,0,L|364:154,1,70,10|2,0:0|1:3,0:0:0:0:
432,108,17664,1,2,1:2:0:0:
432,108,17826,1,2,1:2:0:0:
377,44,17988,1,10,0:0:0:0:
377,44,18150,1,2,1:2:0:0:
458,2,18311,6,0,B|325:-3|403:48|249:83,1,210,0|0,1:2|1:2,0:0:0:0:
257,82,18877,1,0,1:2:0:0:
247,81,18958,2,0,P|222:54|204:19,1,70,0|0,1:2|1:2,0:0:0:0:
104,129,19282,2,0,P|170:130|209:173,1,105,8|0,0:0|1:2,0:0:0:0:
204,168,19605,6,0,L|188:246,1,70,2|2,1:2|1:2,0:0:0:0:
96,276,19926,2,0,L|112:198,1,70,10|0,0:0|1:3,0:0:0:0:
170,339,20230,1,2,1:2:0:0:
170,339,20382,1,2,1:2:0:0:
84,369,20535,1,10,0:0:0:0:
84,369,20694,1,2,1:2:0:0:
13,303,20854,6,0,P|3:251|11:223,1,70,0|0,1:2|1:2,0:0:0:0:
56,167,21189,1,8,0:0:0:0:
131,204,21356,2,0,L|165:209,2,35,0|0|0,1:2|1:2|1:2,0:0:0:0:
56,167,21691,1,0,1:2:0:0:
121,111,21859,2,0,P|115:66|94:34,1,70,8|0,0:0|1:2,0:0:0:0:
95,39,22110,1,0,1:2:0:0:
84,36,22194,6,0,L|20:90,1,70,2|2,1:2|1:2,0:0:0:0:
56,167,22513,2,0,L|66:248,1,70,10|2,0:0|1:3,0:0:0:0:
139,280,22832,1,2,1:2:0:0:
139,280,22991,1,2,1:2:0:0:
213,255,23151,1,10,0:0:0:0:
293,233,23311,5,10,0:0:0:0:
293,233,23390,1,8,0:0:0:0:
293,233,23470,2,0,P|279:164|264:84,1,140,4|10,1:2|0:0,0:0:0:0:
343,40,23938,1,0,1:2:0:0:
343,40,24016,1,8,0:2:0:0:
343,40,24095,2,0,P|356:80|352:113,1,70,2|0,1:2|0:0,0:0:0:0:
431,135,24415,2,0,P|422:173|397:201,1,70,10|2,0:0|0:0,0:0:0:0:
475,273,24736,6,0,P|408:250|313:255,1,140,2|10,1:2|0:0,0:0:0:0:
278,309,25244,1,2,1:2:0:0:
190,261,25413,2,0,P|187:306|201:351,1,70,2|0,1:2|0:0,0:0:0:0:
108,384,25733,2,0,P|98:333|106:295,1,70,10|2,0:0|1:2,0:0:0:0:
34,248,26054,6,0,L|122:238,1,70,2|0,1:2|0:0,0:0:0:0:
190,261,26369,2,0,P|177:202|185:128,1,105,10|0,0:0|0:0,0:0:0:0:
187,145,26685,2,0,P|149:122|108:128,1,70,0|0,1:2|1:2,0:0:0:0:
51,154,27001,1,8,0:0:0:0:
0,96,27159,1,0,0:0:0:0:
0,96,27238,1,0,0:0:0:0:
0,96,27317,2,0,L|20:19,1,70,0|0,1:2|1:2,0:0:0:0:
93,0,27641,1,8,0:0:0:0:
164,44,27803,6,0,B|250:59|222:21|325:43,1,140,2|0,1:2|1:2,0:0:0:0:
418,15,28289,2,0,P|392:47|391:75,1,70,10|0,0:0|0:0,0:0:0:0:
470,115,28614,1,0,1:2:0:0:
470,115,28776,1,0,0:0:0:0:
415,174,28938,1,10,0:0:0:0:
479,235,29100,1,2,1:2:0:0:
479,235,29181,1,8,0:2:0:0:
479,235,29262,2,0,P|486:276|482:303,1,70,2|0,1:2|1:2,0:0:0:0:
395,334,29587,2,0,P|388:293|392:266,1,70,10|2,0:0|0:0,0:0:0:0:
415,174,29911,6,0,B|353:196|353:196|286:152,1,140,2|10,1:2|0:0,0:0:0:0:
216,199,30398,1,2,1:2:0:0:
216,199,30479,1,8,0:2:0:0:
216,199,30560,2,0,L|230:271,1,70,2|0,1:2|1:2,0:0:0:0:
296,325,30884,1,10,0:0:0:0:
296,325,31046,1,2,0:0:0:0:
220,378,31208,6,0,P|175:364|143:360,1,70,2|0,1:2|0:0,0:0:0:0:
68,376,31528,2,0,P|74:316|72:249,1,105,10|8,0:0|0:2,0:0:0:0:
67,262,31849,2,0,P|97:227|139:233,1,70,0|0,1:2|1:2,0:0:0:0:
197,257,32170,1,8,0:0:0:0:
266,204,32330,1,0,1:2:0:0:
266,204,32411,1,8,0:2:0:0:
266,204,32491,2,0,L|258:130,1,70,2|2,1:2|1:2,0:0:0:0:
247,54,32812,1,10,0:0:0:0:
162,12,32972,6,0,B|63:40|140:50|23:75,1,140,2|2,1:2|1:2,0:0:0:0:
3,150,33453,2,0,P|47:168|103:136,1,105,14|0,0:0|0:0,0:0:0:0:
120,127,33774,6,0,P|94:182|90:278,1,140,4|10,1:2|0:0,0:0:0:0:
42,353,34256,1,2,1:2:0:0:
42,353,34336,1,8,0:2:0:0:
42,353,34416,2,0,L|123:334,1,70,2|0,1:2|1:2,0:0:0:0:
186,361,34737,2,0,L|267:342,1,70,10|0,0:0|0:0,0:0:0:0:
318,277,35058,6,0,B|285:257|285:257|309:202|282:138,1,140,2|10,1:2|0:0,0:0:0:0:
203,87,35549,1,2,1:2:0:0:
271,48,35713,2,0,P|301:42|346:58,1,70,2|2,1:2|1:2,0:0:0:0:
424,28,36041,1,10,0:0:0:0:
433,104,36205,1,2,1:2:0:0:
512,155,36369,6,0,P|479:185|468:233,1,70,2|0,1:2|1:2,0:0:0:0:
500,285,36684,2,0,P|501:325|441:369,1,105,10|8,0:0|0:2,0:0:0:0:
439,363,37000,2,0,L|360:350,1,70,0|0,1:2|1:2,0:0:0:0:
319,292,37316,1,8,0:0:0:0:
351,218,37474,1,0,1:2:0:0:
351,218,37553,1,8,0:0:0:0:
351,218,37632,2,0,P|359:171|353:142,1,70,2|2,1:2|1:2,0:0:0:0:
319,75,37956,1,10,0:0:0:0:
233,103,38123,6,0,B|143:79|202:64|104:31,1,140,2|2,1:2|1:2,0:0:0:0:
26,136,38626,2,0,P|60:119|99:111,1,70,10|2,0:0|1:2,0:0:0:0:
165,175,38938,5,2,1:2:0:0:
165,175,39099,1,0,1:2:0:0:
126,243,39260,2,0,P|85:255|48:255,1,70,10|2,0:0|1:2,0:0:0:0:
18,343,39583,2,0,P|78:332|146:350,1,105,2|0,1:2|0:0,0:0:0:0:
132,350,39895,2,0,P|183:371|214:364,1,70,10|2,0:0|1:2,0:0:0:0:
271,318,40237,2,0,L|246:168,1,140,2|10,1:2|0:0,0:0:0:0:
307,118,40715,1,2,1:2:0:0:
383,167,40875,2,0,P|385:217|367:247,1,70,2|2,1:2|1:2,0:0:0:0:
361,316,41194,2,0,P|415:310|449:282,1,70,10|2,0:0|1:2,0:0:0:0:
504,358,41513,6,0,P|475:299|470:211,1,140,2|8,1:2|0:0,0:0:0:0:
500,146,41999,1,0,1:2:0:0:
432,99,42161,2,0,P|418:57|417:21,1,70,0|0,1:2|1:2,0:0:0:0:
340,3,42485,1,8,0:0:0:0:
284,67,42648,1,0,1:2:0:0:
284,67,42729,1,8,0:0:0:0:
284,67,42810,2,0,L|314:149,1,70,2|2,1:2|1:2,0:0:0:0:
339,205,43134,1,10,0:0:0:0:
244,190,43296,6,0,B|157:213|209:237|120:266,1,140,6|10,1:2|0:0,0:0:0:0:
52,250,43783,2,0,L|36:291,3,35,8|8|8|8,0:3|0:3|0:0|0:0,0:0:0:0:
31,298,44112,6,0,L|61:381,1,70,4|0,1:2|0:0,0:0:0:0:
135,384,44438,1,10,0:0:0:0:
205,329,44601,1,2,0:0:0:0:
205,329,44682,1,10,0:0:0:0:
205,329,44764,2,0,P|246:321|290:333,1,70,2|0,1:2|0:0,0:0:0:0:
341,369,45090,1,10,0:0:0:0:
341,369,45253,1,2,1:2:0:0:
427,334,45416,6,0,P|431:268|461:186,1,140,0|10,0:0|0:0,0:0:0:0:
357,164,45905,1,2,1:2:0:0:
357,164,45987,1,8,0:0:0:0:
357,164,46068,2,0,P|370:211|396:235,1,70,2|2,1:2|1:2,0:0:0:0:
454,198,46388,2,0,P|449:156|423:131,1,70,8|2,0:0|1:2,0:0:0:0:
307,95,46711,6,0,P|317:160|287:257,1,140,0|10,1:2|0:0,0:0:0:0:
205,262,47187,1,2,1:2:0:0:
205,262,47266,1,8,0:0:0:0:
205,262,47345,2,0,P|194:217|195:186,1,70,2|2,1:2|1:2,0:0:0:0:
207,121,47663,1,8,0:0:0:0:
51,87,47980,6,0,P|101:130|117:219,1,140,0|8,1:2|0:0,0:0:0:0:
50,241,48457,1,2,1:2:0:0:
50,241,48615,2,0,P|28:192|35:161,1,70,0|0,1:2|1:2,0:0:0:0:
51,87,48933,2,0,L|168:63,1,105,14|8,0:0|0:0,0:0:0:0:
192,63,49268,5,4,0:0:0:0:
237,204,49594,2,0,P|257:152|263:109,1,70,10|2,0:0|1:2,0:0:0:0:
269,127,49838,1,8,0:0:0:0:
281,119,49920,2,0,B|370:105|341:148|438:128,1,140,2|8,1:2|0:0,0:0:0:0:
480,73,50409,6,0,P|507:103|501:142,1,70,2|0,1:2|1:2,0:0:0:0:
499,218,50735,1,0,1:2:0:0:
499,218,50896,2,0,P|451:207|400:214,1,70,10|2,0:0|1:2,0:0:0:0:
418,218,51138,1,8,0:0:0:0:
410,230,51219,2,0,L|427:308,1,70,2|2,1:2|1:2,0:0:0:0:
366,367,51541,5,8,0:0:0:0:
366,367,51703,2,0,B|276:344|313:380|205:359,1,140,10|0,0:0|0:0,0:0:0:0:
172,299,52186,2,0,L|161:217,1,70,10|2,0:0|1:2,0:0:0:0:
168,218,52428,1,8,0:0:0:0:
175,208,52509,2,0,P|232:203|257:217,1,70,2|2,1:2|1:2,0:0:0:0:
317,178,52832,1,8,0:0:0:0:
317,178,52993,1,2,1:2:0:0:
322,96,53152,2,0,P|284:28|204:16,1,140,0|14,1:2|0:0,0:0:0:0:
147,44,53615,5,2,1:2:0:0:
147,44,53693,1,8,0:0:0:0:
147,44,53770,2,0,L|88:53,3,35,10|0|10|8,0:0|0:0|0:3|0:3,0:0:0:0:
62,53,54107,2,0,L|31:84,3,35,4|4|6|4,0:3|0:3|0:3|0:3,0:0:0:0:
24,125,54444,6,0,B|51:217|-4:185|35:285,1,140,6|8,1:2|0:0,0:0:0:0:
109,216,54946,1,2,0:0:0:0:
159,310,55114,1,2,1:2:0:0:
159,310,55276,2,0,P|183:263|185:225,1,70,2|8,1:2|0:0,0:0:0:0:
252,138,55602,2,0,P|254:196|302:297,1,140,6|0,1:2|0:0,0:0:0:0:
356,325,56095,2,0,P|374:283|373:249,1,70,8|0,0:0|1:2,0:0:0:0:
449,212,56412,1,2,1:2:0:0:
449,212,56571,1,0,1:2:0:0:
380,159,56729,2,0,P|360:122|358:78,1,70,10|0,0:0|1:2,0:0:0:0:
401,25,57047,6,0,L|479:11,1,70,2|2,1:2|1:2,0:0:0:0:
322,21,57368,2,0,L|244:35,1,70,10|2,0:0|1:2,0:0:0:0:
435,105,57690,6,0,L|513:91,1,70,2|2,1:2|1:2,0:0:0:0:
356,101,58011,2,0,L|278:115,1,70,10|2,0:0|1:2,0:0:0:0:
192,190,58333,5,2,1:2:0:0:
192,190,58491,2,0,P|150:128|151:108,1,70,2|10,1:2|0:0,0:0:0:0:
28,89,58809,2,0,P|75:154|83:235,1,140,2|2,0:0|1:2,0:0:0:0:
158,288,59285,2,0,P|168:238|200:178,1,105,14|0,0:0|0:0,0:0:0:0:
207,183,59602,6,0,P|223:133|187:35,1,140,6|8,1:2|0:0,0:0:0:0:
121,15,60088,1,2,0:0:0:0:
126,99,60250,2,0,P|169:108|212:98,1,70,2|2,1:2|1:2,0:0:0:0:
299,153,60574,1,10,0:0:0:0:
299,153,60737,2,0,B|386:140|352:187|465:169,1,140,6|0,1:2|1:2,0:0:0:0:
512,83,61223,2,0,P|464:83|432:104,1,70,8|0,0:0|0:0,0:0:0:0:
435,172,61547,2,0,P|457:220|463:292,1,105,2|0,1:2|0:0,0:0:0:0:
458,294,61872,1,8,0:0:0:0:
322,225,62196,5,6,1:2:0:0:
244,311,62355,2,0,P|239:270|249:232,1,70,2|8,1:2|0:0,0:0:0:0:
147,204,62674,2,0,P|150:250|167:282,1,70,2|0,0:0|1:2,0:0:0:0:
56,318,62993,2,0,P|58:271|72:241,1,70,2|8,1:2|0:0,0:0:0:0:
21,183,63313,5,2,1:2:0:0:
21,183,63472,2,0,L|12:139,3,35,14|8|8|8,1:2|0:3|0:3|0:3,0:0:0:0:
5,104,63791,2,0,L|14:60,3,35,10|8|10|8,0:0|0:0|0:0|0:0,0:0:0:0:
31,28,64112,2,0,L|81:18,3,35,8|8|10|8,1:3|0:3|0:3|0:3,0:0:0:0:
113,38,64447,2,0,L|163:48,3,35,10|8|8|8,0:0|0:0|0:0|0:0,0:0:0:0:
199,30,64780,6,0,P|186:74|189:183,1,140,6|8,1:2|0:0,0:0:0:0:
106,202,65269,1,2,0:0:0:0:
175,264,65432,1,2,1:2:0:0:
175,264,65589,2,0,P|228:248|273:253,1,70,2|8,1:2|0:0,0:0:0:0:
337,358,65903,2,0,P|334:286|358:204,1,140,6|0,1:2|1:2,0:0:0:0:
323,144,66374,1,8,0:0:0:0:
455,282,66696,1,2,1:2:0:0:
455,282,66857,1,0,1:2:0:0:
493,216,67019,2,0,P|492:176|475:144,1,70,10|0,0:0|1:2,0:0:0:0:
389,43,67341,6,0,L|305:64,1,70,2|2,1:2|1:2,0:0:0:0:
251,94,67665,2,0,L|167:115,1,70,10|2,0:0|0:0,0:0:0:0:
89,74,67989,1,2,1:2:0:0:
89,74,68151,1,0,1:2:0:0:
44,140,68313,2,0,P|35:177|42:226,1,70,10|0,0:0|1:2,0:0:0:0:
96,315,68638,1,2,1:2:0:0:
133,248,68796,2,0,P|185:225|213:218,1,70,2|10,1:2|0:0,0:0:0:0:
316,206,69114,2,0,P|276:172|229:161,1,70,2|12,1:2|0:0,0:0:0:0:
253,76,69433,1,10,0:3:0:0:
253,76,69594,2,0,P|302:72|330:107,1,70,8|4,0:0|0:3,0:0:0:0:
438,10,69923,6,0,P|415:43|409:158,1,140,4|2,1:2|0:0,0:0:0:0:
512,211,70399,1,2,0:0:0:0:
512,211,70557,2,0,B|428:190|455:243|347:216,1,140,8|10,0:0|0:0,0:0:0:0:
304,182,71034,5,6,1:2:0:0:
482,294,71371,1,8,0:0:0:0:
482,294,71549,1,0,1:2:0:0:
358,360,71863,2,0,P|373:287|372:194,1,140,10|8,0:0|0:3,0:0:0:0:
401,148,72334,1,0,0:0:0:0:
328,90,72519,6,0,P|274:80|206:138,1,140,6|0,1:2|0:0,0:0:0:0:
134,91,73000,1,0,1:2:0:0:
94,190,73160,2,0,P|68:151|64:111,1,70,8|0,0:0|0:0,0:0:0:0:
1,81,73481,2,0,P|23:30|46:12,1,70,8|4,0:0|1:2,0:0:0:0:
149,0,73812,6,0,P|177:14|215:30,1,70,2|8,1:2|0:0,0:0:0:0:
328,90,74143,2,0,P|272:111|246:122,1,70,8|0,0:3|0:0,0:0:0:0:
193,189,74455,1,10,0:0:0:0:
193,189,74611,1,8,0:3:0:0:
284,264,74768,2,0,P|284:226|272:189,1,70,4|4,0:3|0:3,0:0:0:0:
187,106,75080,6,0,P|160:137|129:246,1,140,4|2,1:2|0:0,0:0:0:0:
47,239,75574,1,2,1:2:0:0:
81,333,75739,1,10,0:0:0:0:
81,333,75904,2,0,P|129:310|162:310,1,70,2|0,1:2|0:0,0:0:0:0:
222,246,76233,2,0,B|254:324|199:297|242:394,1,140,6|8,1:2|0:2,0:0:0:0:
316,375,76728,1,0,1:2:0:0:
464,245,77045,6,0,P|419:225|397:207,1,70,10|0,0:0|1:2,0:0:0:0:
318,194,77362,1,10,0:3:0:0:
318,194,77680,6,0,B|355:109|300:136|332:58,1,140,6|0,1:2|0:0,0:0:0:0:
389,0,78153,1,0,1:2:0:0:
459,37,78311,2,0,P|473:89|461:120,1,70,8|0,0:0|0:0,0:0:0:0:
496,184,78627,1,0,0:0:0:0:
496,184,78790,2,0,P|446:144|363:139,1,140,6|8,1:2|0:0,0:0:0:0:
321,198,79279,5,8,0:3:0:0:
321,198,79442,1,8,0:0:0:0:
239,154,79605,1,8,0:0:0:0:
239,154,79768,1,8,0:3:0:0:
179,219,79931,1,0,0:3:0:0:
106,77,80277,5,6,1:2:0:0:
256,192,80439,12,0,88060,0:0:0:0:
