osu file format v14

[General]
AudioFilename: audio.mp3
AudioLeadIn: 0
PreviewTime: 54444
Countdown: 0
SampleSet: Soft
StackLeniency: 0.7
Mode: 0
LetterboxInBreaks: 0
WidescreenStoryboard: 1

[Editor]
DistanceSpacing: 0.8
BeatDivisor: 4
GridSize: 32
TimelineZoom: 2.499999

[Metadata]
Title:Hito toshite Jiku ga Bureteiru (TV Size)
TitleUnicode:人として軸がぶれている (TV Size)
Artist:Kenji Ohtsuki to Zetsubou Shoujotachi
ArtistUnicode:大槻ケンヂと絶望少女達
Creator:keevy
Version:Extra
Source:さよなら絶望先生
Tags:sayonara zetsubou sensei op 1 bure kenji ootsuki ohtsuki despair j rock jrock j-rock japanese
BeatmapID:3724881
BeatmapSetID:1815708

[Difficulty]
HPDrainRate:5
CircleSize:3.8
OverallDifficulty:9
ApproachRate:9.3
SliderMultiplier:2
SliderTickRate:1

[Events]
//Background and Video events
0,0,"cropped-1920-1080-73159.jpg",0,0
//Break Periods
//Storyboard Layer 0 (Background)
//Storyboard Layer 1 (Fail)
//Storyboard Layer 2 (Pass)
//Storyboard Layer 3 (Foreground)
//Storyboard Layer 4 (Overlay)
//Storyboard Sound Samples

[TimingPoints]
244,323.014804845222,4,2,1,60,1,0
244,-66.6666666666667,4,2,1,60,0,0
890,-100,4,2,1,60,0,0
1536,319.148936170213,4,2,1,60,1,0
1536,-66.6666666666667,4,2,1,60,0,0
2493,310.880829015544,4,2,1,60,1,0
2881,300,4,2,1,75,1,1
2881,-100,4,2,1,75,0,1
3781,324.324324324324,4,2,1,75,1,1
3781,-100,4,2,1,75,0,1
4753,337.078651685394,4,2,1,75,1,1
4753,-100,4,2,1,75,0,1
5405,315.789473684211,4,2,1,75,1,1
5405,-100,4,2,1,75,0,1
6352,326.08695652174,4,2,1,75,1,1
6352,-100,4,2,1,75,0,1
6515,-66.6666666666667,4,2,1,75,0,1
7982,320.855614973262,4,2,1,75,1,1
7982,-83.3333333333333,4,2,1,75,0,1
9907,331.491712707182,4,2,1,75,1,1
9907,-100,4,2,1,75,0,1
10569,324.324324324324,4,2,1,75,1,1
10569,-100,4,2,1,75,0,1
11541,317.460317460317,4,2,1,75,1,1
11541,-100,4,2,1,75,0,1
11699,-66.6666666666667,4,2,1,75,0,1
12017,-100,4,2,1,75,0,1
12493,320.855614973262,4,2,1,75,1,1
12493,-100,4,2,1,75,0,1
13134,324.324324324324,4,2,1,60,1,0
13134,-133.333333333333,4,2,1,60,0,0
14431,320.855614973262,4,2,1,60,1,0
14431,-133.333333333333,4,2,1,60,0,0
15714,326.086956521739,4,2,1,50,1,0
15714,-133.333333333333,4,2,1,50,0,0
17018,323.450134770889,4,2,1,50,1,0
17018,-133.333333333333,4,2,1,50,0,0
19605,321.71581769437,4,2,1,50,1,0
19605,-133.333333333333,4,2,1,50,0,0
19926,304.568527918782,4,2,1,50,1,0
19926,-133.333333333333,4,2,1,50,0,0
20535,319.148936170213,4,2,1,50,1,0
20535,-133.333333333333,4,2,1,50,0,0
20854,335.195530726257,4,2,1,50,1,0
20854,-100,4,2,1,50,0,0
22194,319.148936170213,4,2,1,50,1,0
22194,-133.333333333333,4,2,1,50,0,0
23470,312.5,4,2,1,50,1,0
23470,-133.333333333333,4,2,1,50,0,0
24095,320.855614973262,4,2,1,50,1,0
24095,-133.333333333333,4,2,1,50,0,0
24736,338.983050847458,4,2,1,50,1,0
24736,-100,4,2,1,50,0,0
25413,320.855614973262,4,2,1,50,1,0
25413,-133.333333333333,4,2,1,50,0,0
26054,315.789473684211,4,2,1,50,1,0
26054,-133.333333333333,4,2,1,50,0,0
26369,-100,4,2,1,50,0,0
27317,324.324324324324,4,2,1,50,1,0
27317,-83.3333333333333,4,2,1,50,0,0
29262,-100,4,2,1,50,0,0
31208,320.855614973262,4,2,1,60,1,0
31208,-100,4,2,1,60,0,0
33694,-133.333333333333,4,2,1,5,0,0
33774,-133.333333333333,4,2,1,60,0,0
35058,327.868852459016,4,2,1,50,1,0
35058,-100,4,2,1,50,0,0
36369,315.78947368421,4,2,1,50,1,0
36369,-66.6666666666667,4,2,1,50,0,0
37000,-100,4,2,1,50,0,0
37632,324.324324324325,4,2,1,50,1,0
37632,-100,4,2,1,50,0,0
37956,335.195530726257,4,2,1,50,1,0
37956,-100,4,2,1,50,0,0
38123,-83.3333333333333,4,2,1,50,0,0
38626,312.5,4,2,1,50,1,0
38626,-100,4,2,1,50,0,0
38938,322.58064516129,4,2,1,50,1,0
38938,-133.333333333333,4,2,1,50,0,0
39583,312.5,4,2,1,50,1,0
39583,-133.333333333333,4,2,1,50,0,0
39895,322.58064516129,4,2,1,50,1,0
39895,-100,4,2,1,50,0,0
40237,319.148936170213,4,2,1,50,1,0
40237,-133.333333333333,4,2,1,50,0,0
41513,324.324324324324,4,2,1,50,1,0
41513,-100,4,2,1,50,0,0
43783,329.67032967033,4,2,1,50,1,0
43783,-100,4,2,1,50,0,0
44112,326.086956521739,4,2,1,60,1,0
44112,-83.3333333333333,4,2,1,60,0,0
45416,-100,4,2,1,60,0,0
46068,320.855614973262,4,2,1,65,1,0
46068,-117.647058823529,4,2,1,65,0,0
46711,317.460317460317,4,2,1,65,1,0
46711,-100,4,2,1,65,0,0
47980,-83.3333333333333,4,2,1,65,0,0
48457,-100,4,2,1,65,0,0
49268,326.086956521739,4,2,1,65,1,0
49268,-117.647058823529,4,2,1,65,0,0
50574,322.58064516129,4,2,1,65,1,0
50574,-100,4,2,1,65,0,0
50896,-117.647058823529,4,2,1,65,0,0
51864,-83.3333333333333,4,2,1,65,0,0
52670,-100,4,2,1,65,0,0
53152,309.278350515464,4,2,1,65,1,0
53152,-117.647058823529,4,2,1,65,0,0
53770,337.078651685393,4,2,1,65,1,0
53770,-100,4,2,1,65,0,0
54444,335.195530726257,4,2,1,60,1,0
54444,-100,4,2,1,80,0,1
55114,324.324324324324,4,2,1,75,1,0
55114,-100,4,2,1,75,0,0
55438,328.767123287671,4,2,1,80,1,0
55438,-100,4,2,1,85,0,0
55602,-101.010101010101,4,2,1,80,0,1
56095,317.460317460317,4,2,1,80,1,1
56095,-100,4,2,1,80,0,1
57047,321.71581769437,4,2,1,80,1,1
57047,-100,4,2,1,80,0,1
58333,317.460317460317,4,2,1,80,1,1
58333,-100,4,2,1,80,0,1
59285,-66.6666666666667,4,2,1,80,0,1
59602,324.324324324324,4,2,1,80,1,1
59602,-100,4,2,1,80,0,1
62196,319.148936170213,4,2,1,80,1,1
62196,-100,4,2,1,80,0,1
64112,335.195530726257,4,2,1,80,1,1
64112,-100,4,2,1,80,0,1
64780,326.086956521739,4,2,1,80,1,1
64780,-66.6666666666667,4,2,1,80,0,1
65106,-100,4,2,1,80,0,1
65432,314.13612565445,4,2,1,80,1,1
65432,-100,4,2,1,75,0,0
65903,-100,4,2,1,80,0,1
66374,322.58064516129,4,2,1,80,1,1
66374,-100,4,2,1,80,0,1
67341,324.324324324324,4,2,1,80,1,1
67341,-100,4,2,1,80,0,1
68638,317.460317460317,4,2,1,80,1,1
68638,-100,4,2,1,80,0,1
68646,-133.333333333333,4,2,1,80,0,1
69114,-100,4,2,1,80,0,1
69272,322.58064516129,4,2,1,80,1,1
69272,-100,4,2,1,80,0,1
69594,329.67032967033,4,2,1,80,1,1
69594,-100,4,2,1,80,0,1
69923,317.460317460317,4,2,1,65,1,0
69923,-166.666666666667,4,2,1,65,0,0
70557,-100,4,2,1,65,0,0
71194,355.029585798817,4,2,1,65,1,0
71194,-100,4,2,1,65,0,0
71549,314.13612565445,4,2,1,65,1,0
72177,-100,4,2,1,65,0,0
72519,320.855614973262,4,2,1,65,1,0
72519,-166.666666666667,4,2,1,65,0,0
73481,331.491712707182,4,2,1,65,1,0
73481,-100,4,2,1,65,0,0
74143,312.5,4,2,1,65,1,0
74143,-100,4,2,1,65,0,0
75080,329.67032967033,4,2,1,65,1,0
76728,317.460317460317,4,2,1,50,1,0
76728,-166.666666666667,4,2,1,50,0,0
77680,315.789473684211,4,2,1,50,1,0
77680,-100,4,2,1,50,0,0
78627,326.086956521739,4,2,1,50,1,0
78627,-100,4,2,1,50,0,0
79442,-250,4,2,1,40,0,0
80277,324.324324324324,4,2,1,40,1,0
80277,-100,4,2,1,40,0,0
88060,-100,4,2,1,15,0,0

[Colours]
Combo1 : 236,197,228
Combo2 : 246,237,165
Combo3 : 137,193,219
Combo4 : 212,244,162

[HitObjects]
491,229,244,5,4,1:2:0:0:
425,265,405,1,0,1:2:0:0:
245,103,567,2,0,P|255:209|265:335,1,225.000008583069,8|0,0:0|0:0,0:0:0:0:
254,347,890,6,0,P|258:284|262:222,1,100,0|0,1:2|1:2,0:0:0:0:
93,53,1213,1,8,0:0:0:0:
147,101,1374,1,0,1:2:0:0:
341,57,1536,2,0,P|430:52|467:159,1,150.000005722046,8|8,0:0|0:0,0:0:0:0:
484,117,1775,1,8,0:0:0:0:
476,172,1855,5,8,1:2:0:0:
449,213,1934,1,8,0:0:0:0:
402,217,2014,1,8,0:0:0:0:
378,258,2094,1,8,0:0:0:0:
331,251,2174,1,8,1:2:0:0:
296,291,2254,1,8,0:0:0:0:
256,266,2333,1,8,0:0:0:0:
207,284,2413,1,8,0:0:0:0:
164,247,2493,5,8,1:3:0:0:
188,200,2570,5,8,0:3:0:0:
155,156,2648,5,8,0:3:0:0:
180,111,2726,5,8,0:3:0:0:
153,66,2803,5,8,0:3:0:0:
172,28,2881,6,0,P|267:46|278:163,1,200,14|0,1:2|1:2,0:0:0:0:
56,232,3331,2,0,P|42:172|69:113,1,100,12|0,0:0|1:2,0:0:0:0:
16,68,3631,1,0,1:2:0:0:
268,235,3781,5,12,0:0:0:0:
198,288,3943,1,0,1:2:0:0:
258,343,4105,1,0,1:2:0:0:
327,298,4267,1,12,0:0:0:0:
490,155,4429,1,0,1:2:0:0:
419,125,4591,1,0,1:2:0:0:
303,26,4753,1,12,0:0:0:0:
223,49,4921,1,0,1:2:0:0:
134,221,5090,5,8,0:0:0:0:
107,239,5174,1,8,0:0:0:0:
110,266,5258,1,0,1:2:0:0:
334,357,5405,6,0,P|341:298|342:232,1,100,12|0,0:0|1:2,0:0:0:0:
342,257,5720,1,0,1:2:0:0:
345,75,5878,2,0,P|338:134|337:200,1,100,12|0,0:0|1:2,0:0:0:0:
336,174,6194,1,0,1:2:0:0:
27,148,6352,6,0,P|10:177|15:203,1,50,12|0,0:0|0:0,0:0:0:0:
61,251,6515,2,0,B|227:196|129:315|267:338,1,225.000008583069,0|0,1:2|0:0,0:0:0:0:
311,314,6841,1,12,0:0:0:0:
458,361,7004,1,0,1:2:0:0:
483,277,7167,1,0,1:2:0:0:
383,263,7330,1,12,0:0:0:0:
346,64,7493,1,0,1:2:0:0:
479,117,7656,1,8,0:0:0:0:
276,171,7819,1,0,1:2:0:0:
274,30,7982,6,0,P|279:122|436:116,1,239.999992675781,12|0,0:0|1:2,0:0:0:0:
205,224,8463,2,0,P|200:316|43:310,1,239.999992675781,12|0,0:0|1:2,0:0:0:0:
142,4,8944,2,0,B|177:26|177:26|185:65,1,59.9999981689454,12|0,0:0|0:0,0:0:0:0:
39,173,9104,2,0,B|96:104|96:104|183:125,1,179.999994506836,0|0,1:2|0:0,0:0:0:0:
268,148,9425,2,0,P|262:84|257:27,1,119.999996337891,12|0,0:0|1:2,0:0:0:0:
257,28,9746,1,0,1:2:0:0:
483,140,9907,5,12,0:0:0:0:
336,243,10072,1,0,1:2:0:0:
121,274,10238,5,8,0:0:0:0:
218,316,10404,1,0,1:2:0:0:
378,117,10569,5,12,0:0:0:0:
268,148,10731,1,0,1:2:0:0:
218,316,10893,1,0,1:2:0:0:
295,19,11055,5,12,0:0:0:0:
229,135,11217,1,0,1:2:0:0:
327,316,11379,1,0,1:2:0:0:
165,5,11541,5,12,0:0:0:0:
414,62,11699,2,0,B|259:52|361:124|215:167,1,225.000008583069,0|0,1:2|0:0,0:0:0:0:
63,259,12017,2,0,P|45:223|92:187,1,100,12|0,0:0|1:2,0:0:0:0:
462,133,12334,1,4,1:2:0:0:
386,151,12493,2,0,P|374:218|363:272,1,100,12|0,0:0|1:2,0:0:0:0:
422,309,12733,1,0,1:2:0:0:
434,322,12813,6,0,L|372:344,1,50,8|8,0:0|0:0,0:0:0:0:
306,371,12974,2,0,L|257:384,1,50,4|4,0:3|0:3,0:0:0:0:
257,383,13134,6,0,P|257:315|256:278,1,75.0000028610231,4|0,1:2|0:0,0:0:0:0:
256,96,13458,2,0,P|257:165|266:243,1,112.500004291535,8|0,0:0|0:0,0:0:0:0:
338,240,13782,2,0,P|381:225|386:185,1,75.0000028610231,0|0,1:2|1:2,0:0:0:0:
501,74,14106,2,0,P|459:55|409:53,1,75.0000028610231,8|0,0:0|1:2,0:0:0:0:
354,66,14350,1,0,1:2:0:0:
347,72,14431,5,2,1:2:0:0:
256,22,14591,1,2,1:2:0:0:
108,127,14751,5,10,0:0:0:0:
200,97,14912,1,2,1:3:0:0:
368,190,15072,5,2,1:2:0:0:
273,149,15233,1,2,1:2:0:0:
117,266,15393,5,10,0:0:0:0:
224,229,15553,1,2,1:2:0:0:
307,366,15714,6,0,P|312:311|319:263,1,75.0000028610231,0|0,1:2|1:2,0:0:0:0:
110,159,16040,1,8,0:0:0:0:
170,108,16203,1,0,1:2:0:0:
170,108,16284,1,0,1:2:0:0:
170,108,16366,2,0,P|136:80|92:92,1,75.0000028610231,0|0,1:2|1:2,0:0:0:0:
55,213,16692,2,0,P|81:238|117:237,1,75.0000028610231,8|0,0:0|1:2,0:0:0:0:
187,186,16936,1,0,1:2:0:0:
200,194,17018,5,2,1:2:0:0:
261,247,17179,1,2,1:2:0:0:
382,355,17341,5,10,0:0:0:0:
382,355,17503,1,2,1:3:0:0:
224,384,17664,5,2,1:2:0:0:
277,331,17826,1,2,1:2:0:0:
407,227,17988,5,10,0:0:0:0:
344,276,18150,1,2,1:2:0:0:
278,84,18311,5,0,1:2:0:0:
278,84,18473,1,0,1:2:0:0:
353,47,18635,1,8,0:0:0:0:
205,120,18796,1,0,1:2:0:0:
205,120,18877,1,0,1:2:0:0:
205,120,18958,1,0,1:2:0:0:
278,84,19120,1,0,1:2:0:0:
249,5,19282,1,8,0:0:0:0:
317,164,19443,5,0,1:2:0:0:
317,164,19524,1,0,1:2:0:0:
317,164,19605,2,0,P|330:215|326:253,1,75.0000028610231,2|2,1:2|1:2,0:0:0:0:
140,264,19926,2,0,P|127:213|131:175,1,75.0000028610231,10|0,0:0|1:3,0:0:0:0:
417,249,20230,6,0,P|390:294|360:318,1,75.0000028610231,2|2,1:2|1:2,0:0:0:0:
184,131,20535,2,0,P|210:85|240:61,1,75.0000028610231,10|2,0:0|1:2,0:0:0:0:
26,45,20854,5,0,1:2:0:0:
26,45,21021,1,0,1:2:0:0:
184,131,21189,1,8,0:0:0:0:
66,226,21356,1,0,1:2:0:0:
66,226,21440,1,0,1:2:0:0:
66,226,21524,2,0,P|59:163|57:107,1,100,0|0,1:2|1:2,0:0:0:0:
206,237,21859,2,0,P|213:300|215:356,1,100,8|0,0:0|1:2,0:0:0:0:
154,376,22110,1,0,1:2:0:0:
145,373,22194,5,2,1:2:0:0:
108,303,22353,1,2,1:2:0:0:
403,363,22513,5,10,0:0:0:0:
427,283,22672,1,2,1:3:0:0:
471,58,22832,5,2,1:2:0:0:
445,137,22991,1,2,1:2:0:0:
54,60,23151,5,10,0:0:0:0:
86,139,23311,1,10,0:0:0:0:
86,139,23390,1,8,0:0:0:0:
86,139,23470,5,4,1:2:0:0:
288,50,23626,1,0,1:2:0:0:
322,124,23782,1,10,0:0:0:0:
243,178,23938,1,0,1:2:0:0:
243,178,24016,1,8,0:2:0:0:
243,178,24095,2,0,P|231:132|233:87,1,75.0000028610231,2|0,1:2|0:0,0:0:0:0:
361,241,24415,2,0,P|373:287|371:332,1,75.0000028610231,10|2,0:0|0:0,0:0:0:0:
94,321,24736,6,0,B|193:348|193:348|284:281,1,200,2|10,1:2|0:0,0:0:0:0:
176,180,25244,1,2,1:2:0:0:
176,180,25329,1,8,0:2:0:0:
176,180,25413,2,0,P|166:217|178:261,1,75.0000028610231,2|0,1:2|0:0,0:0:0:0:
416,95,25733,1,10,0:0:0:0:
358,43,25894,1,2,1:2:0:0:
244,92,26054,6,0,P|237:36|230:-5,1,75.0000028610231,2|0,1:2|0:0,0:0:0:0:
65,120,26369,2,0,P|91:172|189:170,1,150,10|0,0:0|0:0,0:0:0:0:
246,233,26685,6,0,B|270:277|270:277|253:323,1,100,0|0,1:2|1:2,0:0:0:0:
102,356,27001,2,0,B|78:312|78:312|95:266,1,100,8|0,0:0|0:0,0:0:0:0:
323,147,27317,5,0,1:2:0:0:
181,293,27479,1,0,1:2:0:0:
181,293,27560,1,0,1:2:0:0:
181,293,27641,1,8,0:0:0:0:
406,236,27803,6,0,P|298:270|289:388,1,239.999992675781,2|0,1:2|1:2,0:0:0:0:
181,293,28289,2,0,P|171:223|163:161,1,119.999996337891,10|0,0:0|0:0,0:0:0:0:
53,41,28614,6,0,B|132:21|132:21|171:105|287:107,1,239.999992675781,0|10,1:2|0:0,0:0:0:0:
452,202,29100,1,2,1:2:0:0:
452,202,29181,1,8,0:2:0:0:
452,202,29262,2,0,B|463:145|463:145|424:86,1,100,2|0,1:2|1:2,0:0:0:0:
355,154,29587,1,10,0:0:0:0:
355,154,29749,1,2,0:0:0:0:
189,286,29911,6,0,B|285:304|285:304|385:238,1,200,2|10,1:2|0:0,0:0:0:0:
255,120,30398,1,2,1:2:0:0:
255,120,30479,1,8,0:2:0:0:
255,120,30560,2,0,B|244:177|244:177|283:236,1,100,2|0,1:2|1:2,0:0:0:0:
348,72,30884,1,10,0:0:0:0:
355,154,31046,1,2,0:0:0:0:
275,323,31208,6,0,B|145:299|242:263|78:243,1,200,2|10,1:2|0:0,0:0:0:0:
39,305,31689,1,0,1:2:0:0:
39,305,31769,1,8,0:2:0:0:
39,305,31849,2,0,P|13:254|25:199,1,100,0|0,1:2|1:2,0:0:0:0:
136,43,32170,2,0,P|162:94|150:149,1,100,8|0,0:0|1:2,0:0:0:0:
95,182,32411,5,8,0:2:0:0:
95,182,32491,1,2,1:2:0:0:
288,226,32651,1,2,1:2:0:0:
320,149,32812,1,10,0:0:0:0:
257,329,32972,6,0,B|371:312|338:377|471:329,1,200,2|2,1:2|1:2,0:0:0:0:
486,155,33453,2,0,P|434:167|406:274,1,150,14|0,0:0|0:0,0:0:0:0:
397,249,33774,5,4,1:2:0:0:
338,36,33935,1,0,1:2:0:0:
416,80,34095,1,10,0:0:0:0:
266,144,34256,1,2,1:2:0:0:
266,144,34336,1,8,0:2:0:0:
266,144,34416,2,0,P|337:120|357:105,1,75.0000028610231,2|0,1:2|1:2,0:0:0:0:
197,59,34737,2,0,P|126:83|106:98,1,75.0000028610231,10|0,0:0|0:0,0:0:0:0:
17,192,35058,6,0,P|96:190|131:294,1,200,2|10,1:2|0:0,0:0:0:0:
206,357,35549,1,2,1:2:0:0:
206,357,35631,1,8,0:2:0:0:
206,357,35713,1,2,1:2:0:0:
57,263,35877,1,2,1:2:0:0:
214,169,36041,1,10,0:0:0:0:
366,271,36205,1,2,1:2:0:0:
211,262,36369,5,2,1:2:0:0:
211,262,36526,1,0,1:2:0:0:
327,108,36684,2,0,B|248:128|272:59|154:98,1,150.000005722046,10|0,0:0|1:2,0:0:0:0:
130,154,36921,1,8,0:2:0:0:
130,154,37000,2,0,P|100:95|108:49,1,100,0|0,1:2|1:2,0:0:0:0:
284,217,37316,2,0,P|299:281|281:324,1,100,8|0,0:0|1:2,0:0:0:0:
238,369,37553,5,8,0:0:0:0:
238,369,37632,1,2,1:2:0:0:
377,202,37794,1,2,1:2:0:0:
438,266,37956,1,10,0:0:0:0:
499,138,38123,6,0,B|380:171|380:171|269:95,1,239.999992675781,2|2,1:2|1:2,0:0:0:0:
394,78,38626,1,10,0:0:0:0:
251,27,38782,1,2,1:2:0:0:
163,2,38938,6,0,L|175:91,1,75.0000028610231,2|0,1:2|1:2,0:0:0:0:
173,76,39260,1,10,0:0:0:0:
42,184,39421,1,2,1:2:0:0:
42,184,39502,1,8,0:0:0:0:
42,184,39583,2,0,L|117:169,1,75.0000028610231,2|0,1:2|1:2,0:0:0:0:
193,159,39895,1,10,0:0:0:0:
272,145,40056,1,2,1:2:0:0:
124,384,40237,6,0,B|75:323|75:323|101:234,1,150.000005722046,2|10,1:2|0:0,0:0:0:0:
250,283,40715,1,2,1:2:0:0:
250,283,40795,1,8,0:0:0:0:
250,283,40875,1,2,1:2:0:0:
170,303,41034,1,2,1:2:0:0:
411,334,41194,1,10,0:0:0:0:
334,361,41354,1,2,1:2:0:0:
390,185,41513,5,2,1:2:0:0:
448,245,41675,1,0,1:2:0:0:
495,80,41837,2,0,P|507:136|501:193,1,100,8|0,0:0|1:2,0:0:0:0:
504,178,42080,1,8,0:0:0:0:
504,178,42161,1,0,1:2:0:0:
389,40,42323,1,0,1:2:0:0:
303,204,42485,2,0,P|291:148|297:91,1,100,8|0,0:0|1:2,0:0:0:0:
241,48,42729,1,8,0:0:0:0:
223,54,42810,5,2,1:2:0:0:
118,108,42972,1,2,1:2:0:0:
0,225,43134,5,10,0:0:0:0:
217,364,43296,2,0,P|232:284|125:215,1,200,6|10,1:2|0:0,0:0:0:0:
48,4,43783,5,8,0:3:0:0:
6,46,43865,1,8,0:3:0:0:
37,87,43947,1,8,0:0:0:0:
24,119,44030,1,8,0:0:0:0:
30,133,44112,6,0,B|69:86|106:75|106:75|110:70|110:70|150:60|213:82,1,179.999994506836,4|0,1:2|0:0,0:0:0:0:
263,48,44438,2,0,P|271:87|241:112,1,59.9999981689454,10|0,0:0|0:0,0:0:0:0:
263,204,44601,1,2,1:2:0:0:
322,196,44682,1,8,0:0:0:0:
349,163,44764,6,0,B|435:213|366:255|452:319,1,179.999994506836,2|0,1:2|0:0,0:0:0:0:
482,238,45090,2,0,P|419:241|372:281,1,119.999996337891,10|2,0:0|1:2,0:0:0:0:
258,384,45416,6,0,B|213:362|213:362|182:290|218:213,1,200,0|10,0:0|0:0,0:0:0:0:
345,66,45905,1,2,1:2:0:0:
345,66,45987,1,8,0:0:0:0:
345,66,46068,1,2,1:2:0:0:
256,134,46228,2,0,P|225:74|230:39,1,85.0000016212464,2|8,1:2|0:0,0:0:0:0:
27,36,46549,5,2,1:2:0:0:
27,36,46629,1,8,0:2:0:0:
27,36,46711,2,0,P|122:62|134:184,1,200,0|10,1:2|0:0,0:0:0:0:
51,273,47187,1,2,1:2:0:0:
51,273,47266,1,8,0:0:0:0:
51,273,47345,1,2,1:2:0:0:
143,247,47504,1,2,1:2:0:0:
235,225,47663,1,8,0:0:0:0:
369,321,47822,5,10,0:0:0:0:
369,321,47901,1,8,0:0:0:0:
369,321,47980,2,0,P|340:263|452:164,1,239.999992675781,0|8,1:2|0:0,0:0:0:0:
512,38,48457,2,0,B|445:67|445:67|471:3,1,100,2|0,1:2|1:2,0:0:0:0:
372,24,48774,1,0,1:2:0:0:
252,67,48933,5,14,0:0:0:0:
222,59,49012,1,8,0:0:0:0:
192,53,49091,1,8,0:0:0:0:
165,46,49171,1,8,0:0:0:0:
137,41,49268,6,0,B|171:122|171:122|83:107,1,170.000003242493,4|10,0:0|0:0,0:0:0:0:
31,55,49757,1,2,1:2:0:0:
31,55,49838,1,8,0:0:0:0:
31,55,49920,1,2,1:2:0:0:
48,242,50083,2,0,P|11:179|20:132,1,85.0000016212464,2|8,1:2|0:0,0:0:0:0:
207,239,50409,2,0,P|197:294|167:324,1,85.0000016212464,2|0,1:2|1:2,0:0:0:0:
179,315,50735,1,0,1:2:0:0:
364,247,50896,5,10,0:0:0:0:
428,308,51057,1,2,1:2:0:0:
428,308,51138,1,8,0:0:0:0:
428,308,51219,1,2,1:2:0:0:
484,174,51380,2,0,P|501:223|494:275,1,85.0000016212464,2|8,1:2|0:0,0:0:0:0:
351,78,51703,5,2,1:2:0:0:
351,78,51783,1,8,0:0:0:0:
351,78,51864,2,0,B|223:56|290:123|160:103,1,179.999994506836,0|0,1:2|0:0,0:0:0:0:
112,63,52186,1,10,0:0:0:0:
314,166,52348,1,2,1:2:0:0:
314,166,52428,1,8,0:0:0:0:
314,166,52509,1,2,1:2:0:0:
135,248,52670,2,0,P|112:198|112:138,1,100,2|8,1:2|0:0,0:0:0:0:
281,272,52993,5,2,1:2:0:0:
281,272,53074,1,8,0:0:0:0:
281,272,53152,2,0,P|273:340|253:376,1,85.0000016212464,0|0,1:2|1:2,0:0:0:0:
109,153,53461,2,0,P|106:92|117:59,1,85.0000016212464,14|2,0:0|1:2,0:0:0:0:
177,23,53693,1,8,0:0:0:0:
187,25,53770,6,0,L|240:34,1,50,10|0,0:0|0:0,0:0:0:0:
337,76,53938,1,10,0:3:0:0:
371,40,54022,1,8,0:3:0:0:
414,61,54107,1,4,0:3:0:0:
430,47,54191,1,4,0:3:0:0:
451,50,54275,2,0,L|473:-9,1,50,6|4,0:3|0:3,0:0:0:0:
501,173,54444,6,0,B|360:146|436:216|291:195,1,200,6|8,1:2|0:0,0:0:0:0:
235,98,54946,1,2,0:0:0:0:
138,312,55114,1,2,1:2:0:0:
138,312,55276,2,0,P|116:255|120:204,1,100,2|8,1:2|0:0,0:0:0:0:
23,6,55602,6,0,P|97:18|154:131,1,197.999999395752,6|0,1:2|0:0,0:0:0:0:
154,118,56095,1,8,0:0:0:0:
0,251,56253,1,0,1:2:0:0:
279,146,56412,5,2,1:2:0:0:
204,198,56571,1,0,1:2:0:0:
287,236,56729,1,10,0:0:0:0:
287,236,56888,1,0,1:2:0:0:
60,98,57047,5,2,1:2:0:0:
79,175,57207,1,2,1:2:0:0:
452,98,57368,5,10,0:0:0:0:
433,175,57528,1,2,1:2:0:0:
67,192,57690,5,2,1:2:0:0:
86,269,57851,1,2,1:2:0:0:
445,192,58012,5,10,0:0:0:0:
426,269,58173,1,2,1:2:0:0:
256,192,58333,5,2,1:2:0:0:
256,192,58491,1,2,1:2:0:0:
147,45,58650,1,10,0:0:0:0:
86,269,58809,2,0,P|70:202|79:152,1,100,2|0,0:0|1:2,0:0:0:0:
73,171,59126,1,2,1:2:0:0:
275,63,59285,6,0,B|433:26|343:122|486:96,1,225.000008583069,14|0,0:0|0:0,0:0:0:0:
455,17,59602,2,0,P|369:74|329:172,1,200,6|8,1:2|0:0,0:0:0:0:
330,159,60088,1,2,0:0:0:0:
73,384,60250,1,2,1:2:0:0:
51,293,60412,1,2,1:2:0:0:
148,271,60574,1,10,0:0:0:0:
167,364,60737,6,0,P|239:362|248:236,1,200,6|0,1:2|1:2,0:0:0:0:
329,107,61223,2,0,P|322:170|344:214,1,100,8|0,0:0|0:0,0:0:0:0:
511,193,61547,2,0,P|518:130|496:86,1,100,2|0,1:2|1:2,0:0:0:0:
413,24,61872,1,8,0:0:0:0:
419,145,62034,1,0,0:0:0:0:
253,44,62196,5,6,1:2:0:0:
253,44,62355,2,0,B|199:34|199:34|144:58,1,100,2|8,1:2|0:0,0:0:0:0:
90,231,62674,2,0,P|103:175|77:121,1,100,2|0,0:0|1:2,0:0:0:0:
27,75,62993,1,2,1:2:0:0:
64,310,63153,2,0,P|130:278|182:283,1,100,8|2,0:0|1:2,0:0:0:0:
306,364,63472,5,14,1:2:0:0:
257,315,63552,1,8,0:3:0:0:
290,261,63632,1,8,0:3:0:0:
266,213,63711,1,8,0:3:0:0:
280,193,63791,2,0,L|285:128,1,50,10|8,0:0|0:0,0:0:0:0:
297,134,63951,2,0,L|293:189,1,50,10|8,0:0|0:0,0:0:0:0:
466,110,64112,5,8,1:3:0:0:
455,118,64195,1,8,0:3:0:0:
452,97,64279,1,10,0:3:0:0:
441,112,64363,1,8,0:3:0:0:
459,135,64447,5,10,0:0:0:0:
463,162,64530,1,8,0:0:0:0:
477,209,64614,1,8,0:0:0:0:
496,256,64698,1,8,0:0:0:0:
507,305,64780,6,0,B|432:294|432:294|380:363|288:365,1,225.000008583069,6|0,1:2|0:0,0:0:0:0:
235,328,65106,2,0,P|246:279|229:224,1,100,8|2,0:0|0:0,0:0:0:0:
148,224,65432,1,2,1:2:0:0:
83,74,65589,2,0,P|72:123|89:178,1,100,2|8,1:2|0:0,0:0:0:0:
441,112,65903,6,0,B|323:87|377:163|237:138,1,200,6|0,1:2|1:2,0:0:0:0:
162,122,66374,1,8,0:0:0:0:
278,48,66535,1,0,0:0:0:0:
243,313,66696,5,2,1:2:0:0:
213,220,66857,1,0,1:2:0:0:
309,254,67019,1,10,0:0:0:0:
309,254,67180,1,0,1:2:0:0:
67,192,67341,5,2,1:2:0:0:
86,269,67503,1,2,1:2:0:0:
445,192,67665,5,10,0:0:0:0:
426,269,67827,1,2,0:0:0:0:
39,103,67989,5,2,1:2:0:0:
58,180,68151,1,0,1:2:0:0:
473,103,68313,5,10,0:0:0:0:
454,180,68476,1,0,1:2:0:0:
254,224,68638,5,2,1:2:0:0:
255,384,68796,2,0,L|255:302,1,75.0000028610231,2|10,1:2|0:0,0:0:0:0:
256,28,69114,6,0,B|229:158|288:103|250:244,1,200,2|10,1:2|0:3,0:0:0:0:
454,180,69594,5,8,0:0:0:0:
421,155,69676,1,8,0:0:0:0:
391,133,69758,1,4,0:3:0:0:
364,115,69841,1,4,0:3:0:0:
331,89,69923,6,0,L|462:42,1,119.999996337891,4|2,1:2|0:0,0:0:0:0:
443,48,70399,1,2,0:0:0:0:
308,268,70557,2,0,P|292:222|306:162,1,100,8|0,0:0|0:0,0:0:0:0:
223,153,70875,5,10,0:0:0:0:
223,153,71034,1,6,1:2:0:0:
47,48,71371,1,8,0:0:0:0:
47,48,71549,1,0,1:2:0:0:
162,292,71863,5,10,0:0:0:0:
72,268,72020,1,0,1:2:0:0:
115,361,72177,2,0,P|191:317|271:320,1,150,8|0,0:3|0:0,0:0:0:0:
374,359,72519,6,0,P|356:303|352:218,1,119.999996337891,6|0,1:2|0:0,0:0:0:0:
350,242,73000,1,0,1:2:0:0:
463,139,73160,2,0,P|455:191|450:212,1,59.9999981689454,8|0,0:0|0:0,0:0:0:0:
453,198,73481,1,8,0:0:0:0:
304,87,73646,1,4,1:2:0:0:
246,214,73812,2,0,P|225:149|227:101,1,100,2|8,1:2|0:0,0:0:0:0:
426,1,74143,2,0,P|411:61|386:94,1,100,8|0,0:3|0:0,0:0:0:0:
154,23,74455,5,10,0:0:0:0:
320,164,74611,1,8,0:3:0:0:
150,238,74768,5,4,0:3:0:0:
354,288,74924,1,4,0:3:0:0:
257,363,75080,6,0,P|256:296|240:185,1,150,4|0,1:2|0:0,0:0:0:0:
232,202,75409,1,2,0:0:0:0:
108,312,75574,1,2,1:2:0:0:
25,128,75739,1,10,0:0:0:0:
25,128,75904,2,0,P|90:150|93:192,1,100,2|0,1:2|0:0,0:0:0:0:
150,238,76233,6,0,P|240:235|265:110,1,200,6|8,1:2|0:2,0:0:0:0:
345,72,76728,2,0,P|358:124|366:145,1,59.9999981689454,0|0,1:2|1:2,0:0:0:0:
444,126,77045,2,0,P|431:74|423:53,1,59.9999981689454,10|0,0:0|1:2,0:0:0:0:
257,18,77362,5,10,0:3:0:0:
257,18,77680,2,0,B|127:39|237:75|74:105,1,200,6|0,1:2|0:0,0:0:0:0:
17,58,78153,1,0,1:2:0:0:
235,205,78311,2,0,P|251:142|247:108,1,100,8|0,0:0|0:0,0:0:0:0:
456,21,78627,5,0,0:0:0:0:
456,21,78790,2,0,P|382:51|360:172,1,200,6|8,1:2|0:0,0:0:0:0:
425,323,79279,5,8,0:3:0:0:
304,277,79442,1,8,0:0:0:0:
206,338,79605,5,8,0:0:0:0:
111,364,79768,1,8,0:3:0:0:
57,166,79931,5,0,0:3:0:0:
176,251,80094,1,4,1:2:0:0:
355,159,80277,5,6,1:2:0:0:
256,192,80439,12,0,88060,0:0:0:0:
