osu file format v14

[General]
AudioFilename: audio.mp3
AudioLeadIn: 0
PreviewTime: 54444
Countdown: 0
SampleSet: Soft
StackLeniency: 0.7
Mode: 0
LetterboxInBreaks: 0
WidescreenStoryboard: 1

[Editor]
DistanceSpacing: 0.8
BeatDivisor: 4
GridSize: 32
TimelineZoom: 2.499999

[Metadata]
Title:Hito toshite Jiku ga Bureteiru (TV Size)
TitleUnicode:人として軸がぶれている (TV Size)
Artist:Kenji Ohtsuki to Zetsubou Shoujotachi
ArtistUnicode:大槻ケンヂと絶望少女達
Creator:keevy
Version:Easy
Source:さよなら絶望先生
Tags:sayonara zetsubou sensei op 1 bure kenji ootsuki ohtsuki despair j rock jrock j-rock japanese
BeatmapID:3726585
BeatmapSetID:1815708

[Difficulty]
HPDrainRate:2.5
CircleSize:3
OverallDifficulty:4
ApproachRate:5
SliderMultiplier:1
SliderTickRate:1

[Events]
//Background and Video events
0,0,"cropped-1920-1080-73159.jpg",0,0
//Break Periods
2,15914,22270
//Storyboard Layer 0 (Background)
//Storyboard Layer 1 (Fail)
//Storyboard Layer 2 (Pass)
//Storyboard Layer 3 (Foreground)
//Storyboard Layer 4 (Overlay)
//Storyboard Sound Samples

[TimingPoints]
244,323.014804845222,4,2,1,60,1,0
1536,319.148936170213,4,2,1,60,1,0
2493,310.880829015544,4,2,1,60,1,0
2881,300,4,2,1,75,1,1
2881,-100,4,2,1,75,0,1
3781,324.324324324324,4,2,1,75,1,1
3781,-100,4,2,1,75,0,1
4753,337.078651685394,4,2,1,75,1,1
4753,-100,4,2,1,75,0,1
5405,315.789473684211,4,2,1,75,1,1
5405,-100,4,2,1,75,0,1
6352,326.08695652174,4,2,1,75,1,1
6352,-100,4,2,1,75,0,1
6515,-100,4,2,1,75,0,1
7982,320.855614973262,4,2,1,75,1,1
7982,-100,4,2,1,75,0,1
9907,331.491712707182,4,2,1,75,1,1
9907,-100,4,2,1,75,0,1
10569,324.324324324324,4,2,1,75,1,1
10569,-100,4,2,1,75,0,1
11541,317.460317460317,4,2,1,75,1,1
11541,-100,4,2,1,75,0,1
11699,-100,4,2,1,75,0,1
12017,-100,4,2,1,75,0,1
12493,320.855614973262,4,2,1,75,1,1
12493,-100,4,2,1,75,0,1
13134,324.324324324324,4,2,1,60,1,0
13134,-100,4,2,1,60,0,0
14431,320.855614973262,4,2,1,60,1,0
14431,-100,4,2,1,60,0,0
15714,326.086956521739,4,2,1,50,1,0
15714,-100,4,2,1,50,0,0
17018,323.450134770889,4,2,1,50,1,0
17018,-100,4,2,1,50,0,0
19605,321.71581769437,4,2,1,50,1,0
19605,-100,4,2,1,50,0,0
19926,304.568527918782,4,2,1,50,1,0
19926,-100,4,2,1,50,0,0
20535,319.148936170213,4,2,1,50,1,0
20535,-100,4,2,1,50,0,0
20854,335.195530726257,4,2,1,50,1,0
20854,-100,4,2,1,50,0,0
22194,319.148936170213,4,2,1,50,1,0
22194,-100,4,2,1,50,0,0
23470,312.5,4,2,1,50,1,0
23470,-100,4,2,1,50,0,0
24095,320.855614973262,4,2,1,50,1,0
24095,-100,4,2,1,50,0,0
24736,338.983050847458,4,2,1,50,1,0
24736,-100,4,2,1,50,0,0
25413,320.855614973262,4,2,1,50,1,0
25413,-100,4,2,1,50,0,0
26054,315.789473684211,4,2,1,50,1,0
26054,-100,4,2,1,50,0,0
26369,-100,4,2,1,50,0,0
27317,324.324324324324,4,2,1,50,1,0
27317,-100,4,2,1,50,0,0
29262,-100,4,2,1,50,0,0
31208,320.855614973262,4,2,1,60,1,0
31208,-100,4,2,1,60,0,0
33694,-100,4,2,1,5,0,0
33774,-100,4,2,1,60,0,0
35058,327.868852459016,4,2,1,50,1,0
35058,-100,4,2,1,50,0,0
36369,315.78947368421,4,2,1,50,1,0
36369,-100,4,2,1,50,0,0
37000,-100,4,2,1,50,0,0
37632,324.324324324325,4,2,1,50,1,0
37632,-100,4,2,1,50,0,0
37956,335.195530726257,4,2,1,50,1,0
37956,-100,4,2,1,50,0,0
38123,-100,4,2,1,50,0,0
38626,312.5,4,2,1,50,1,0
38626,-100,4,2,1,50,0,0
38938,322.58064516129,4,2,1,50,1,0
38938,-100,4,2,1,50,0,0
39583,312.5,4,2,1,50,1,0
39583,-100,4,2,1,50,0,0
39895,322.58064516129,4,2,1,50,1,0
39895,-100,4,2,1,50,0,0
40237,319.148936170213,4,2,1,50,1,0
40237,-100,4,2,1,50,0,0
41513,324.324324324324,4,2,1,50,1,0
41513,-100,4,2,1,50,0,0
43783,329.67032967033,4,2,1,50,1,0
43783,-100,4,2,1,50,0,0
44112,326.086956521739,4,2,1,60,1,0
44112,-100,4,2,1,60,0,0
45416,-99.009900990099,4,2,1,60,0,0
46068,320.855614973262,4,2,1,65,1,0
46068,-100,4,2,1,65,0,0
46711,317.460317460317,4,2,1,65,1,0
46711,-100,4,2,1,65,0,0
48457,-100,4,2,1,65,0,0
49268,326.086956521739,4,2,1,65,1,0
49268,-100,4,2,1,65,0,0
50409,-99.601593625498,4,2,1,65,0,0
50574,322.58064516129,4,2,1,65,1,0
50574,-100,4,2,1,65,0,0
50896,-100,4,2,1,65,0,0
51864,-100,4,2,1,65,0,0
52670,-100,4,2,1,65,0,0
53152,309.278350515464,4,2,1,65,1,0
53152,-100,4,2,1,65,0,0
53770,337.078651685393,4,2,1,65,1,0
53770,-100,4,2,1,65,0,0
54444,335.195530726257,4,2,1,80,1,0
54444,-100,4,2,1,80,0,1
55114,324.324324324324,4,2,1,75,1,0
55114,-100,4,2,1,75,0,0
55438,328.767123287671,4,2,1,85,1,1
55438,-100,4,2,1,85,0,0
55602,-100,4,2,1,80,0,1
56095,317.460317460317,4,2,1,80,1,1
56095,-100,4,2,1,80,0,1
57047,321.71581769437,4,2,1,80,1,1
57047,-100,4,2,1,80,0,1
58333,317.460317460317,4,2,1,80,1,1
58333,-100,4,2,1,80,0,1
59285,-100,4,2,1,80,0,1
59602,324.324324324324,4,2,1,80,1,1
59602,-100,4,2,1,80,0,1
62196,319.148936170213,4,2,1,80,1,1
62196,-100,4,2,1,80,0,1
64112,335.195530726257,4,2,1,80,1,1
64112,-100,4,2,1,80,0,1
64780,326.086956521739,4,2,1,80,1,1
64780,-100,4,2,1,80,0,1
65106,-100,4,2,1,80,0,1
65432,314.13612565445,4,2,1,75,1,1
65432,-100,4,2,1,75,0,1
65903,-100,4,2,1,80,0,1
66374,322.58064516129,4,2,1,80,1,1
66374,-100,4,2,1,80,0,1
67341,324.324324324324,4,2,1,80,1,1
67341,-100,4,2,1,80,0,1
68638,317.460317460317,4,2,1,80,1,1
68638,-100,4,2,1,80,0,1
68646,-100,4,2,1,80,0,1
69114,-100,4,2,1,80,0,1
69272,322.58064516129,4,2,1,80,1,1
69272,-100,4,2,1,80,0,1
69594,329.67032967033,4,2,1,80,1,1
69594,-100,4,2,1,80,0,1
69923,317.460317460317,4,2,1,65,1,0
69923,-100,4,2,1,65,0,0
70557,-100,4,2,1,65,0,0
71194,355.029585798817,4,2,1,65,1,0
71194,-100,4,2,1,65,0,0
71549,314.13612565445,4,2,1,65,1,0
72177,-100,4,2,1,65,0,0
72519,320.855614973262,4,2,1,65,1,0
72519,-100,4,2,1,65,0,0
73481,331.491712707182,4,2,1,65,1,0
73481,-100,4,2,1,65,0,0
74143,312.5,4,2,1,65,1,0
74143,-100,4,2,1,65,0,0
75080,329.67032967033,4,2,1,65,1,0
76728,317.460317460317,4,2,1,50,1,0
76728,-100,4,2,1,50,0,0
77680,315.789473684211,4,2,1,50,1,0
77680,-100,4,2,1,50,0,0
78627,326.086956521739,4,2,1,50,1,0
78627,-100,4,2,1,50,0,0
79442,-100,4,2,1,40,0,0
80277,324.324324324324,4,2,1,40,1,0
80277,-100,4,2,1,40,0,0
88060,-100,4,2,1,15,0,0

[Colours]
Combo1 : 236,197,228
Combo2 : 246,237,165
Combo3 : 137,193,219
Combo4 : 212,244,162

[HitObjects]
181,32,2881,6,0,P|244:37|296:132,1,150,14|12,1:2|0:0,0:0:0:0:
261,207,3781,1,12,0:0:0:0:
141,196,4267,1,12,0:0:0:0:
59,277,4753,2,0,L|102:381,1,100,12|8,0:0|0:0,0:0:0:0:
176,368,5405,6,0,B|265:335|243:379|324:352,1,150,12|12,0:0|0:0,0:0:0:0:
436,328,6352,1,12,0:0:0:0:
344,250,6841,1,12,0:0:0:0:
443,183,7330,2,0,P|453:112|429:60,1,100,12|8,0:0|0:0,0:0:0:0:
370,34,7982,1,12,0:0:0:0:
270,75,8463,1,12,0:0:0:0:
157,32,8944,2,0,P|135:91|155:180,1,150,12|12,0:0|0:0,0:0:0:0:
225,264,9907,1,12,0:0:0:0:
179,329,10238,1,8,0:0:0:0:
97,337,10569,6,0,P|57:276|66:186,1,150,12|12,0:0|0:0,0:0:0:0:
11,88,11541,2,0,P|47:29|146:7,1,150,12|12,0:0|0:0,0:0:0:0:
183,52,12334,2,0,L|270:38,1,50,4|12,1:2|0:0,0:0:0:0:
302,82,12813,1,8,0:0:0:0:
379,65,13134,5,4,1:2:0:0:
256,192,13296,12,0,15714,1:2:0:0:
471,91,23470,6,0,P|406:148|398:191,1,100,4|10,1:2|0:0,0:0:0:0:
401,236,24095,1,2,1:2:0:0:
456,293,24415,1,10,0:0:0:0:
415,356,24736,2,0,L|206:345,1,200,2|2,1:2|1:2,0:0:0:0:
140,317,25733,1,10,0:0:0:0:
113,239,26054,5,2,1:2:0:0:
269,205,26685,1,0,1:2:0:0:
165,88,27317,1,0,1:2:0:0:
67,18,27803,2,0,P|104:90|114:170,1,150,2|10,1:2|0:0,0:0:0:0:
69,224,28614,5,0,1:2:0:0:
85,302,28938,1,10,0:0:0:0:
160,328,29262,2,0,P|229:308|289:310,1,100,2|10,1:2|0:0,0:0:0:0:
313,363,29911,2,0,L|334:143,1,200,2|2,1:2|1:2,0:0:0:0:
398,16,31208,6,0,P|471:38|484:84,1,100,2|10,1:2|0:0,0:0:0:0:
503,131,31849,2,0,P|496:197|453:226,1,100,0|8,1:2|0:0,0:0:0:0:
471,298,32491,1,2,1:2:0:0:
356,262,32972,2,0,P|313:207|309:92,1,150,2|14,1:2|0:0,0:0:0:0:
262,59,33774,5,4,1:2:0:0:
183,45,34095,1,10,0:0:0:0:
106,67,34416,2,0,P|84:129|90:182,1,100,2|10,1:2|0:0,0:0:0:0:
56,235,35058,2,0,P|132:207|271:209,1,200,2|2,1:2|1:2,0:0:0:0:
325,229,36041,1,10,0:0:0:0:
353,307,36369,5,2,1:2:0:0:
202,360,37000,1,0,1:2:0:0:
140,216,37632,1,2,1:2:0:0:
70,310,38123,2,0,P|78:213|46:130,1,150,2|10,1:2|0:0,0:0:0:0:
33,91,38938,5,2,1:2:0:0:
92,37,39260,1,10,0:0:0:0:
166,72,39583,2,0,P|202:139|240:142,1,100,2|10,1:2|0:0,0:0:0:0:
303,159,40237,1,2,1:2:0:0:
400,29,40875,1,2,1:2:0:0:
467,72,41194,1,10,0:0:0:0:
487,147,41513,2,0,B|363:154|450:202|310:257,1,200,2|0,1:2|1:2,0:0:0:0:
179,314,42810,1,2,1:2:0:0:
88,235,43296,2,0,L|104:117,1,100,6|10,1:2|0:0,0:0:0:0:
65,20,44112,5,4,1:2:0:0:
144,10,44438,2,0,P|239:25|265:74,1,150,10|0,0:0|0:0,0:0:0:0:
293,139,45253,1,2,1:2:0:0:
250,206,45579,1,0,0:0:0:0:
289,275,45905,2,0,P|216:264|97:320,1,200,2|0,1:2|0:0,0:0:0:0:
19,230,47028,5,10,0:0:0:0:
64,164,47345,2,0,P|140:171|180:199,1,100,2|8,1:2|0:0,0:0:0:0:
239,174,47980,2,0,P|284:108|298:30,1,150,0|2,1:2|1:2,0:0:0:0:
415,14,48933,5,14,0:0:0:0:
485,55,49268,1,4,0:0:0:0:
503,132,49594,2,0,L|479:237,1,100,10|2,0:0|1:2,0:0:0:0:
480,350,50409,2,0,P|408:308|310:299,1,150,2|10,1:2|0:0,0:0:0:0:
277,341,51219,1,2,1:2:0:0:
166,224,51864,2,0,L|185:88,1,100,0|10,0:0|0:0,0:0:0:0:
239,70,52509,2,0,P|205:15|99:28,1,150,2|2,1:2|1:2,0:0:0:0:
33,87,53461,1,14,0:0:0:0:
22,165,53770,2,0,L|47:267,1,100,10|4,0:0|0:3,0:0:0:0:
97,323,54444,6,0,B|219:288|176:338|315:298,1,200,6|2,1:2|1:2,0:0:0:0:
401,355,55602,1,6,1:2:0:0:
449,240,56095,1,8,0:0:0:0:
393,183,56412,2,0,P|314:177|262:192,1,100,2|10,1:2|0:0,0:0:0:0:
223,215,57047,5,2,1:2:0:0:
150,180,57368,1,10,0:0:0:0:
123,104,57690,2,0,P|159:71|212:69,1,100,2|10,1:2|0:0,0:0:0:0:
281,32,58333,2,0,P|366:42|434:122,1,150,2|2,1:2|0:0,0:0:0:0:
404,201,59285,5,14,0:0:0:0:
438,271,59602,2,0,P|366:270|327:294,1,100,6|8,1:2|0:0,0:0:0:0:
283,335,60250,1,2,1:2:0:0:
169,294,60737,2,0,P|163:210|199:140,1,150,6|8,1:2|0:0,0:0:0:0:
267,167,61547,1,2,1:2:0:0:
429,160,62196,6,0,P|471:103|397:51,1,150,6|2,1:2|0:0,0:0:0:0:
350,70,62993,1,2,1:2:0:0:
245,11,63472,2,0,P|156:13|114:34,1,100,14|10,1:2|0:0,0:0:0:0:
70,39,64110,1,8,1:3:0:0:
84,118,64447,1,10,0:0:0:0:
34,183,64780,6,0,P|79:238|122:371,1,200,6|2,1:2|1:2,0:0:0:0:
234,320,65903,2,0,P|246:243|221:136,1,150,6|8,1:2|0:0,0:0:0:0:
156,161,66696,2,0,P|119:112|140:58,1,100,2|10,1:2|0:0,0:0:0:0:
191,33,67341,1,2,1:2:0:0:
263,67,67665,1,10,0:0:0:0:
334,30,67989,2,0,P|402:37|424:83,1,100,2|10,1:2|0:0,0:0:0:0:
500,53,68638,2,0,P|454:120|449:210,1,150,2|2,1:2|1:2,0:0:0:0:
482,297,69594,1,8,0:0:0:0:
419,352,69923,6,0,P|352:327|213:328,1,200,4|8,1:2|0:0,0:0:0:0:
117,229,71034,1,6,1:2:0:0:
239,181,71549,1,0,1:2:0:0:
281,113,71863,2,0,P|276:46|251:19,1,100,10|8,0:0|0:3,0:0:0:0:
170,26,72519,6,0,B|57:50|128:76|-17:112,1,200,6|8,1:2|0:0,0:0:0:0:
145,142,73812,1,2,1:2:0:0:
210,88,74143,1,8,0:3:0:0:
286,111,74455,2,0,P|287:193|204:281,1,200,10|4,0:0|1:2,0:0:0:0:
196,356,75409,1,2,0:0:0:0:
119,380,75739,1,10,0:0:0:0:
60,276,76233,2,0,L|35:110,1,150,6|0,1:2|1:2,0:0:0:0:
76,57,77045,1,10,0:0:0:0:
155,67,77362,1,10,0:3:0:0:
219,114,77680,6,0,B|249:233|185:188|236:333,1,200,6|8,1:2|0:0,0:0:0:0:
303,329,78627,1,0,0:0:0:0:
381,314,78953,2,0,B|424:191|360:236|390:117,1,200,0|8,0:0|0:0,0:0:0:0:
455,73,79931,1,0,0:3:0:0:
407,2,80277,5,6,1:2:0:0:
256,192,80439,12,0,88060,0:0:0:0:
