osu file format v14

[General]
AudioFilename: audio.mp3
AudioLeadIn: 0
PreviewTime: 107151
Countdown: 0
SampleSet: Soft
StackLeniency: 0.7
Mode: 0
LetterboxInBreaks: 0
WidescreenStoryboard: 0

[Editor]
Bookmarks: 8598,11264,32598,43264,51264,56598,67264,83264,85931,101931,107234,128597,139264,147264,152597,163264,176597,179264,189931,200598,216597,221931,224597,227264,229931,240597,259264,264597
DistanceSpacing: 1.5
BeatDivisor: 4
GridSize: 32
TimelineZoom: 1

[Metadata]
Title:Counterattack
TitleUnicode:Counterattack
Artist:Kenji Hiramatsu
ArtistUnicode:Kenji Hiramatsu
Creator:Alvieee
Version:Resurgence
Source:Xenoblade Chronicles 2
Tags:
BeatmapID:1871693
BeatmapSetID:895781

[Difficulty]
HPDrainRate:6
CircleSize:5
OverallDifficulty:8.8
ApproachRate:9.4
SliderMultiplier:2
SliderTickRate:1

[Events]
//Background and Video events
0,0,"bgb.jpg",0,0
//Break Periods
2,107434,127264
2,179465,188597
//Storyboard Layer 0 (Background)
//Storyboard Layer 1 (Fail)
//Storyboard Layer 2 (Pass)
//Storyboard Layer 3 (Foreground)
//Storyboard Sound Samples

[TimingPoints]
3265,333.333333333333,4,2,1,60,1,0
10598,-333.333333333333,4,2,1,30,0,0
24598,-285.714285714286,4,2,1,30,0,0
25098,-333.333333333333,4,2,1,5,0,0
25265,-333.333333333333,4,2,1,30,0,0
25765,-333.333333333333,4,2,1,5,0,0
25931,-400,4,2,1,30,0,0
26432,-333.333333333333,4,2,1,5,0,0
26598,-333.333333333333,4,2,1,30,0,0
27098,-333.333333333333,4,2,1,5,0,0
27265,-333.333333333333,4,2,1,30,0,0
31765,-333.333333333333,4,2,1,5,0,0
31932,-333.333333333333,4,2,1,30,0,0
51264,-100,4,2,1,60,0,1
53931,-333.333333333333,4,2,1,60,0,0
54598,-333.333333333333,4,2,1,23,0,0
55098,-333.333333333333,4,2,1,5,0,0
55264,-153.846153846154,4,2,1,23,0,0
55598,-153.846153846154,4,2,1,60,0,0
56598,-100,4,2,1,60,0,1
83264,-100,4,2,1,60,0,0
106568,333.333333333333,4,2,1,60,1,0
108264,333.333333333333,4,2,1,60,1,0
108598,333.333333333333,4,2,1,60,1,0
128597,-333.333333333333,4,2,1,30,0,0
147264,-100,4,2,1,60,0,1
149931,-333.333333333333,4,2,1,60,0,0
150598,-333.333333333333,4,2,1,23,0,0
151098,-333.333333333333,4,2,1,5,0,0
151264,-153.846153846154,4,2,1,23,0,0
151764,-153.846153846154,4,2,1,50,0,0
152181,-333.333333333333,4,2,1,5,0,0
152264,-153.846153846154,4,2,1,60,0,0
152597,-100,4,2,1,60,0,1
176597,-100,4,2,1,60,0,0
176764,-100,4,2,1,59,0,0
176847,-100,4,2,1,58,0,0
176931,-100,4,2,1,57,0,0
177014,-100,4,2,1,56,0,0
177097,-100,4,2,1,55,0,0
177181,-100,4,2,1,54,0,0
177264,-100,4,2,1,53,0,0
177347,-100,4,2,1,52,0,0
177431,-100,4,2,1,51,0,0
177514,-100,4,2,1,50,0,0
177597,-100,4,2,1,49,0,0
177681,-100,4,2,1,48,0,0
177764,-100,4,2,1,47,0,0
177847,-100,4,2,1,46,0,0
177931,-100,4,2,1,45,0,0
178014,-100,4,2,1,44,0,0
178097,-100,4,2,1,43,0,0
178181,-100,4,2,1,42,0,0
178264,-100,4,2,1,41,0,0
178347,-100,4,2,1,40,0,0
178431,-100,4,2,1,39,0,0
178514,-100,4,2,1,38,0,0
178597,-100,4,2,1,37,0,0
178681,-100,4,2,1,36,0,0
178764,-100,4,2,1,35,0,0
178847,-100,4,2,1,34,0,0
178931,-100,4,2,1,33,0,0
179014,-100,4,2,1,32,0,0
179097,-100,4,2,1,31,0,0
179181,-100,4,2,1,30,0,0
179264,-100,4,2,1,29,0,0
189931,-333.333333333333,4,2,1,30,0,0
197909,333.933333333333,4,2,1,60,1,0
197909,-333.333333333333,4,2,1,60,0,0
200598,333.333333333333,4,2,1,60,1,0
200598,-111.111111111111,4,2,1,60,0,0
201264,-142.857142857143,4,2,1,60,0,0
201598,-125,4,2,1,60,0,0
201931,-111.111111111111,4,2,1,60,0,0
202598,-100,4,2,1,60,0,0
203264,-111.111111111111,4,2,1,60,0,0
203931,-100,4,2,1,60,0,0
204264,-111.111111111111,4,2,1,60,0,0
205264,-90.9090909090909,4,2,1,60,0,0
205598,-83.3333333333333,4,2,1,60,0,0
205931,-76.9230769230769,4,2,1,60,0,0
207098,-83.3333333333333,4,2,1,60,0,0
208264,-90.9090909090909,4,2,1,60,0,0
208598,-83.3333333333333,4,2,1,60,0,0
209264,-100,4,2,1,60,0,0
209598,-111.111111111111,4,2,1,60,0,0
209931,-125,4,2,1,60,0,0
210264,-142.857142857143,4,2,1,60,0,0
211764,-166.666666666667,4,2,1,60,0,0
212264,-142.857142857143,4,2,1,60,0,0
212931,-166.666666666667,4,2,1,60,0,0
213264,-125,4,2,1,60,0,0
213597,-142.857142857143,4,2,1,60,0,0
213931,-125,4,2,1,60,0,0
214431,-166.666666666667,4,2,1,60,0,0
215264,-142.857142857143,4,2,1,60,0,0
216097,-111.111111111111,4,2,1,60,0,0
216264,-90.9090909090909,4,2,1,60,0,0
216431,-76.9230769230769,4,2,1,60,0,0
216597,-100,4,2,1,60,0,1
217847,-100,4,2,1,5,0,1
217931,-90.9090909090909,4,2,1,60,0,1
219181,-100,4,2,1,5,0,1
219264,-90.9090909090909,4,2,1,60,0,1
219764,-83.3333333333333,4,2,1,60,0,1
220514,-100,4,2,1,5,0,1
220597,-83.3333333333333,4,2,1,60,0,1
221597,-133.333333333333,4,2,1,60,0,1
221931,-66.6666666666667,4,2,1,60,0,1
224597,-250,4,2,1,60,0,0
225264,-250,4,2,1,23,0,0
225764,-250,4,2,1,5,0,0
225931,-200,4,2,1,23,0,0
226431,-250,4,2,1,5,0,0
226598,-200,4,2,1,50,0,0
227931,-250,4,2,1,23,0,0
228431,-250,4,2,1,5,0,0
228597,-142.857142857143,4,2,1,23,0,0
229098,-142.857142857143,4,2,1,50,0,0
229514,-142.857142857143,4,2,1,5,0,0
229598,-142.857142857143,4,2,1,23,0,0
229931,-100,4,2,1,60,0,1
259264,-125,4,2,1,60,0,1
264097,-117.647058823529,4,2,1,60,0,1
264264,-111.111111111111,4,2,1,60,0,1
264431,-105.263157894737,4,2,1,60,0,1
264597,-100,4,2,1,60,0,0

[Colours]
Combo1 : 89,89,255
Combo2 : 23,139,255
Combo3 : 111,23,255

[HitObjects]
107,80,3264,6,0,B|65:138|110:191|110:191|142:227|121:268,1,200,8|0,0:0|0:0,0:0:0:0:
178,131,3764,6,0,P|248:101|355:158,1,200,2|2,0:0|0:0,0:0:0:0:
281,333,4264,6,0,B|216:347|181:305|181:305|140:353|73:323,1,200,8|0,0:0|0:0,0:0:0:0:
205,219,4764,6,0,P|337:247|367:320,1,200,2|2,0:0|0:0,0:0:0:0:
370,173,5264,6,0,L|388:71,1,100,8|2,0:0|0:0,0:0:0:0:
164,286,5598,2,0,L|181:384,1,100,8|2,0:0|0:0,0:0:0:0:
451,202,5931,5,8,0:0:0:0:
294,51,6098,1,0,0:0:0:0:
350,274,6264,1,2,0:0:0:0:
387,74,6431,2,0,B|331:56|290:89|290:89|246:125|171:71,1,200
68,0,6931,5,8,0:0:0:0:
162,152,7098,1,0,0:0:0:0:
21,96,7265,1,2,0:0:0:0:
132,77,7431,1,2,0:0:0:0:
86,205,7598,1,0,0:0:0:0:
191,220,7765,1,0,0:0:0:0:
177,314,7931,5,8,0:0:0:0:
206,328,8042,1,0,0:0:0:0:
246,328,8153,1,0,0:0:0:0:
285,303,8264,1,0,0:0:0:0:
332,279,8376,1,0,0:0:0:0:
395,288,8487,1,0,0:0:0:0:
441,339,8598,1,0,0:0:0:0:
441,339,10598,6,0,P|405:353|375:351,1,59.9999981689454
312,321,11264,2,0,B|259:313|224:343|224:343|191:373|124:377|94:333|94:333|107:303|101:272,1,299.999990844727
54,211,13264,2,0,P|33:174|31:152,1,59.9999981689454
89,106,13931,6,0,P|124:133|119:268,1,179.999994506836
68,310,15264,2,0,P|118:293|159:302,1,89.9999972534181
183,323,15931,2,0,P|215:337|248:334,1,59.9999981689454
307,298,16598,6,0,B|341:251|309:202|309:202|281:155|306:98|306:98|316:109|336:120,1,239.999992675781
400,146,18265,1,0,0:0:0:0:
470,78,18598,1,0,0:0:0:0:
348,0,18931,1,0,0:0:0:0:
215,42,19265,6,0,B|169:60|121:42|121:42|79:27|36:40,1,179.999994506836
1,116,20598,2,0,P|81:164|163:124,1,179.999994506836
83,78,21931,5,0,0:0:0:0:
166,224,22265,1,0,0:0:0:0:
236,111,22598,1,0,0:0:0:0:
301,184,22931,1,0,0:0:0:0:
245,293,23265,1,0,0:0:0:0:
357,384,23598,1,0,0:0:0:0:
486,300,23931,1,0,0:0:0:0:
396,153,24265,1,0,0:0:0:0:
256,182,24598,6,0,P|252:233|280:281,1,104.999996795654
298,309,25265,2,0,P|290:349|252:388,1,89.9999972534181
219,382,25931,2,0,P|191:339|189:308,1,75
198,278,26598,2,0,P|215:243|211:189,1,89.9999972534181
191,160,27265,6,0,B|139:119|79:150|79:150|107:200|85:245|85:245|66:285|88:322,1,299.999990844727
181,281,29265,1,0,0:0:0:0:
98,384,29598,1,0,0:0:0:0:
0,257,29931,6,0,B|9:217|44:197|44:197|80:178|92:132|74:103,1,179.999994506836
3,92,31265,2,0,P|0:146|19:182,1,89.9999972534181
39,186,31931,1,0,0:0:0:0:
119,209,32265,1,0,0:0:0:0:
188,173,32598,1,0,0:0:0:0:
406,30,33598,5,0,0:0:0:0:
406,30,33764,1,0,0:0:0:0:
356,298,34931,5,0,0:0:0:0:
431,318,35264,2,0,P|479:258|471:155,1,179.999994506836
417,87,36598,5,0,0:0:0:0:
367,173,36931,1,0,0:0:0:0:
255,15,37264,1,0,0:0:0:0:
129,79,37598,1,0,0:0:0:0:
154,198,37931,2,0,P|187:239|256:250,1,119.999996337891
229,127,38931,2,0,P|165:110|85:141,1,149.999995422363
66,170,39931,2,0,P|51:187|38:197,3,29.9999990844727
14,215,40598,6,0,P|10:267|54:328,1,119.999996337891
178,221,41598,2,0,P|225:260|290:261,1,119.999996337891
342,213,42598,2,0,P|395:212|412:218,1,59.9999981689454
466,256,43264,5,0,0:0:0:0:
461,340,43598,5,0,0:0:0:0:
461,340,43764,1,0,0:0:0:0:
387,380,44098,5,0,0:0:0:0:
387,380,44264,1,0,0:0:0:0:
235,292,44931,2,0,P|200:288|172:294,2,59.9999981689454
109,343,45931,6,0,P|97:278|145:213,1,149.999995422363
143,213,46931,1,0,0:0:0:0:
150,222,48264,5,0,0:0:0:0:
150,222,48431,1,0,0:0:0:0:
150,222,48598,2,0,P|129:158|147:106,2,119.999996337891
210,277,50598,2,0,P|241:278|275:269,1,59.9999981689454
461,118,51264,6,0,B|409:88|355:118|355:118|307:143|245:104,1,200,4|8,0:0|0:0,0:0:0:0:
323,0,51764,6,0,L|307:209,1,200,4|8,0:0|0:0,0:0:0:0:
162,269,52264,6,0,B|214:239|268:269|268:269|316:294|378:255,1,200,4|8,0:0|0:0,0:0:0:0:
512,152,52764,6,0,L|305:167,1,200,4|2,0:0|0:0,0:0:0:0:
469,384,53264,5,2,0:0:0:0:
344,97,53431,1,2,0:0:0:0:
335,331,53598,1,2,0:0:0:0:
395,199,53764,1,2,0:0:0:0:
174,384,53931,1,10,0:0:0:0:
247,345,54598,6,0,P|272:296|264:263,1,89.9999972534181
248,249,55264,6,0,P|222:184|258:115,1,129.999994049073
262,117,55764,1,2,0:0:0:0:
136,310,55931,1,14,0:0:0:0:
122,331,56264,5,8,0:0:0:0:
131,48,56431,1,8,0:0:0:0:
267,315,56598,5,4,0:0:0:0:
244,81,56764,1,0,0:0:0:0:
189,284,56931,1,0,0:0:0:0:
300,148,57098,1,2,0:0:0:0:
150,213,57264,1,10,0:0:0:0:
287,230,57431,1,0,0:0:0:0:
171,215,57598,1,0,0:0:0:0:
304,246,57764,1,2,0:0:0:0:
219,49,57931,5,0,0:0:0:0:
322,264,58098,1,8,0:0:0:0:
153,96,58264,1,2,0:0:0:0:
379,216,58431,1,0,0:0:0:0:
64,162,58598,1,8,0:0:0:0:
394,130,58764,1,2,0:0:0:0:
41,162,58931,2,0,P|31:216|54:268,1,100
174,89,59264,6,0,P|128:19|17:2,1,200,2|0,0:0|0:0,0:0:0:0:
58,125,59764,1,2,0:0:0:0:
292,12,59931,2,0,P|242:99|283:198,1,200,8|0,0:0|0:0,0:0:0:0:
438,366,60431,6,0,P|446:316|422:258,1,100,2|0,0:0|0:0,0:0:0:0:
390,97,60764,1,8,0:0:0:0:
343,270,60931,1,2,0:0:0:0:
512,186,61098,1,0,0:0:0:0:
242,210,61264,2,0,P|225:264|241:315,1,100,8|2,0:0|0:0,0:0:0:0:
359,384,61598,1,0,0:0:0:0:
138,384,61764,1,0,0:0:0:0:
374,271,61931,6,0,P|385:204|306:102,1,200,2|0,0:0|0:0,0:0:0:0:
182,130,62431,1,2,0:0:0:0:
409,14,62598,2,0,P|430:63|399:138,1,100,8|0,0:0|0:0,0:0:0:0:
159,130,62931,1,0,0:0:0:0:
380,180,63098,6,0,P|365:230|378:283,1,100,2|0,0:0|0:0,0:0:0:0:
512,177,63431,1,8,0:0:0:0:
307,323,63598,2,0,P|347:355|397:356,1,100,2|0,0:0|0:0,0:0:0:0:
493,192,63931,1,8,0:0:0:0:
177,384,64098,2,0,L|142:172,1,200,4|0,0:0|0:0,0:0:0:0:
56,0,64598,5,4,0:0:0:0:
306,116,64764,1,0,0:0:0:0:
60,170,64931,1,8,0:0:0:0:
334,109,65098,2,0,L|327:214,1,100,4|0,0:0|0:0,0:0:0:0:
166,147,65431,1,2,0:0:0:0:
425,82,65598,2,0,L|418:187,1,100,2|2,0:0|0:0,0:0:0:0:
139,155,65931,5,4,0:0:0:0:
444,187,66098,1,0,0:0:0:0:
91,272,66265,1,8,0:0:0:0:
460,309,66431,2,0,L|364:340,1,100,4|0,0:0|0:0,0:0:0:0:
160,113,66765,1,8,0:0:0:0:
208,384,66931,1,8,0:0:0:0:
160,113,67098,1,8,0:0:0:0:
208,384,67265,5,4,0:0:0:0:
235,142,67431,1,0,0:0:0:0:
280,341,67598,1,0,0:0:0:0:
163,182,67765,1,2,0:0:0:0:
349,294,67931,1,8,0:0:0:0:
183,192,68098,1,0,0:0:0:0:
354,214,68265,1,0,0:0:0:0:
222,316,68431,1,2,0:0:0:0:
322,136,68598,5,0,0:0:0:0:
210,339,68765,1,8,0:0:0:0:
405,157,68931,1,2,0:0:0:0:
164,270,69098,1,0,0:0:0:0:
433,244,69265,1,8,0:0:0:0:
141,184,69431,1,2,0:0:0:0:
433,162,69598,2,0,P|478:176|517:230,1,100
425,350,69931,6,0,P|337:382|255:319,1,200,2|0,0:0|0:0,0:0:0:0:
241,218,70431,1,2,0:0:0:0:
387,141,70598,2,0,P|412:201|319:315,1,200,8|0,0:0|0:0,0:0:0:0:
124,254,71098,6,0,P|66:244|14:275,1,100,2|0,0:0|0:0,0:0:0:0:
171,348,71431,1,8,0:0:0:0:
78,156,71598,1,2,0:0:0:0:
0,354,71765,1,0,0:0:0:0:
87,130,71931,1,8,0:0:0:0:
144,279,72098,1,2,0:0:0:0:
44,198,72265,1,0,0:0:0:0:
188,214,72431,1,0,0:0:0:0:
17,66,72598,6,0,P|74:44|187:110,1,200,4|0,0:0|0:0,0:0:0:0:
76,179,73098,1,2,0:0:0:0:
281,135,73265,2,0,P|230:182|258:306,1,200,8|0,0:0|0:0,0:0:0:0:
439,293,73765,6,0,P|393:229|343:221,1,100,2|0,0:0|0:0,0:0:0:0:
331,340,74098,1,8,0:0:0:0:
299,112,74265,1,2,0:0:0:0:
276,282,74431,1,8,0:0:0:0:
512,220,74598,1,8,0:0:0:0:
232,78,74765,1,2,0:0:0:0:
450,277,74931,1,2,0:0:0:0:
276,282,75098,1,2,0:0:0:0:
451,21,75265,6,0,P|487:67|427:199,1,200,4|0,0:0|0:0,0:0:0:0:
348,102,75765,1,2,0:0:0:0:
369,289,75931,2,0,P|404:346|445:360,1,100,8|0,0:0|0:0,0:0:0:0:
353,126,76265,1,0,0:0:0:0:
512,290,76431,1,2,0:0:0:0:
243,238,76598,5,0,0:0:0:0:
404,68,76765,2,0,P|428:124|410:182,1,100,8|2,0:0|0:0,0:0:0:0:
332,225,77098,1,0,0:0:0:0:
321,28,77265,2,0,P|384:-8|503:67,1,200,8|0,0:0|0:0,0:0:0:0:
512,149,77765,1,0,0:0:0:0:
295,107,77931,6,0,P|244:65|237:25,1,100,2|0,0:0|0:0,0:0:0:0:
356,0,78265,1,0,0:0:0:0:
161,54,78431,1,2,0:0:0:0:
372,122,78598,2,0,B|404:172|372:226|372:226|343:274|384:325,1,200,8|0,0:0|0:0,0:0:0:0:
304,172,79098,1,2,0:0:0:0:
445,267,79265,5,0,0:0:0:0:
222,275,79431,2,0,P|268:328|314:340,1,100,8|2,0:0|0:0,0:0:0:0:
412,282,79765,1,0,0:0:0:0:
227,187,79931,2,0,P|158:215|174:345,1,200,8|0,0:0|0:0,0:0:0:0:
23,253,80431,1,2,0:0:0:0:
298,130,80598,6,0,B|332:180|303:232|303:232|276:280|310:333,1,200,4|0,0:0|0:0,0:0:0:0:
52,250,81098,1,2,0:0:0:0:
235,66,81265,2,0,P|302:47|392:138,1,200,8|0,0:0|0:0,0:0:0:0:
287,161,81765,1,8,0:0:0:0:
482,93,81931,5,2,0:0:0:0:
432,212,82098,1,2,0:0:0:0:
185,120,82265,2,0,B|163:158|182:199|182:199|198:238|170:287,1,150,8|0,0:0|0:0,0:0:0:0:
165,301,82598,1,2,0:0:0:0:
97,329,82709,1,0,0:0:0:0:
34,304,82820,1,0,0:0:0:0:
15,246,82931,1,0,0:0:0:0:
35,196,83042,1,0,0:0:0:0:
79,181,83153,1,0,0:0:0:0:
114,198,83264,1,4,0:0:0:0:
256,192,83348,12,0,84598,0:0:0:0:
256,320,85098,5,2,0:0:0:0:
256,336,85181,1,2,0:0:0:0:
256,352,85265,1,8,0:0:0:0:
256,96,85431,1,8,0:0:0:0:
256,96,85931,5,4,0:0:0:0:
95,232,86098,2,0,L|198:242,1,100,2|0,0:0|0:0,0:0:0:0:
176,87,86431,5,2,0:0:0:0:
49,306,86598,2,0,L|152:316,1,100,8|0,0:0|0:0,0:0:0:0:
383,297,86931,5,2,0:0:0:0:
222,161,87098,2,0,L|325:151,1,100,2|0,0:0|0:0,0:0:0:0:
303,306,87431,5,2,0:0:0:0:
176,87,87598,2,0,L|279:77,1,100,2|0,0:0|0:0,0:0:0:0:
470,60,87931,5,8,0:0:0:0:
373,200,88098,1,0,0:0:0:0:
512,0,88265,1,2,0:0:0:0:
414,141,88431,1,2,0:0:0:0:
225,0,88598,5,2,0:0:0:0:
414,141,88765,2,0,L|404:250,1,100,2|0,0:0|0:0,0:0:0:0:
213,74,89098,5,2,0:0:0:0:
396,124,89265,2,0,L|386:233,1,100,8|0,0:0|0:0,0:0:0:0:
216,365,89598,5,2,0:0:0:0:
405,224,89765,2,0,L|395:115,1,100,2|0,0:0|0:0,0:0:0:0:
204,291,90098,5,8,0:0:0:0:
387,241,90265,2,0,L|377:132,1,100,2|0,0:0|0:0,0:0:0:0:
130,306,90598,5,8,0:0:0:0:
466,222,90765,1,2,0:0:0:0:
154,232,90931,1,2,0:0:0:0:
442,294,91098,1,2,0:0:0:0:
130,226,91265,5,2,0:0:0:0:
325,103,91431,2,0,L|316:211,1,100,2|0,0:0|0:0,0:0:0:0:
53,236,91765,5,2,0:0:0:0:
335,287,91931,2,0,L|233:278,1,100,10|0,0:0|0:0,0:0:0:0:
4,171,92265,5,2,0:0:0:0:
243,377,92431,2,0,L|234:277,1,100,2|0,0:0|0:0,0:0:0:0:
0,93,92765,5,8,0:0:0:0:
165,360,92931,2,0,L|156:260,1,100,0|2,0:0|0:0,0:0:0:0:
155,239,93181,1,2,0:0:0:0:
170,246,93264,5,10,0:0:0:0:
213,30,93431,1,0,0:0:0:0:
73,228,93598,1,0,0:0:0:0:
293,38,93765,1,8,0:0:0:0:
12,72,93931,5,2,0:0:0:0:
210,185,94098,2,0,L|317:174,1,100,2|0,0:0|0:0,0:0:0:0:
92,61,94431,5,2,0:0:0:0:
142,269,94598,2,0,L|249:258,1,100,8|0,0:0|0:0,0:0:0:0:
172,51,94931,5,8,0:0:0:0:
63,223,95098,2,0,L|72:328,1,100,2|0,0:0|0:0,0:0:0:0:
179,129,95431,5,8,0:0:0:0:
43,239,95598,2,0,L|52:344,1,100,2|0,0:0|0:0,0:0:0:0:
57,364,95848,1,8,0:0:0:0:
57,364,95931,5,8,0:0:0:0:
367,354,96098,1,8,0:0:0:0:
123,262,96265,1,8,0:0:0:0:
392,358,96431,1,8,0:0:0:0:
180,177,96598,5,2,0:0:0:0:
413,281,96765,2,0,L|512:269,1,100,2|0,0:0|0:0,0:0:0:0:
244,131,97098,5,2,0:0:0:0:
412,358,97265,2,0,L|511:346,1,100,8|0,0:0|0:0,0:0:0:0:
180,207,97598,5,2,0:0:0:0:
413,103,97765,2,0,L|512:114,1,100,2|0,0:0|0:0,0:0:0:0:
244,253,98098,5,8,0:0:0:0:
412,26,98265,2,0,L|511:37,1,100,2|0,0:0|0:0,0:0:0:0:
310,298,98598,5,8,0:0:0:0:
336,113,98765,1,2,0:0:0:0:
308,320,98931,1,0,0:0:0:0:
264,37,99098,1,2,0:0:0:0:
254,48,99181,1,2,0:0:0:0:
245,59,99265,5,2,0:0:0:0:
502,149,99431,2,0,L|490:276,1,100,2|0,0:0|0:0,0:0:0:0:
344,77,99765,5,2,0:0:0:0:
417,239,99931,2,0,L|405:366,1,100,8|0,0:0|0:0,0:0:0:0:
423,111,100265,5,8,0:0:0:0:
261,219,100431,2,0,L|134:207,1,100,2|0,0:0|0:0,0:0:0:0:
338,101,100765,5,8,0:0:0:0:
165,131,100931,2,0,L|38:119,1,100,2|2,0:0|0:0,0:0:0:0:
347,21,101265,5,8,0:0:0:0:
161,209,101431,1,2,0:0:0:0:
260,22,101598,1,2,0:0:0:0:
245,200,101765,1,2,0:0:0:0:
261,0,101931,5,0,0:0:0:0:
242,275,102098,1,0,0:0:0:0:
180,43,102431,5,0,0:0:0:0:
329,272,102598,1,0,0:0:0:0:
108,90,102931,5,0,0:0:0:0:
413,268,103098,1,0,0:0:0:0:
38,136,103431,5,0,0:0:0:0:
495,263,103598,1,0,0:0:0:0:
270,198,103765,1,2,0:0:0:0:
275,210,103848,1,2,0:0:0:0:
280,222,103931,5,2,0:0:0:0:
512,94,104098,1,0,0:0:0:0:
188,192,104264,1,2,0:0:0:0:
193,204,104347,1,2,0:0:0:0:
198,216,104430,5,2,0:0:0:0:
512,175,104598,1,0,0:0:0:0:
104,189,104764,1,2,0:0:0:0:
109,201,104847,1,2,0:0:0:0:
114,213,104930,5,2,0:0:0:0:
512,255,105098,1,0,0:0:0:0:
210,117,105265,1,2,0:0:0:0:
512,333,105431,5,0,0:0:0:0:
294,111,105598,1,0,0:0:0:0:
450,384,105765,1,8,0:0:0:0:
450,384,105848,1,8,0:0:0:0:
450,384,105931,5,8,0:0:0:0:
108,150,106098,1,8,0:0:0:0:
512,74,106264,1,8,0:0:0:0:
200,384,106431,1,8,0:0:0:0:
376,187,106568,5,0,0:0:0:0:
424,242,106679,1,0,0:0:0:0:
424,308,106790,1,0,0:0:0:0:
379,346,106901,1,0,0:0:0:0:
326,340,107012,1,0,0:0:0:0:
299,302,107123,1,0,0:0:0:0:
310,263,107234,1,4,0:0:0:0:
84,164,128597,6,0,B|112:166|142:176|142:176|170:161|200:155,1,119.999996337891,2|0,0:0|0:0,0:0:0:0:
281,119,129597,2,0,B|312:129|340:131|340:131|365:154|380:182,1,119.999996337891,2|2,0:0|0:0,0:0:0:0:
402,263,130597,1,0,0:0:0:0:
207,364,131097,1,0,0:0:0:0:
207,364,131264,6,0,B|176:361|148:353|148:353|115:357|84:372,1,119.999996337891,2|0,0:0|0:0,0:0:0:0:
11,325,132264,2,0,P|6:305|5:284,1,29.9999990844727,2|2,0:0|0:0,0:0:0:0:
5,250,132597,2,0,B|15:240|28:232|28:232|46:228|61:221,1,59.9999981689454
140,188,133264,2,0,P|149:148|148:128,1,59.9999981689454
5,58,133931,6,0,P|48:26|86:21,2,89.9999972534181,2|2|2,0:0|0:0|0:0,0:0:0:0:
105,190,135597,1,0,0:0:0:0:
181,143,135931,2,0,P|224:138|270:158,1,89.9999972534181
300,184,136597,6,0,P|358:192|386:180,2,89.9999972534181,2|2|2,0:0|0:0|0:0,0:0:0:0:
300,184,138597,2,0,L|296:125,1,59.9999981689454
288,37,139264,5,0,0:0:0:0:
366,8,139597,5,0,0:0:0:0:
366,8,139764,1,0,0:0:0:0:
446,33,140097,5,0,0:0:0:0:
446,33,140264,1,0,0:0:0:0:
420,198,140931,2,0,P|454:218|481:220,2,59.9999981689454
376,125,141931,6,0,P|334:88|236:86,1,149.999995422363
243,82,142931,1,0,0:0:0:0:
253,93,144264,5,0,0:0:0:0:
253,93,144431,1,0,0:0:0:0:
253,93,144597,2,0,B|268:122|257:151|257:151|247:177|261:210,2,119.999996337891
219,21,146597,2,0,P|252:15|277:20,1,59.9999981689454
292,294,147264,6,0,P|213:290|151:178,1,200,4|8,0:0|0:0,0:0:0:0:
356,211,147764,6,0,P|395:298|349:383,1,200,4|8,0:0|0:0,0:0:0:0:
255,196,148264,6,0,P|307:124|425:137,1,200,4|8,0:0|0:0,0:0:0:0:
292,294,148764,6,0,P|213:290|151:178,1,200,4|2,0:0|0:0,0:0:0:0:
155,170,149181,1,2,0:0:0:0:
140,177,149264,5,2,0:0:0:0:
347,0,149431,1,2,0:0:0:0:
131,87,149597,1,2,0:0:0:0:
340,79,149764,1,2,0:0:0:0:
33,0,149931,1,8,0:0:0:0:
214,203,150597,6,0,P|257:213|301:202,1,89.9999972534181
312,182,151264,6,0,B|285:221|309:263|309:263|344:321|296:368,1,194.999991073609,0|2,0:0|0:0,0:0:0:0:
282,370,151847,1,2,0:0:0:0:
260,364,151931,6,0,P|249:296|274:258,1,97.4999955368044,12|0,0:0|0:0,0:0:0:0:
277,257,152264,1,8,0:0:0:0:
512,384,152431,1,8,0:0:0:0:
178,350,152597,5,4,0:0:0:0:
445,326,152764,1,0,0:0:0:0:
170,330,152931,1,0,0:0:0:0:
379,272,153097,1,2,0:0:0:0:
163,309,153264,1,8,0:0:0:0:
319,219,153431,1,0,0:0:0:0:
156,289,153597,1,0,0:0:0:0:
295,225,153764,1,2,0:0:0:0:
82,317,153931,5,0,0:0:0:0:
302,384,154097,1,8,0:0:0:0:
191,174,154264,1,2,0:0:0:0:
223,345,154431,1,0,0:0:0:0:
257,115,154597,1,8,0:0:0:0:
217,366,154764,1,2,0:0:0:0:
174,92,154931,2,0,P|210:40|272:28,1,100
210,254,155264,6,0,P|113:250|56:159,1,200,2|0,0:0|0:0,0:0:0:0:
17,310,155764,1,2,0:0:0:0:
72,91,155931,2,0,P|128:137|126:264,1,200,8|0,0:0|0:0,0:0:0:0:
245,203,156431,6,0,P|299:203|340:226,1,100,2|0,0:0|0:0,0:0:0:0:
130,257,156764,1,8,0:0:0:0:
282,274,156931,1,2,0:0:0:0:
152,130,157097,1,0,0:0:0:0:
91,322,157264,2,0,P|138:364|273:328,1,200,8|0,0:0|0:0,0:0:0:0:
183,236,157764,1,2,0:0:0:0:
351,384,157931,6,0,B|376:335|348:292|348:292|319:246|350:194,1,200,2|0,0:0|0:0,0:0:0:0:
263,340,158431,1,2,0:0:0:0:
384,128,158597,2,0,P|381:65|352:29,1,100,8|0,0:0|0:0,0:0:0:0:
259,261,158931,1,0,0:0:0:0:
418,375,159097,6,0,P|465:386|511:368,1,100,2|0,0:0|0:0,0:0:0:0:
256,181,159431,1,8,0:0:0:0:
458,299,159597,2,0,L|467:194,1,100,2|0,0:0|0:0,0:0:0:0:
186,227,159931,1,8,0:0:0:0:
512,63,160097,2,0,L|308:76,1,200,4|0,0:0|0:0,0:0:0:0:
168,243,160597,5,4,0:0:0:0:
233,81,160764,1,0,0:0:0:0:
256,277,160931,1,8,0:0:0:0:
229,58,161097,2,0,L|127:64,1,100,4|0,0:0|0:0,0:0:0:0:
253,255,161431,1,2,0:0:0:0:
99,135,161597,2,0,L|0:140,1,100,2|2,0:0|0:0,0:0:0:0:
164,297,161931,5,4,0:0:0:0:
102,113,162097,1,0,0:0:0:0:
64,384,162264,1,8,0:0:0:0:
187,95,162431,2,0,L|289:101,1,100,4|0,0:0|0:0,0:0:0:0:
147,377,162764,1,8,0:0:0:0:
24,107,162931,1,8,0:0:0:0:
147,377,163097,1,8,0:0:0:0:
24,107,163264,5,4,0:0:0:0:
42,305,163431,1,0,0:0:0:0:
106,121,163597,1,0,0:0:0:0:
51,285,163764,1,2,0:0:0:0:
183,137,163931,1,8,0:0:0:0:
62,263,164097,1,0,0:0:0:0:
220,213,164264,1,0,0:0:0:0:
72,241,164431,1,2,0:0:0:0:
160,25,164597,5,0,0:0:0:0:
211,190,164764,1,8,0:0:0:0:
81,44,164931,1,2,0:0:0:0:
291,172,165097,1,0,0:0:0:0:
61,29,165264,1,8,0:0:0:0:
334,75,165431,1,2,0:0:0:0:
12,130,165597,2,0,P|32:184|81:215,1,100,0|2,0:0|0:0,0:0:0:0:
250,48,165931,6,0,P|186:47|123:168,1,200
239,160,166431,1,2,0:0:0:0:
42,86,166597,2,0,P|33:172|114:252,1,200,8|0,0:0|0:0,0:0:0:0:
219,175,167097,1,2,0:0:0:0:
64,347,167264,5,0,0:0:0:0:
261,280,167431,1,8,0:0:0:0:
193,103,167597,1,2,0:0:0:0:
162,230,167764,1,0,0:0:0:0:
300,178,167931,1,8,0:0:0:0:
131,152,168097,1,2,0:0:0:0:
273,102,168264,1,0,0:0:0:0:
178,211,168431,1,0,0:0:0:0:
234,0,168597,6,0,P|332:6|388:108,1,200,4|0,0:0|0:0,0:0:0:0:
300,178,169097,1,2,0:0:0:0:
489,0,169264,2,0,P|496:68|380:153,1,200,8|0,0:0|0:0,0:0:0:0:
221,139,169764,6,0,P|194:208|213:255,1,100,2|0,0:0|0:0,0:0:0:0:
366,58,170097,1,8,0:0:0:0:
252,295,170264,2,0,L|353:304,1,100,2|0,0:0|0:0,0:0:0:0:
366,35,170597,1,8,0:0:0:0:
512,269,170764,1,8,0:0:0:0:
279,44,170931,1,8,0:0:0:0:
512,183,171097,1,8,0:0:0:0:
190,188,171264,6,0,B|236:228|289:200|289:200|344:172|403:210,1,200,4|0,0:0|0:0,0:0:0:0:
248,123,171764,1,2,0:0:0:0:
431,264,171931,2,0,P|463:197|444:143,1,100,8|0,0:0|0:0,0:0:0:0:
231,103,172264,1,0,0:0:0:0:
466,104,172431,1,2,0:0:0:0:
350,292,172597,5,0,0:0:0:0:
481,84,172764,2,0,P|506:140|495:197,1,100,8|2,0:0|0:0,0:0:0:0:
365,271,173097,1,0,0:0:0:0:
250,76,173264,2,0,P|348:79|416:152,1,200,8|0,0:0|0:0,0:0:0:0:
365,271,173764,1,2,0:0:0:0:
173,224,173931,6,0,P|199:177|242:151,1,100,2|0,0:0|0:0,0:0:0:0:
347,252,174264,1,0,0:0:0:0:
440,128,174431,1,2,0:0:0:0:
510,346,174597,2,0,B|464:386|411:358|411:358|356:330|297:368,1,200,8|0,0:0|0:0,0:0:0:0:
452,278,175097,1,2,0:0:0:0:
267,232,175264,5,0,0:0:0:0:
477,96,175431,1,8,0:0:0:0:
380,259,175597,1,2,0:0:0:0:
310,120,175764,1,2,0:0:0:0:
290,302,175931,1,2,0:0:0:0:
192,249,176097,1,2,0:0:0:0:
167,354,176264,1,2,0:0:0:0:
123,65,176597,5,4,0:0:0:0:
256,192,176681,12,0,179265,0:0:0:0:
215,161,189931,5,4,0:0:0:0:
128,228,190264,1,0,0:0:0:0:
44,205,190597,1,0,0:0:0:0:
15,145,190931,1,2,0:0:0:0:
48,54,191264,5,0,0:0:0:0:
158,27,191597,1,0,0:0:0:0:
231,136,191931,1,0,0:0:0:0:
363,104,192264,1,0,0:0:0:0:
426,258,192597,6,0,P|468:271|512:265,1,89.9999972534181,2|0,0:0|0:0,0:0:0:0:
451,106,193597,2,0,P|407:95|363:104,2,89.9999972534181,2|0|0,0:0|0:0|0:0,0:0:0:0:
463,188,194931,1,0,0:0:0:0:
426,258,195264,6,0,P|439:300|473:329,1,89.9999972534181,2|0,0:0|0:0,0:0:0:0:
347,206,196264,2,0,P|335:258|345:294,1,89.9999972534181,2|0,0:0|0:0,0:0:0:0:
512,142,197264,5,8,0:0:0:0:
391,43,197431,1,2,0:0:0:0:
279,108,197597,1,2,0:0:0:0:
276,190,197764,1,2,0:0:0:0:
326,230,197909,5,8,0:0:0:0:
186,154,198242,1,8,0:0:0:0:
268,289,198576,1,8,0:0:0:0:
279,113,198910,1,8,0:0:0:0:
209,346,199244,1,8,0:0:0:0:
303,38,199578,1,8,0:0:0:0:
185,268,199912,5,8,0:0:0:0:
327,116,200079,1,8,0:0:0:0:
122,195,200246,1,8,0:0:0:0:
394,188,200413,1,8,0:0:0:0:
57,125,200598,6,0,B|28:176|52:217|52:217|76:260|38:314,1,179.999994506836,4|0,0:0|0:0,0:0:0:0:
0,384,201098,1,2,0:0:0:0:
135,267,201264,2,0,P|183:264|219:283,1,69.9999978637696,8|0,0:0|0:0,0:0:0:0:
324,293,201598,2,0,P|327:337|298:382,1,80
253,214,201931,2,0,P|290:187|352:186,1,89.9999972534181,2|0,0:0|0:0,0:0:0:0:
495,380,202431,5,0,0:0:0:0:
495,380,202598,2,0,B|466:335|492:289|492:289|519:237|473:192,1,200,10|0,0:0|0:0,0:0:0:0:
365,181,203098,2,0,P|392:207|417:215,1,50
350,108,203264,2,0,P|355:42|405:0,2,134.999995880127,2|0|0,0:0|0:0|0:0,0:0:0:0:
356,232,203931,2,0,P|344:278|286:317,1,100,8|0,0:0|0:0,0:0:0:0:
192,339,204264,2,0,B|130:351|86:286|114:231|114:231|146:177|134:113|26:128|50:202,1,359.999989013672
183,263,205098,5,0,0:0:0:0:
183,263,205264,2,0,P|211:207|207:157,1,110.000003356934,8|0,0:0|0:0,0:0:0:0:
37,111,205598,2,0,P|62:155|133:170,1,119.999996337891
232,62,205931,6,0,B|290:2|372:39|372:39|442:68|481:17|481:17|520:79|481:151,1,389.999982147218,2|0,0:0|0:0,0:0:0:0:
373,270,206598,2,0,B|316:207|345:124|345:124|396:132|420:208,1,259.999988098145,10|0,0:0|0:0,0:0:0:0:
512,170,207098,1,8,0:0:0:0:
512,170,207264,2,0,B|465:232|513:295|513:295|486:369|414:350|414:350|347:330|292:359|292:359|337:318|336:261,1,479.999985351563,2|8,0:0|0:0,0:0:0:0:
292,21,208264,6,0,P|249:6|178:20,1,110.000003356934
81,223,208598,2,0,P|197:260|283:161,1,239.999992675781,2|0,0:0|0:0,0:0:0:0:
292,21,209098,1,0,0:0:0:0:
356,197,209264,6,0,P|413:213|461:194,1,100,10|0,0:0|0:0,0:0:0:0:
291,130,209598,2,0,P|262:189|272:232,1,89.9999972534181
323,307,209931,2,0,P|327:370|306:407,1,80,2|8,0:0|0:0,0:0:0:0:
176,275,210264,2,0,P|217:248|256:247,1,69.9999978637696,2|2,0:0|0:0,0:0:0:0:
207,384,210598,5,8,0:0:0:0:
142,167,210764,1,8,0:0:0:0:
101,344,210931,1,8,0:0:0:0:
148,142,211098,1,8,0:0:0:0:
24,316,211264,1,4,0:0:0:0:
206,65,211598,5,0,0:0:0:0:
206,65,211764,2,0,B|176:36|132:50|132:50|97:62|75:54,1,119.999996337891
11,131,212264,2,0,B|64:167|46:233|46:233|30:295|71:327,1,209.999993591309
149,232,212931,6,0,P|91:211|68:215,1,59.9999981689454
126,368,213264,2,0,P|156:343|168:280,1,80,2|0,0:0|0:0,0:0:0:0:
14,201,213598,2,0,P|16:232|38:264,1,69.9999978637696
232,257,213931,6,0,P|290:227|321:137,1,160,2|0,0:0|0:0,0:0:0:0:
282,55,214431,2,0,B|334:40|375:72|375:72|411:101|469:79,1,179.999994506836
427,0,215097,1,0,0:0:0:0:
395,166,215264,2,0,P|430:219|511:240,1,139.999995727539,2|0,0:0|0:0,0:0:0:0:
226,321,215931,6,0,P|218:343|216:367,1,34.9999989318848
346,320,216097,2,0,P|338:290|325:267,1,44.999998626709
162,355,216264,2,0,P|186:374|209:385,1,55.0000016784668,2|0,0:0|0:0,0:0:0:0:
412,294,216431,2,0,P|390:276|354:258,1,64.9999970245363,2|0,0:0|0:0,0:0:0:0:
177,231,216597,5,6,0:0:0:0:
177,231,216931,1,2,0:0:0:0:
439,343,217097,6,0,B|457:318|459:282|431:252|431:252|385:203|402:128|431:100|431:100|452:113|463:135,1,300,2|0,0:0|0:0,0:0:0:0:
455,123,217764,2,0,P|446:163|426:189,1,50
89,200,217931,5,6,0:0:0:0:
89,200,218264,1,2,0:0:0:0:
439,343,218431,6,0,B|459:313|457:283|432:253|432:253|376:185|395:118|430:84|430:84|450:98|462:119,1,330.000010070801,2|0,0:0|0:0,0:0:0:0:
460,116,219097,2,0,P|466:152|454:189,1,55.0000016784668
0,166,219264,5,6,0:0:0:0:
0,166,219597,1,2,0:0:0:0:
439,343,219764,6,0,B|461:316|455:273|422:241|422:241|370:184|389:88|447:69|447:69|478:84|497:115,1,359.999989013672,2|0,0:0|0:0,0:0:0:0:
482,95,220431,2,0,P|500:126|501:165,1,59.9999981689454
163,299,220597,5,2,0:0:0:0:
313,6,220764,1,2,0:0:0:0:
313,6,221097,5,2,0:0:0:0:
178,278,221264,1,2,0:0:0:0:
171,50,221431,1,2,0:0:0:0:
294,237,221597,2,0,P|233:212|178:210,1,112.500004291535,2|0,0:0|0:0,0:0:0:0:
280,185,221931,6,0,B|233:167|197:169|197:169|147:197|86:199|86:199|56:176|19:171|19:171|-8:186|-26:187,1,300.000011444092,4|0,0:0|0:0,0:0:0:0:
72,3,222431,6,0,B|79:90|110:143|110:143|124:222|95:307,1,300.000011444092,4|0,0:0|0:0,0:0:0:0:
232,185,222931,6,0,B|278:167|315:169|315:169|365:197|426:199|426:199|456:176|493:171|493:171|520:186|538:187,1,300.000011444092,4|0,0:0|0:0,0:0:0:0:
440,3,223431,6,0,B|433:90|402:143|402:143|388:222|417:307,1,300.000011444092,4|0,0:0|0:0,0:0:0:0:
421,318,223847,1,2,0:0:0:0:
440,312,223931,1,2,0:0:0:0:
209,221,224097,1,2,0:0:0:0:
510,290,224264,1,2,0:0:0:0:
169,297,224431,1,2,0:0:0:0:
512,78,224597,1,8,0:0:0:0:
512,78,225264,6,0,B|484:65|452:62|452:62|421:72|391:70,1,120
300,35,225931,6,0,B|337:29|379:41|379:41|422:45|458:26,1,150
422,147,226597,5,0,0:0:0:0:
402,144,226681,1,0,0:0:0:0:
382,142,226764,1,0,0:0:0:0:
362,140,226847,1,0,0:0:0:0:
342,138,226931,1,0,0:0:0:0:
322,135,227014,1,0,0:0:0:0:
302,133,227097,1,0,0:0:0:0:
282,131,227181,1,0,0:0:0:0:
263,129,227264,1,2,0:0:0:0:
263,129,227931,6,0,P|208:93|201:34,1,120
207,23,228597,6,0,P|242:69|126:147,1,209.999993591309,0|2,0:0|0:0,0:0:0:0:
134,153,229181,1,2,0:0:0:0:
116,138,229264,6,0,P|84:151|74:228,1,104.999996795654,4|0,0:0|0:0,0:0:0:0:
78,235,229597,1,8,0:0:0:0:
281,227,229764,1,8,0:0:0:0:
178,34,229931,5,4,0:0:0:0:
153,287,230097,1,0,0:0:0:0:
156,31,230264,1,0,0:0:0:0:
191,210,230431,1,2,0:0:0:0:
132,28,230597,1,8,0:0:0:0:
233,136,230764,1,0,0:0:0:0:
108,26,230931,1,0,0:0:0:0:
214,123,231097,1,2,0:0:0:0:
23,19,231264,5,0,0:0:0:0:
302,0,231431,1,8,0:0:0:0:
191,210,231597,1,2,0:0:0:0:
223,39,231764,1,0,0:0:0:0:
257,269,231931,1,8,0:0:0:0:
217,18,232097,1,2,0:0:0:0:
174,292,232264,2,0,P|210:344|272:356,1,100,0|2,0:0|0:0,0:0:0:0:
210,130,232597,6,0,P|113:134|56:225,1,200,2|0,0:0|0:0,0:0:0:0:
17,74,233097,1,2,0:0:0:0:
66,295,233264,2,0,P|122:249|120:122,1,200,8|0,0:0|0:0,0:0:0:0:
251,187,233764,6,0,P|305:187|346:164,1,100,2|0,0:0|0:0,0:0:0:0:
124,128,234097,1,8,0:0:0:0:
282,110,234264,1,2,0:0:0:0:
152,254,234431,1,0,0:0:0:0:
91,62,234597,2,0,P|138:20|273:56,1,200,8|0,0:0|0:0,0:0:0:0:
183,148,235097,1,2,0:0:0:0:
351,0,235264,6,0,B|376:49|348:92|348:92|319:138|350:190,1,200,4|0,0:0|0:0,0:0:0:0:
263,44,235764,1,2,0:0:0:0:
384,256,235931,2,0,P|381:319|352:355,1,100,8|0,0:0|0:0,0:0:0:0:
259,123,236264,1,2,0:0:0:0:
417,9,236431,6,0,P|466:0|512:18,1,100,2|0,0:0|0:0,0:0:0:0:
256,203,236764,1,8,0:0:0:0:
458,85,236931,2,0,L|467:190,1,100,2|0,0:0|0:0,0:0:0:0:
186,157,237264,1,8,0:0:0:0:
512,321,237431,2,0,L|308:308,1,200,4|8,0:0|0:0,0:0:0:0:
168,141,237931,5,4,0:0:0:0:
233,303,238097,1,0,0:0:0:0:
256,107,238264,1,8,0:0:0:0:
229,326,238431,2,0,L|127:320,1,100,4|0,0:0|0:0,0:0:0:0:
253,129,238764,1,2,0:0:0:0:
99,249,238931,2,0,L|0:244,1,100,2|2,0:0|0:0,0:0:0:0:
164,87,239264,5,4,0:0:0:0:
102,271,239431,1,0,0:0:0:0:
64,0,239597,1,8,0:0:0:0:
187,289,239764,2,0,L|289:283,1,100,4|0,0:0|0:0,0:0:0:0:
147,7,240097,1,8,0:0:0:0:
24,277,240264,1,8,0:0:0:0:
147,7,240431,1,8,0:0:0:0:
24,277,240597,5,4,0:0:0:0:
42,79,240764,1,0,0:0:0:0:
99,248,240931,1,0,0:0:0:0:
64,82,241097,1,2,0:0:0:0:
174,216,241264,1,8,0:0:0:0:
86,86,241431,1,0,0:0:0:0:
16,197,241597,1,0,0:0:0:0:
110,92,241764,1,2,0:0:0:0:
160,359,241931,5,0,0:0:0:0:
211,194,242097,1,8,0:0:0:0:
81,340,242264,1,2,0:0:0:0:
291,212,242431,1,0,0:0:0:0:
61,355,242597,1,8,0:0:0:0:
334,309,242764,1,2,0:0:0:0:
12,254,242931,2,0,P|32:200|81:169,1,100,0|2,0:0|0:0,0:0:0:0:
250,336,243264,6,0,P|186:337|123:216,1,200,2|0,0:0|0:0,0:0:0:0:
239,224,243764,1,2,0:0:0:0:
42,298,243931,2,0,P|33:212|114:132,1,200,8|0,0:0|0:0,0:0:0:0:
219,209,244431,1,2,0:0:0:0:
64,37,244597,5,0,0:0:0:0:
261,104,244764,1,8,0:0:0:0:
193,281,244931,1,2,0:0:0:0:
162,154,245097,1,0,0:0:0:0:
300,206,245264,1,8,0:0:0:0:
131,232,245431,1,2,0:0:0:0:
273,282,245597,1,0,0:0:0:0:
178,173,245764,1,0,0:0:0:0:
234,384,245931,6,0,P|332:378|388:276,1,200,4|0,0:0|0:0,0:0:0:0:
300,206,246431,1,2,0:0:0:0:
489,384,246597,2,0,P|496:316|380:231,1,200,8|2,0:0|0:0,0:0:0:0:
221,245,247097,6,0,P|194:176|213:129,1,100,2|0,0:0|0:0,0:0:0:0:
366,326,247431,1,8,0:0:0:0:
252,89,247597,2,0,L|353:80,1,100,2|10,0:0|0:0,0:0:0:0:
379,82,247847,1,8,0:0:0:0:
379,82,247931,1,8,0:0:0:0:
248,261,248097,1,2,0:0:0:0:
458,157,248264,1,2,0:0:0:0:
512,289,248431,1,2,0:0:0:0:
190,196,248597,6,0,B|236:156|289:184|289:184|344:212|403:174,1,200,4|0,0:0|0:0,0:0:0:0:
248,261,249097,1,2,0:0:0:0:
431,120,249264,2,0,P|463:187|444:241,1,100,8|0,0:0|0:0,0:0:0:0:
231,281,249597,1,0,0:0:0:0:
466,280,249764,1,2,0:0:0:0:
350,92,249931,5,0,0:0:0:0:
481,300,250097,2,0,P|506:244|495:187,1,100,8|2,0:0|0:0,0:0:0:0:
365,113,250431,1,0,0:0:0:0:
250,308,250597,2,0,P|348:305|416:232,1,200,8|0,0:0|0:0,0:0:0:0:
365,113,251097,1,2,0:0:0:0:
173,160,251264,6,0,P|196:207|242:233,1,100,2|0,0:0|0:0,0:0:0:0:
347,132,251597,1,0,0:0:0:0:
440,256,251764,1,2,0:0:0:0:
510,38,251931,2,0,B|464:-2|411:26|411:26|356:54|297:16,1,200,8|2,0:0|0:0,0:0:0:0:
452,106,252431,1,2,0:0:0:0:
267,152,252597,5,0,0:0:0:0:
477,288,252764,1,8,0:0:0:0:
380,125,252931,1,2,0:0:0:0:
310,264,253097,1,2,0:0:0:0:
287,76,253264,2,0,P|231:81|191:127,1,100,8|0,0:0|0:0,0:0:0:0:
403,137,253597,1,8,0:0:0:0:
202,22,253764,1,8,0:0:0:0:
449,232,253931,6,0,P|493:163|450:40,1,200,4|0,0:0|0:0,0:0:0:0:
222,36,254431,1,2,0:0:0:0:
403,137,254597,2,0,P|366:81|335:68,1,100,8|0,0:0|0:0,0:0:0:0:
226,161,254931,1,0,0:0:0:0:
386,0,255097,1,2,0:0:0:0:
226,161,255264,5,0,0:0:0:0:
29,13,255431,2,0,P|4:67|16:126,1,100,8|2,0:0|0:0,0:0:0:0:
141,196,255764,1,0,0:0:0:0:
260,5,255931,2,0,P|162:8|94:81,1,200,8|0,0:0|0:0,0:0:0:0:
127,214,256431,1,2,0:0:0:0:
337,153,256597,6,0,P|316:107|268:80,1,100,4|0,0:0|0:0,0:0:0:0:
197,222,256931,1,0,0:0:0:0:
70,57,257097,1,2,0:0:0:0:
0,284,257264,2,0,B|46:324|99:296|99:296|154:268|213:306,1,200,8|0,0:0|0:0,0:0:0:0:
58,207,257764,1,2,0:0:0:0:
331,384,257931,5,4,0:0:0:0:
307,151,258097,1,2,0:0:0:0:
182,349,258264,1,2,0:0:0:0:
388,106,258431,1,4,0:0:0:0:
268,313,258597,1,0,0:0:0:0:
265,72,258764,1,2,0:0:0:0:
288,230,258931,1,2,0:0:0:0:
466,0,259264,6,0,P|501:68|472:141,1,160,4|0,0:0|0:0,0:0:0:0:
355,62,259764,1,2,0:0:0:0:
512,201,259931,2,0,P|472:215|435:206,1,80,8|0,0:0|0:0,0:0:0:0:
262,203,260264,2,0,P|198:219|177:243,1,80,0|8,0:0|0:0,0:0:0:0:
313,95,260597,1,2,0:0:0:0:
382,245,260764,1,8,0:0:0:0:
382,245,260931,2,0,P|364:308|340:328,1,80,2|0,0:0|0:0,0:0:0:0:
124,208,261264,2,0,P|81:189|46:194,1,80,8|0,0:0|0:0,0:0:0:0:
81,369,261597,2,0,P|130:349|148:318,1,80,0|8,0:0|0:0,0:0:0:0:
44,126,261931,6,0,P|13:168|49:292,1,160,2|0,0:0|0:0,0:0:0:0:
154,95,262431,1,2,0:0:0:0:
241,272,262597,2,0,P|236:323|206:366,1,80,8|0,0:0|0:0,0:0:0:0:
123,211,262931,6,0,P|175:217|226:189,1,80,0|8,0:0|0:0,0:0:0:0:
224,85,263264,1,2,0:0:0:0:
39,134,263431,1,8,0:0:0:0:
39,134,263597,2,0,P|11:180|13:230,1,80,2|0,0:0|0:0,0:0:0:0:
167,328,263931,6,0,P|186:298|188:276,1,40,10|0,0:0|0:0,0:0:0:0:
38,342,264097,2,0,P|37:377|43:397,1,42.5000008106232,2|0,0:0|0:0,0:0:0:0:
191,322,264264,2,0,P|202:288|199:263,1,44.999998626709,2|0,0:0|0:0,0:0:0:0:
13,339,264431,2,0,P|19:373|32:396,1,47.4999987316132,2|0,0:0|0:0,0:0:0:0:
203,44,264597,1,6,0:0:0:0:
203,44,264931,5,2,0:0:0:0:
328,368,265097,1,4,0:0:0:0:
328,368,265431,5,2,0:0:0:0:
22,195,265597,1,2,0:0:0:0:
407,145,265764,1,2,0:0:0:0:
