osu file format v14

[General]
AudioFilename: audio.mp3
AudioLeadIn: 0
PreviewTime: -1
Countdown: 1
SampleSet: Normal
StackLeniency: 0.7
Mode: 0
LetterboxInBreaks: 0
WidescreenStoryboard: 0

[Editor]
DistanceSpacing: 1
BeatDivisor: 4
GridSize: 4
TimelineZoom: 0.5

[Metadata]
Title:HIDE-AND-SEEK
TitleUnicode:HIDE-AND-SEEK
Artist:Kenichi Suzumura
ArtistUnicode:Kenichi Suzumura
Creator:hashijou
Version:Easy
Source:
Tags:
BeatmapID:1385386
BeatmapSetID:653531

[Difficulty]
HPDrainRate:5
CircleSize:5
OverallDifficulty:5
ApproachRate:5
SliderMultiplier:1.5
SliderTickRate:3

[Events]
//Background and Video events
0,0,"handa sei & handa sensei.jpg",0,0
//Break Periods
2,31601,38014
//Storyboard Layer 0 (Background)
//Storyboard Layer 1 (Fail)
//Storyboard Layer 2 (Pass)
//Storyboard Layer 3 (Foreground)
//Storyboard Sound Samples

[TimingPoints]
272.087226904042,480.769230769231,4,1,0,100,1,0

[HitObjects]
52,104,7964,6,0,B|224:160|204:156,15,150
496,88,16137,1,0,0:0:0:0:
348,140,16618,1,0,0:0:0:0:
248,264,17099,1,0,0:0:0:0:
152,144,17579,1,0,0:0:0:0:
304,204,18180,1,0,0:0:0:0:
184,156,18661,1,0,0:0:0:0:
300,136,19022,1,0,0:0:0:0:
156,120,19502,1,0,0:0:0:0:
240,228,19983,1,0,0:0:0:0:
332,240,20464,1,0,0:0:0:0:
332,240,20945,1,0,0:0:0:0:
332,240,21425,1,0,0:0:0:0:
280,104,21906,1,0,0:0:0:0:
204,228,22387,1,0,0:0:0:0:
336,184,22868,1,0,0:0:0:0:
204,140,23349,1,0,0:0:0:0:
312,220,23829,1,0,0:0:0:0:
172,188,24310,1,0,0:0:0:0:
308,128,24791,1,0,0:0:0:0:
184,200,25272,1,0,0:0:0:0:
336,208,25752,1,0,0:0:0:0:
220,148,26233,1,0,0:0:0:0:
340,232,26714,1,0,0:0:0:0:
408,108,27195,1,0,0:0:0:0:
204,124,27796,2,0,B|400:56|208:184|288:216,1,187.5
256,192,28397,12,0,31401,0:0:0:0:
292,80,39214,5,10,0:0:0:0:
188,156,39695,1,10,0:0:0:0:
312,156,40175,1,10,0:0:0:0:
188,108,40656,1,10,0:0:0:0:
276,208,41137,1,10,0:0:0:0:
144,204,41618,1,10,0:0:0:0:
264,152,42099,1,0,0:0:0:0:
132,124,42579,1,0,0:0:0:0:
268,140,43060,1,0,0:0:0:0:
256,192,44623,12,0,46786,0:0:0:0:
236,108,47387,5,0,0:0:0:0:
344,188,47868,1,0,0:0:0:0:
212,184,48349,1,0,0:0:0:0:
420,196,50632,1,0,0:0:0:0:
116,268,51714,1,0,0:0:0:0:
92,0,52555,1,0,0:0:0:0:
320,220,53637,1,0,0:0:0:0:
36,92,54599,6,0,L|200:128,9,150
256,192,60368,12,0,62171,0:0:0:0:
152,144,62772,5,0,0:0:0:0:
288,160,63252,1,0,0:0:0:0:
260,280,63733,1,0,0:0:0:0:
84,88,64094,1,0,0:0:0:0:
224,120,64574,1,0,0:0:0:0:
100,228,65175,1,0,0:0:0:0:
220,196,65536,1,0,0:0:0:0:
152,44,66137,1,0,0:0:0:0:
256,116,66498,1,0,0:0:0:0:
164,248,66978,1,0,0:0:0:0:
316,216,67459,1,0,0:0:0:0:
160,160,68060,1,0,0:0:0:0:
280,168,68421,1,0,0:0:0:0:
124,192,68901,1,0,0:0:0:0:
288,192,69382,1,0,0:0:0:0:
152,116,69863,1,0,0:0:0:0:
292,168,70344,1,0,0:0:0:0:
136,212,70945,1,0,0:0:0:0:
244,184,71305,1,0,0:0:0:0:
128,84,71786,1,0,0:0:0:0:
272,128,72267,1,0,0:0:0:0:
140,200,72748,1,0,0:0:0:0:
292,216,73228,1,0,0:0:0:0:
160,280,73709,1,0,0:0:0:0:
264,172,74190,1,0,0:0:0:0:
184,300,74671,1,0,0:0:0:0:
124,164,75151,1,0,0:0:0:0:
272,172,75632,1,0,0:0:0:0:
140,244,76113,1,0,0:0:0:0:
284,228,76594,1,0,0:0:0:0:
180,124,77074,1,0,0:0:0:0:
328,156,77555,1,0,0:0:0:0:
180,196,78036,1,0,0:0:0:0:
320,132,78517,1,0,0:0:0:0:
176,104,78998,1,0,0:0:0:0:
72,200,79478,1,0,0:0:0:0:
228,184,79959,1,0,0:0:0:0:
244,40,80440,1,0,0:0:0:0:
360,136,80921,1,0,0:0:0:0:
256,236,81401,1,0,0:0:0:0:
148,144,81882,1,0,0:0:0:0:
64,268,82363,1,0,0:0:0:0:
12,136,82844,1,0,0:0:0:0:
256,192,83805,12,0,86690,0:0:0:0:
20,56,87171,5,0,0:0:0:0:
164,96,87651,1,0,0:0:0:0:
300,192,88252,1,0,0:0:0:0:
180,232,88613,1,0,0:0:0:0:
308,136,89094,1,0,0:0:0:0:
148,148,89574,1,0,0:0:0:0:
292,192,90055,1,0,0:0:0:0:
176,268,90536,1,0,0:0:0:0:
300,188,91017,1,0,0:0:0:0:
104,136,92459,2,0,L|176:140,12,37.5
240,148,94382,2,0,L|276:156,13,37.5
12,64,98709,1,0,0:0:0:0:
96,88,99070,1,0,0:0:0:0:
156,156,99430,1,0,0:0:0:0:
228,160,99671,1,0,0:0:0:0:
144,232,100031,1,0,0:0:0:0:
244,212,100392,1,0,0:0:0:0:
308,232,100632,1,0,0:0:0:0:
324,160,100873,1,0,0:0:0:0:
252,68,101233,1,0,0:0:0:0:
348,128,101594,1,0,0:0:0:0:
408,184,101834,1,0,0:0:0:0:
296,208,102195,1,0,0:0:0:0:
248,288,102555,1,0,0:0:0:0:
264,208,102796,1,0,0:0:0:0:
252,88,103156,1,0,0:0:0:0:
196,152,103397,1,0,0:0:0:0:
188,252,103757,1,0,0:0:0:0:
284,180,104118,1,0,0:0:0:0:
380,176,104478,1,0,0:0:0:0:
304,136,104719,1,0,0:0:0:0:
196,108,105079,1,0,0:0:0:0:
272,156,105440,1,0,0:0:0:0:
272,156,105680,1,0,0:0:0:0:
324,260,106041,1,0,0:0:0:0:
244,200,106401,1,0,0:0:0:0:
