osu file format v14

[General]
AudioFilename: audio.mp3
AudioLeadIn: 0
PreviewTime: 44269
Countdown: 0
SampleSet: Soft
StackLeniency: 0.8
Mode: 0
LetterboxInBreaks: 0
WidescreenStoryboard: 0

[Editor]
DistanceSpacing: 1
BeatDivisor: 8
GridSize: 16
TimelineZoom: 1

[Metadata]
Title:Mad Surfer (TV Size)
TitleUnicode:Mad Surfer (TV Size)
Artist:Kenichi Asai
ArtistUnicode:浅井健一
Creator:Bazz B
Version:Rebel
Source:BLEACH
Tags:-mikan mikan shikibe mayu shizuku- kazato asa hikan mocaotic evaotic anime jrock rock japanese ed ending 20
BeatmapID:2825224
BeatmapSetID:1365891

[Difficulty]
HPDrainRate:5
CircleSize:4.2
OverallDifficulty:8
ApproachRate:8
SliderMultiplier:1.6
SliderTickRate:1

[Events]
//Background and Video events
0,0,"bruburhbruhhh.png",0,0
Video,-1600,"no audio.mp4"
//Break Periods
//Storyboard Layer 0 (Background)
//Storyboard Layer 1 (Fail)
//Storyboard Layer 2 (Pass)
//Storyboard Layer 3 (Foreground)
//Storyboard Layer 4 (Overlay)
//Storyboard Sound Samples

[TimingPoints]
-1299,454.545454545455,4,2,1,46,1,0
64,-166.666666666667,4,2,1,46,0,0
519,-166.666666666667,4,2,1,56,0,0
1712,-166.666666666667,4,2,1,5,0,0
1882,-166.666666666667,4,2,1,56,0,0
1939,-166.666666666667,4,2,1,5,0,0
2110,-66.6666666666667,4,2,1,56,0,0
2791,-111.111111111111,4,2,1,56,0,0
4155,-100,4,2,1,76,0,1
7791,-100,4,2,1,76,0,0
8246,-100,4,2,1,56,0,0
9382,-83.3333333333333,4,2,1,56,0,0
10064,-133.333333333333,4,2,1,56,0,0
11201,-100,4,2,1,56,0,0
11882,-133.333333333333,4,2,1,56,0,0
13246,-100,4,2,1,76,0,1
16882,-66.6666666666667,4,2,1,76,0,0
17337,-100,4,2,1,66,0,0
20519,-83.3333333333333,4,2,1,66,0,0
20973,-100,4,2,1,66,0,0
24155,-66.6666666666667,4,2,1,66,0,0
24610,-100,4,2,1,66,0,0
31428,-100,4,2,1,86,0,1
43246,-76.9230769230769,4,2,1,86,0,1
43701,-66.6666666666667,4,2,1,96,0,1
44155,-66.6666666666667,4,2,1,100,0,0
45405,-66.6666666666667,4,2,1,46,0,0
45519,-166.666666666667,4,2,1,46,0,0
45973,-100,4,2,1,76,0,0
49610,-83.3333333333333,4,2,1,76,0,0
50064,-100,4,2,1,66,0,0
50746,-133.333333333333,4,2,1,66,0,0
50973,-100,4,2,1,66,0,0
53246,-66.6666666666667,4,2,1,66,0,0
53701,-100,4,2,1,66,0,0
56882,-66.6666666666667,4,2,1,66,0,0
57337,-100,4,2,1,66,0,0
60519,-76.9230769230769,4,2,1,66,0,0
60973,-100,4,2,1,66,0,0
63928,-90.9090909090909,4,2,1,66,0,0
65973,-100,4,2,1,86,0,1
69610,-66.6666666666667,4,2,1,86,0,1
70064,-100,4,2,1,86,0,1
78473,-66.6666666666667,4,2,1,86,0,1
78928,-83.3333333333333,4,2,1,96,0,1
80519,-55.5555555555556,4,2,1,86,0,1
80973,-100,4,2,1,86,0,1
81428,-66.6666666666667,4,2,1,86,0,1
82564,-100,4,2,1,86,0,1
83246,-76.9230769230769,4,2,1,86,0,1
84155,-66.6666666666667,4,2,1,76,0,1
85973,-66.6666666666667,4,2,1,96,0,1
87337,-58.8235294117647,4,2,1,100,0,1
87791,-50,4,2,1,100,0,0
88246,-50,4,2,1,5,0,0

[Colours]
Combo1 : 255,74,74
Combo2 : 128,0,64
Combo3 : 227,0,0

[HitObjects]
90,337,64,6,0,B|103:325|120:327|120:327|102:316|82:334,1,71.9999978027344,2|0,0:0|0:1,0:1:0:0:
3,341,519,5,2,0:1:0:0:
24,268,746,1,2,0:1:0:0:
0,188,973,5,2,0:1:0:0:
96,228,1201,1,2,0:1:0:0:
202,82,1428,5,2,0:1:0:0:
135,146,1655,2,0,B|137:157,1,11.9999996337891,2|0,0:1|0:0,0:0:0:0:
177,173,1882,2,0,L|176:184,1,11.9999996337891,0|0,0:1|0:0,0:0:0:0:
242,249,2110,6,2,B|255:230|290:232|290:232|293:223|293:223|241:208|194:251|220:263|180:300|139:290,1,240.000009155274,2|0,0:1|0:0,0:1:0:0:
360,365,2791,5,2,0:1:0:0:
398,244,3019,1,2,0:1:0:0:
492,322,3246,5,2,0:1:0:0:
508,348,3473,1,2,0:1:0:0:
491,373,3701,1,2,0:1:0:0:
399,291,3928,2,0,L|409:248,1,35.9999989013672,2|0,0:1|0:0,0:0:0:0:
481,59,4155,6,0,P|500:95|487:133,1,80,6|2,3:1|3:1,0:0:0:0:
317,211,4610,1,2,1:0:0:0:
389,4,4837,1,2,3:1:0:0:
387,143,5064,5,2,3:1:0:0:
182,53,5291,2,0,P|232:46|270:31,1,80,2|0,3:1|1:0,0:0:0:0:
128,272,5746,5,2,3:1:0:0:
128,272,5860,1,0,3:0:0:0:
128,272,5973,2,0,P|90:259|50:255,1,80,0|2,3:0|3:1,0:0:0:0:
202,145,6428,1,2,1:0:0:0:
232,236,6655,1,2,3:1:0:0:
205,326,6882,5,2,1:0:0:0:
380,151,7110,1,2,3:1:0:0:
485,280,7337,5,2,1:0:0:0:
311,65,7564,2,0,P|308:100|303:117,1,40,2|0,3:1|3:0,0:0:0:0:
342,217,7791,6,0,B|382:226|418:192|401:178|437:147|483:162,1,160,4|2,1:2|0:0,0:0:0:0:
485,172,8701,2,0,P|446:172|416:137,1,80,2|2,0:0|0:0,0:0:0:0:
423,66,9155,1,0,0:0:0:0:
267,23,9382,6,0,B|230:34|199:13|199:13|199:9|199:9|120:44|137:116,1,191.999994140625,2|2,0:0|0:0,0:0:0:0:
200,174,10064,2,0,L|266:187,1,60.0000022888184,2|2,0:0|0:0,0:0:0:0:
144,106,10519,5,2,0:0:0:0:
67,234,10746,2,0,P|61:197|48:167,1,60.0000022888184,2|0,0:0|0:0,0:0:0:0:
155,310,11201,6,0,B|190:309|230:294|230:294|239:297|239:297|250:341|292:345,1,160,2|2,0:0|0:0,0:0:0:0:
356,305,11882,1,2,0:0:0:0:
432,368,12110,5,2,0:0:0:0:
483,304,12337,2,0,P|477:275|469:239,1,60.0000022888184,2|2,0:0|0:0,0:0:0:0:
502,313,12791,5,2,0:0:0:0:
400,208,13019,1,2,0:0:0:0:
260,384,13246,6,0,P|267:331|275:293,1,80,6|2,3:1|3:1,0:0:0:0:
90,142,13701,1,2,1:0:0:0:
150,319,13928,1,2,3:1:0:0:
162,193,14155,5,2,3:1:0:0:
0,361,14382,2,0,P|53:372|80:383,1,80,2|0,3:1|1:0,0:0:0:0:
345,284,14837,5,2,3:1:0:0:
345,284,14951,1,0,1:0:0:0:
345,284,15064,2,0,L|255:297,1,80,0|2,3:0|3:1,0:0:0:0:
449,145,15519,1,2,1:0:0:0:
411,217,15746,1,2,3:1:0:0:
454,288,15973,5,2,1:0:0:0:
295,124,16201,1,2,3:1:0:0:
201,260,16428,5,2,1:0:0:0:
380,62,16655,2,0,P|374:81|371:101,1,40,2|0,3:1|3:0,0:0:0:0:
303,226,16882,6,0,B|263:209|232:182|232:182|161:202|196:259,1,180.000006866455,4|0,3:2|0:0,0:0:0:0:
201,260,17337,2,0,B|194:222|194:222|197:218|197:218|191:181,1,80,2|0,1:2|0:0,0:0:0:0:
125,95,17791,1,2,3:2:0:0:
56,136,18019,1,0,3:0:0:0:
5,77,18246,5,0,1:0:0:0:
180,184,18473,2,0,B|139:169|94:203|117:222|77:255|31:241,1,160,2|2,3:2|3:2,0:0:0:0:
233,96,19155,6,0,B|263:123|263:123|318:109,1,80,2|2,1:2|0:0,0:0:0:0:
287,36,19610,1,2,3:2:0:0:
394,135,19837,1,2,3:2:0:0:
336,189,20064,5,0,1:0:0:0:
504,76,20291,2,0,P|496:99|492:121,1,40,2|0,3:0|0:0,0:0:0:0:
493,115,20519,6,0,B|437:102|437:102|414:77|414:77|356:62,1,143.999995605469,2|0,3:2|0:0,0:0:0:0:
440,210,20973,2,0,B|477:223|477:223|521:198,1,80,2|2,1:2|0:0,0:0:0:0:
392,383,21428,1,2,3:2:0:0:
329,337,21655,1,2,3:2:0:0:
252,360,21882,5,2,1:2:0:0:
382,281,22110,2,0,B|298:282|334:354|232:353,1,160,2|0,3:2|3:0,0:0:0:0:
135,259,22791,6,0,B|129:224|129:224|124:220|124:220|113:166,1,80,2|0,1:2|0:0,0:0:0:0:
211,203,23246,1,2,3:2:0:0:
85,325,23473,1,2,3:2:0:0:
13,280,23701,5,0,1:0:0:0:
159,381,23928,2,0,L|208:372,1,40,2|0,3:0|0:0,0:0:0:0:
143,267,24155,6,0,B|101:266|62:292|62:292|19:270|19:219|70:207,1,180.000006866455,4|0,3:2|0:0,0:0:0:0:
18,120,24610,2,0,B|51:130|51:130|54:137|54:137|91:148,1,80,2|2,1:2|0:0,0:0:0:0:
250,50,25064,1,2,3:2:0:0:
188,0,25291,1,0,3:0:0:0:
114,30,25519,5,0,1:0:0:0:
200,118,25746,2,0,B|247:131|276:86|265:82|304:52|350:74,1,160,2|0,3:2|3:0,0:0:0:0:
448,175,26428,6,0,B|408:187|408:187|368:157,1,80,2|2,1:2|0:0,0:0:0:0:
425,100,26882,1,2,3:2:0:0:
317,237,27110,1,0,3:0:0:0:
243,200,27337,5,0,1:0:0:0:
379,345,27564,2,0,L|369:302,1,40,2|0,3:0|0:0,0:0:0:0:
377,292,27791,6,0,B|405:292|424:287|424:287|431:290|431:290|448:337|508:335,1,120,0|0,3:0|0:0,0:0:0:0:
302,368,28246,2,0,B|264:378|264:378|259:375|259:375|218:386,1,80,2|2,1:2|0:0,0:0:0:0:
33,249,28701,5,2,3:2:0:0:
140,322,28928,1,2,3:2:0:0:
229,201,29155,5,2,1:2:0:0:
39,379,29382,2,0,P|24:342|28:322,1,40,2|0,3:0|0:0,0:0:0:0:
45,262,29610,5,2,3:1:0:0:
45,262,31428,6,0,P|88:276|111:279,1,40,6|0,3:1|0:0,0:0:0:0:
146,333,31655,1,2,0:0:0:0:
335,155,31882,1,8,1:0:0:0:
252,89,32110,5,2,3:1:0:0:
241,95,32223,1,0,3:0:0:0:
231,101,32337,2,0,P|242:150|243:160,1,40,2|0,3:2|0:0,0:0:0:0:
164,162,32564,2,0,P|160:142|154:123,1,40,2|0,3:2|0:0,0:0:0:0:
299,318,32791,5,10,1:0:0:0:
451,240,33019,2,0,B|368:238|398:306|298:307,1,160,10|2,3:0|3:2,0:0:0:0:
242,229,33587,1,0,3:0:0:0:
253,222,33701,2,0,P|282:230|302:233,1,40,10|0,1:0|0:0,0:0:0:0:
462,101,33928,5,2,3:2:0:0:
350,66,34155,2,0,P|360:110|361:122,1,40,2|0,3:1|0:0,0:0:0:0:
440,90,34382,2,0,P|430:46|429:34,1,40,2|0,3:2|0:0,0:0:0:0:
493,0,34610,5,8,1:0:0:0:
285,166,34837,1,2,3:2:0:0:
288,177,34951,1,0,3:0:0:0:
291,187,35064,2,0,P|250:221|177:199,1,120,6|0,3:1|0:0,0:0:0:0:
107,228,35519,6,0,P|113:182|113:173,1,40,10|0,1:0|0:0,0:0:0:0:
0,88,35746,1,2,3:2:0:0:
5,99,35860,1,0,3:0:0:0:
11,109,35973,2,0,P|30:111|50:115,1,40,2|0,3:2|0:0,0:0:0:0:
71,28,36201,2,0,P|52:26|32:22,1,40,2|0,3:1|0:0,0:0:0:0:
161,107,36428,5,8,1:0:0:0:
16,194,36655,2,0,B|103:186|67:124|164:124,1,160,10|2,3:0|3:2,0:0:0:0:
222,162,37223,1,0,3:0:0:0:
232,170,37337,2,0,L|222:214,1,40,10|0,1:0|0:0,0:0:0:0:
390,357,37564,5,2,3:2:0:0:
321,267,37791,2,0,P|356:263|381:256,1,40,2|0,3:2|0:0,0:0:0:0:
373,342,38019,2,0,P|338:346|313:353,1,40,2|0,3:2|0:0,0:0:0:0:
409,193,38246,1,10,1:0:0:0:
430,216,38360,1,4,3:0:0:0:
459,226,38473,1,4,3:0:0:0:
490,226,38587,1,4,3:0:0:0:
512,214,38701,6,0,P|501:173|499:157,1,40,6|0,3:1|0:0,0:0:0:0:
512,93,38928,1,2,0:0:0:0:
322,164,39155,1,8,1:0:0:0:
328,14,39382,5,2,3:1:0:0:
339,20,39495,1,0,3:0:0:0:
349,26,39609,2,0,P|338:75|337:85,1,40,2|0,3:2|0:0,0:0:0:0:
416,87,39836,2,0,P|420:67|426:48,1,40,2|0,3:2|0:0,0:0:0:0:
188,209,40064,5,10,1:0:0:0:
258,141,40291,2,0,B|220:145|185:127|185:127|131:171|177:206,1,160,10|2,3:0|3:2,0:0:0:0:
263,276,40860,1,0,3:0:0:0:
272,270,40973,2,0,P|265:233|264:213,1,40,10|0,1:0|0:0,0:0:0:0:
61,378,41201,5,2,3:2:0:0:
144,295,41428,2,0,P|113:290|89:283,1,40,2|0,3:1|0:0,0:0:0:0:
85,367,41655,2,0,P|116:372|140:379,1,40,2|0,3:2|0:0,0:0:0:0:
27,201,41882,5,8,1:0:0:0:
216,347,42110,1,2,3:2:0:0:
222,337,42223,1,0,3:0:0:0:
228,328,42337,2,0,B|299:325|274:366|343:366,1,120,6|0,3:1|0:0,0:0:0:0:
411,384,42791,2,0,L|418:344,1,40,10|0,1:0|0:0,0:0:0:0:
300,223,43019,5,2,3:2:0:0:
303,230,43132,1,0,3:0:0:0:
306,237,43246,2,0,P|267:255|237:254,1,51.999997619629,2|0,3:2|0:0,0:0:0:0:
465,154,43473,2,0,L|521:168,1,51.999997619629,2|0,3:1|0:0,0:0:0:0:
348,31,43701,6,0,L|364:101,1,60.0000022888184,8|0,1:0|0:0,0:0:0:0:
425,348,43928,2,0,L|409:278,1,60.0000022888184,6|0,3:0|0:0,0:0:0:0:
386,192,44155,5,4,3:2:0:0:
386,192,45405,1,2,0:0:0:0:
386,192,45519,2,0,B|373:180|356:182|356:182|374:171|394:189,1,71.9999978027344,2|0,0:0|0:0,0:0:0:0:
494,257,45973,6,0,P|445:256|413:300,1,80,6|2,3:1|3:1,0:0:0:0:
257,91,46428,1,2,1:0:0:0:
459,161,46655,1,2,3:1:0:0:
456,153,46769,1,0,0:0:0:0:
453,145,46882,5,2,3:1:0:0:
241,329,47110,2,0,B|246:288|246:288|248:285|248:285|252:250,1,80,2|0,3:1|1:0,0:0:0:0:
93,59,47564,5,2,3:1:0:0:
85,59,47678,1,0,1:0:0:0:
78,60,47791,2,0,P|51:114|66:143,1,80,0|2,3:0|3:1,0:0:0:0:
169,236,48246,1,2,1:0:0:0:
143,154,48473,1,2,3:1:0:0:
199,85,48701,5,2,1:0:0:0:
43,238,48928,1,2,3:1:0:0:
211,350,49155,5,2,1:0:0:0:
38,153,49382,2,0,P|-5:170|-17:172,1,40,2|0,3:1|3:0,0:0:0:0:
163,245,49610,6,0,B|190:242|221:215|221:215|231:218|231:218|246:262|281:280,1,143.999995605469,4|0,3:2|0:0,0:0:0:0:
274,287,50064,2,0,P|327:274|341:241,1,80,2|0,1:2|0:0,0:0:0:0:
506,384,50519,1,2,3:2:0:0:
444,323,50746,2,0,L|434:367,1,30.0000011444092,0|0,3:0|0:0,0:0:0:0:
362,354,50973,5,0,1:0:0:0:
512,275,51201,2,0,B|423:282|460:342|351:339,1,160,2|2,3:2|3:2,0:0:0:0:
218,198,51882,6,0,B|249:168|249:168|299:182,1,80,2|2,1:2|0:0,0:0:0:0:
296,193,52223,1,0,0:0:0:0:
296,193,52337,1,2,3:2:0:0:
377,75,52564,1,2,3:2:0:0:
314,15,52791,5,0,1:0:0:0:
456,152,53019,2,0,L|495:143,1,40,2|0,3:0|0:0,0:0:0:0:
502,132,53246,6,0,B|457:124|435:86|435:86|420:100|420:100|411:149|372:163,1,180.000006866455,2|0,3:2|0:0,0:0:0:0:
312,93,53701,2,0,P|288:53|304:22,1,80,2|0,1:2|0:0,0:0:0:0:
207,175,54155,1,2,3:2:0:0:
153,237,54382,1,2,3:2:0:0:
75,199,54610,5,2,1:2:0:0:
234,275,54837,2,0,B|187:248|144:295|144:295|129:343|71:330,1,160,2|0,3:2|3:0,0:0:0:0:
299,203,55519,6,0,L|393:232,1,80,2|0,1:2|0:0,0:0:0:0:
382,223,55860,1,0,0:0:0:0:
389,217,55973,2,0,P|382:180|382:168,1,40,2|0,3:2|0:0,0:0:0:0:
238,83,56201,1,2,3:2:0:0:
310,24,56428,5,0,1:0:0:0:
184,155,56655,2,0,P|132:146|124:147,1,40,2|0,3:0|0:0,0:0:0:0:
0,76,56882,6,0,P|-14:49|74:55,1,180.000006866455,4|0,3:2|0:0,0:0:0:0:
86,43,57337,2,0,B|78:84|78:84|79:89|79:89|67:146,1,80,2|2,1:2|0:0,0:0:0:0:
198,293,57791,1,2,3:2:0:0:
135,237,58019,1,0,3:0:0:0:
176,163,58246,5,0,1:0:0:0:
0,271,58473,2,0,B|93:272|47:341|144:341,1,160,2|0,3:2|3:0,0:0:0:0:
314,208,59155,6,0,B|272:197|272:197|229:237,1,80,2|2,1:2|0:0,0:0:0:0:
243,243,59496,1,0,0:0:0:0:
243,243,59610,2,0,P|259:286|260:297,1,40,2|0,3:2|0:0,0:0:0:0:
417,328,59837,1,0,3:0:0:0:
351,384,60064,5,0,1:0:0:0:
465,233,60291,2,0,P|490:242|517:247,1,40,2|0,3:0|0:0,0:0:0:0:
503,244,60519,6,0,B|414:234|440:306|359:300,1,155.999992858887,0|0,3:0|0:0,0:0:0:0:
322,215,60973,2,0,P|298:190|319:134,1,80,2|2,1:2|0:0,0:0:0:0:
438,60,61428,5,2,3:2:0:0:
390,157,61655,1,2,3:2:0:0:
365,0,61882,5,2,1:2:0:0:
475,132,62110,2,0,P|506:122|529:120,1,40,2|0,3:0|0:0,0:0:0:0:
329,212,62337,6,0,P|257:195|230:196,1,80,2|2,3:1|3:1,0:0:0:0:
244,201,62678,1,0,0:0:0:0:
237,208,62791,2,0,L|249:252,1,40,2|0,1:0|0:0,0:0:0:0:
111,381,63019,1,2,0:1:0:0:
0,226,63246,5,2,1:0:0:0:
74,286,63473,1,4,3:0:0:0:
164,258,63701,1,8,3:0:0:0:
10,353,63928,6,0,B|50:336|81:309|81:309|152:329|116:384,1,176.000005371094,2|0,3:1|0:0,0:0:0:0:
111,381,65973,6,0,P|107:346|98:325,1,40,6|0,3:1|0:0,0:0:0:0:
43,279,66201,1,2,0:0:0:0:
212,132,66428,1,8,1:0:0:0:
281,201,66655,5,2,3:1:0:0:
275,212,66768,1,0,3:0:0:0:
269,222,66882,2,0,P|220:211|210:210,1,40,2|0,3:2|0:0,0:0:0:0:
208,289,67109,2,0,P|228:293|247:299,1,40,2|0,3:2|0:0,0:0:0:0:
83,122,67337,5,10,1:0:0:0:
232,62,67564,2,0,B|143:67|180:137|69:135,1,160,10|2,3:0|3:2,0:0:0:0:
25,74,68132,1,0,3:0:0:0:
17,66,68246,2,0,P|9:25|0:9,1,40,10|0,1:0|0:0,0:0:0:0:
211,219,68473,5,2,3:2:0:0:
100,253,68701,2,0,P|108:227|112:198,1,40,2|0,3:1|0:0,0:0:0:0:
188,237,68928,2,0,P|180:263|176:292,1,40,2|0,3:2|0:0,0:0:0:0:
276,379,69155,5,8,1:0:0:0:
465,296,69382,1,2,3:2:0:0:
461,286,69496,1,0,3:0:0:0:
457,275,69610,2,0,B|405:279|371:302|371:302|338:288|326:242|365:228,1,180.000006866455,6|0,3:1|0:0,0:0:0:0:
424,192,70064,6,0,P|418:168|400:123,1,40,10|0,1:0|0:0,0:0:0:0:
435,3,70291,1,2,3:2:0:0:
442,12,70405,1,0,3:0:0:0:
448,22,70519,2,0,P|472:16|517:-2,1,40,2|0,3:2|0:0,0:0:0:0:
512,86,70746,2,0,P|488:92|443:110,1,40,2|0,3:1|0:0,0:0:0:0:
305,0,70973,5,8,1:0:0:0:
207,55,71201,2,0,B|245:49|267:29|267:29|284:35|284:35|285:81|326:96,1,160,10|2,3:0|3:2,0:0:0:0:
377,152,71769,1,0,3:0:0:0:
390,149,71882,2,0,P|396:122|403:101,1,40,10|0,1:0|0:0,0:0:0:0:
224,268,72110,5,2,3:2:0:0:
218,259,72223,1,0,1:0:0:0:
213,249,72337,2,0,P|240:256|261:262,1,40,2|0,3:2|0:0,0:0:0:0:
274,176,72564,2,0,P|247:169|226:163,1,40,2|0,3:2|0:0,0:0:0:0:
317,328,72791,1,10,1:0:0:0:
339,294,72905,1,4,3:0:0:0:
376,280,73019,1,4,3:0:0:0:
415,285,73132,1,4,3:0:0:0:
448,307,73246,6,0,P|442:354|443:367,1,40,6|0,3:1|0:0,0:0:0:0:
512,384,73473,1,2,0:0:0:0:
296,167,73701,1,4,1:2:0:0:
413,154,73928,5,2,3:1:0:0:
402,160,74041,1,0,3:0:0:0:
392,167,74155,2,0,P|376:122|368:111,1,40,2|0,3:2|0:0,0:0:0:0:
475,101,74382,2,0,P|491:146|499:157,1,40,2|0,3:2|0:0,0:0:0:0:
304,20,74610,5,10,1:0:0:0:
160,112,74837,2,0,B|246:109|205:40|313:36,1,160,10|2,3:0|3:2,0:0:0:0:
382,107,75405,1,0,3:0:0:0:
376,115,75519,2,0,P|324:101|310:102,1,40,10|0,1:0|0:0,0:0:0:0:
101,0,75746,5,2,3:2:0:0:
24,86,75973,2,0,P|10:44|3:29,1,40,2|0,3:1|0:0,0:0:0:0:
93,20,76201,2,0,P|107:62|114:77,1,40,2|0,3:2|0:0,0:0:0:0:
0,191,76428,5,8,1:0:0:0:
137,373,76655,1,2,3:2:0:0:
147,366,76769,1,0,3:0:0:0:
158,360,76882,2,0,L|181:234,1,120,6|0,3:1|0:0,0:0:0:0:
107,207,77337,6,0,P|100:250|96:264,1,40,10|0,1:0|0:0,0:0:0:0:
259,346,77564,1,2,3:2:0:0:
265,356,77678,1,0,3:0:0:0:
271,365,77791,2,0,P|314:357|324:356,1,40,2|0,3:2|0:0,0:0:0:0:
294,268,78019,2,0,P|251:276|241:277,1,40,2|0,3:1|0:0,0:0:0:0:
512,384,78246,5,8,1:0:0:0:
366,307,78473,2,0,B|396:305|424:289|424:289|441:296|441:296|446:358|516:369,1,180.000006866455,6|0,3:1|0:0,0:0:0:0:
512,244,78928,6,0,B|486:241|486:241|466:262,1,47.9999985351563,2|0,3:2|0:0,0:0:0:0:
345,177,79155,2,0,L|406:190,1,47.9999985351563,10|0,1:0|0:0,0:0:0:0:
486,97,79382,5,0,3:0:0:0:
498,89,79496,1,0,3:0:0:0:
511,83,79610,2,0,P|502:35|502:21,1,47.9999985351563,2|0,3:2|0:0,0:0:0:0:
402,50,79837,2,0,P|411:98|411:112,1,47.9999985351563,2|0,3:2|0:0,0:0:0:0:
301,262,80064,5,10,1:0:0:0:
157,204,80291,1,0,3:0:0:0:
161,212,80405,1,0,3:0:0:0:
164,221,80519,2,0,B|204:266|328:267|291:125|222:173,1,215.999993408203,4|0,3:1|0:0,0:0:0:0:
237,178,80973,6,0,B|230:215|230:215|233:219|233:219|224:266,1,80,8|0,1:0|3:0,0:0:0:0:
97,364,81314,1,0,3:0:0:0:
86,372,81428,2,0,P|36:354|17:351,1,60.0000022888184,2|0,3:1|0:0,0:0:0:0:
59,274,81655,2,0,P|109:292|128:295,1,60.0000022888184,2|0,3:2|0:0,0:0:0:0:
264,375,81882,5,8,1:0:0:0:
432,280,82110,2,0,B|338:279|381:364|239:362,1,180.000006866455,6|0,3:2|0:0,0:0:0:0:
222,304,82564,2,0,P|214:275|205:247,1,40,2|0,3:1|0:0,0:0:0:0:
383,88,82791,2,0,L|363:186,1,80,10|0,1:0|3:0,0:0:0:0:
294,162,83132,5,0,1:0:0:0:
286,170,83246,2,0,P|253:178|228:161,1,51.999997619629,2|0,3:1|0:0,0:0:0:0:
427,291,83473,2,0,P|434:263|444:236,1,51.999997619629,2|0,3:1|0:0,0:0:0:0:
267,377,83701,5,10,1:0:0:0:
21,253,83928,1,0,3:0:0:0:
25,263,84041,1,0,3:0:0:0:
28,273,84155,2,0,B|66:276|117:296|117:296|155:265|135:218|86:210,1,180.000006866455,4|0,3:1|0:0,0:0:0:0:
58,165,84610,5,10,1:0:0:0:
131,99,84837,1,2,1:0:0:0:
127,87,84951,1,0,1:0:0:0:
123,75,85064,1,2,3:1:0:0:
49,31,85291,5,2,3:1:0:0:
197,154,85519,1,10,1:0:0:0:
299,70,85746,6,0,P|246:86|231:87,1,60.0000022888184,2|0,3:1|0:0,0:0:0:0:
371,184,85973,1,6,3:1:0:0:
301,234,86201,5,2,3:1:0:0:
457,64,86428,1,10,1:0:0:0:
377,0,86655,5,2,3:1:0:0:
380,11,86769,1,0,3:0:0:0:
384,25,86882,2,0,P|418:40|445:46,1,60.0000022888184,10|0,1:0|0:0,0:0:0:0:
207,165,87110,2,0,P|178:172|150:185,1,60.0000022888184,2|0,3:1|0:0,0:0:0:0:
367,379,87337,6,0,B|376:345|376:345|352:296,1,68.0000012969971,10|0,1:0|0:0,0:0:0:0:
300,58,87564,2,0,B|288:93|288:93|315:141,1,68.0000012969971,8|0,3:0|0:0,0:0:0:0:
467,280,87791,6,2,B|364:300|318:219|362:206|279:103|175:171,1,320,4|0,1:0|0:0,0:1:0:0:
