osu file format v14

[General]
AudioFilename: audio.mp3
AudioLeadIn: 0
PreviewTime: 15905
Countdown: 0
SampleSet: Normal
StackLeniency: 0.7
Mode: 1
LetterboxInBreaks: 0
WidescreenStoryboard: 0

[Editor]
Bookmarks: 15780,16030,16280,31780,32030,32280,63780,64030,64280,79780,80030,80280,111780,112030,112280,127780,128030,128280,144030,160030,176030,191780,192030,192280,207780,208030,208280
DistanceSpacing: 0.1
BeatDivisor: 4
GridSize: 32
TimelineZoom: 1.2

[Metadata]
Title:untitled 08 | 09.06.2014.
TitleUnicode:untitled 08 | 09.06.2014.
Artist:Kendrick Lamar
ArtistUnicode:Kendrick Lamar
Creator:Kqrth
Version:Muzukashii
Source:
Tags:english hiphop hip-hop west coast rap untitled unmastered. why so sad blue faces genjuro
BeatmapID:2325507
BeatmapSetID:1105251

[Difficulty]
HPDrainRate:6
CircleSize:2
OverallDifficulty:3.5
ApproachRate:10
SliderMultiplier:1.4
SliderTickRate:1

[Events]
//Background and Video events
0,0,"bg.jpg",0,0
//Break Periods
2,176530,189530
//Storyboard Layer 0 (Background)
//Storyboard Layer 1 (Fail)
//Storyboard Layer 2 (Pass)
//Storyboard Layer 3 (Foreground)
//Storyboard Layer 4 (Overlay)
//Storyboard Sound Samples

[TimingPoints]
30,500,4,1,0,60,1,0
159905,-100,4,1,0,65,0,0
160030,-100,4,1,0,65,0,1
174905,-100,4,1,0,60,0,1
175030,-100,4,1,0,60,0,0
176155,-133.333333333333,4,1,0,5,0,0
191905,-100,4,1,0,60,0,0

[HitObjects]
256,192,16030,5,0,0:0:0:0:
256,192,16530,1,8,0:0:0:0:
256,192,16780,1,8,0:0:0:0:
256,192,17030,1,0,0:0:0:0:
256,192,17530,1,8,0:0:0:0:
256,192,18030,1,0,0:0:0:0:
256,192,18280,1,8,0:0:0:0:
256,192,18405,1,8,0:0:0:0:
256,192,18780,1,0,0:0:0:0:
256,192,19280,1,8,0:0:0:0:
256,192,19530,1,8,0:0:0:0:
256,192,19780,1,8,0:0:0:0:
256,192,20530,1,8,0:0:0:0:
256,192,21030,1,0,0:0:0:0:
256,192,21280,1,8,0:0:0:0:
256,192,21405,1,8,0:0:0:0:
256,192,21780,1,0,0:0:0:0:
256,192,22030,1,8,0:0:0:0:
256,192,22280,1,8,0:0:0:0:
256,192,22405,1,8,0:0:0:0:
256,192,22780,1,0,0:0:0:0:
256,192,23280,1,8,0:0:0:0:
256,192,23530,1,8,0:0:0:0:
256,192,23780,1,8,0:0:0:0:
256,192,24530,1,8,0:0:0:0:
256,192,24780,1,0,0:0:0:0:
256,192,25030,1,8,0:0:0:0:
256,192,25280,1,8,0:0:0:0:
256,192,25405,1,8,0:0:0:0:
256,192,25780,1,0,0:0:0:0:
256,192,25905,1,0,0:0:0:0:
256,192,26155,1,8,0:0:0:0:
256,192,26530,1,8,0:0:0:0:
256,192,26780,1,0,0:0:0:0:
256,192,27280,1,8,0:0:0:0:
256,192,27530,1,8,0:0:0:0:
256,192,27780,1,8,0:0:0:0:
256,192,28530,1,8,0:0:0:0:
256,192,28905,1,0,0:0:0:0:
256,192,29155,1,0,0:0:0:0:
256,192,29280,1,0,0:0:0:0:
256,192,29530,1,8,0:0:0:0:
256,192,32030,1,0,0:0:0:0:
256,192,32530,1,8,0:0:0:0:
256,192,32780,1,0,0:0:0:0:
256,192,32905,1,0,0:0:0:0:
256,192,33280,1,8,0:0:0:0:
256,192,34030,1,0,0:0:0:0:
256,192,34280,1,0,0:0:0:0:
256,192,34530,1,8,0:0:0:0:
256,192,34780,1,0,0:0:0:0:
256,192,34905,1,0,0:0:0:0:
256,192,35280,1,0,0:0:0:0:
256,192,35530,1,8,0:0:0:0:
256,192,35905,1,0,0:0:0:0:
256,192,36280,1,0,0:0:0:0:
256,192,36530,1,8,0:0:0:0:
256,192,37280,1,0,0:0:0:0:
256,192,37530,1,8,0:0:0:0:
256,192,38030,1,0,0:0:0:0:
256,192,38280,1,0,0:0:0:0:
256,192,38530,1,8,0:0:0:0:
256,192,38780,1,0,0:0:0:0:
256,192,38905,1,0,0:0:0:0:
256,192,39280,1,8,0:0:0:0:
256,192,39530,1,8,0:0:0:0:
256,192,39780,1,0,0:0:0:0:
256,192,39905,1,0,0:0:0:0:
256,192,40030,1,0,0:0:0:0:
256,192,40280,1,8,0:0:0:0:
256,192,40780,1,0,0:0:0:0:
256,192,41030,1,0,0:0:0:0:
256,192,41280,1,8,0:0:0:0:
256,192,41405,1,8,0:0:0:0:
256,192,41530,1,8,0:0:0:0:
256,192,41780,1,0,0:0:0:0:
256,192,42155,1,0,0:0:0:0:
256,192,42280,1,0,0:0:0:0:
256,192,42530,1,8,0:0:0:0:
256,192,42780,1,0,0:0:0:0:
256,192,43030,1,0,0:0:0:0:
256,192,43780,1,8,0:0:0:0:
256,192,44030,1,0,0:0:0:0:
256,192,44280,1,0,0:0:0:0:
256,192,44405,1,0,0:0:0:0:
256,192,44530,1,0,0:0:0:0:
256,192,44780,1,8,0:0:0:0:
256,192,45280,1,0,0:0:0:0:
256,192,45405,1,0,0:0:0:0:
256,192,45530,1,0,0:0:0:0:
256,192,45780,1,8,0:0:0:0:
256,192,46280,1,0,0:0:0:0:
256,192,46530,1,8,0:0:0:0:
256,192,46780,1,8,0:0:0:0:
256,192,47030,1,0,0:0:0:0:
256,192,47530,1,8,0:0:0:0:
256,192,47905,1,0,0:0:0:0:
256,192,48280,1,0,0:0:0:0:
256,192,48530,1,8,0:0:0:0:
256,192,49280,1,8,0:0:0:0:
256,192,49530,1,8,0:0:0:0:
256,192,49905,1,0,0:0:0:0:
256,192,50155,1,0,0:0:0:0:
256,192,50280,1,0,0:0:0:0:
256,192,50530,1,8,0:0:0:0:
256,192,51280,1,8,0:0:0:0:
256,192,51530,1,8,0:0:0:0:
256,192,51780,1,0,0:0:0:0:
256,192,51905,1,0,0:0:0:0:
256,192,52280,1,0,0:0:0:0:
256,192,52530,1,8,0:0:0:0:
256,192,52905,1,0,0:0:0:0:
256,192,53280,5,8,0:0:0:0:
256,192,53405,1,8,0:0:0:0:
256,192,53530,1,8,0:0:0:0:
256,192,53780,1,8,0:0:0:0:
256,192,54030,1,0,0:0:0:0:
256,192,54280,1,0,0:0:0:0:
256,192,54530,1,8,0:0:0:0:
256,192,54905,1,0,0:0:0:0:
256,192,55280,1,0,0:0:0:0:
256,192,55530,1,8,0:0:0:0:
256,192,55905,1,0,0:0:0:0:
256,192,56280,1,8,0:0:0:0:
256,192,56530,1,8,0:0:0:0:
256,192,56780,1,0,0:0:0:0:
256,192,56905,1,0,0:0:0:0:
256,192,57280,1,0,0:0:0:0:
256,192,57530,1,8,0:0:0:0:
256,192,58030,1,0,0:0:0:0:
256,192,58530,1,8,0:0:0:0:
256,192,58780,1,0,0:0:0:0:
256,192,58905,1,0,0:0:0:0:
256,192,59155,1,8,0:0:0:0:
256,192,59280,1,8,0:0:0:0:
256,192,59530,1,0,0:0:0:0:
256,192,60030,1,0,0:0:0:0:
256,192,60280,1,8,0:0:0:0:
256,192,60530,1,0,0:0:0:0:
256,192,60780,1,8,0:0:0:0:
256,192,61280,1,8,0:0:0:0:
256,192,61405,1,8,0:0:0:0:
256,192,61530,1,8,0:0:0:0:
256,192,61780,1,8,0:0:0:0:
256,192,62030,1,0,0:0:0:0:
256,192,62280,1,0,0:0:0:0:
256,192,62530,1,8,0:0:0:0:
256,192,63030,1,0,0:0:0:0:
256,192,64030,5,0,0:0:0:0:
256,192,64530,1,8,0:0:0:0:
256,192,64780,1,8,0:0:0:0:
256,192,65030,1,0,0:0:0:0:
256,192,65530,1,8,0:0:0:0:
256,192,66030,1,0,0:0:0:0:
256,192,66280,1,8,0:0:0:0:
256,192,66405,1,8,0:0:0:0:
256,192,66780,1,0,0:0:0:0:
256,192,67280,1,8,0:0:0:0:
256,192,67530,1,8,0:0:0:0:
256,192,67780,1,8,0:0:0:0:
256,192,68530,1,8,0:0:0:0:
256,192,69030,1,0,0:0:0:0:
256,192,69280,1,8,0:0:0:0:
256,192,69405,1,8,0:0:0:0:
256,192,69780,1,0,0:0:0:0:
256,192,70030,1,8,0:0:0:0:
256,192,70280,1,8,0:0:0:0:
256,192,70405,1,8,0:0:0:0:
256,192,70780,1,0,0:0:0:0:
256,192,71280,1,8,0:0:0:0:
256,192,71530,1,8,0:0:0:0:
256,192,71780,1,8,0:0:0:0:
256,192,72530,1,8,0:0:0:0:
256,192,72780,1,0,0:0:0:0:
256,192,73030,1,8,0:0:0:0:
256,192,73280,1,8,0:0:0:0:
256,192,73405,1,8,0:0:0:0:
256,192,73780,1,0,0:0:0:0:
256,192,73905,1,0,0:0:0:0:
256,192,74155,1,8,0:0:0:0:
256,192,74530,1,8,0:0:0:0:
256,192,74780,1,0,0:0:0:0:
256,192,75280,1,8,0:0:0:0:
256,192,75530,1,8,0:0:0:0:
256,192,75780,1,8,0:0:0:0:
256,192,76530,1,8,0:0:0:0:
256,192,76905,1,0,0:0:0:0:
256,192,77155,1,0,0:0:0:0:
256,192,77280,1,0,0:0:0:0:
256,192,77530,1,8,0:0:0:0:
256,192,80030,1,0,0:0:0:0:
256,192,80530,1,8,0:0:0:0:
256,192,80780,1,8,0:0:0:0:
256,192,81030,1,0,0:0:0:0:
256,192,81530,1,8,0:0:0:0:
256,192,82030,1,0,0:0:0:0:
256,192,82280,1,0,0:0:0:0:
256,192,82530,1,8,0:0:0:0:
256,192,83030,1,8,0:0:0:0:
256,192,83280,1,8,0:0:0:0:
256,192,83405,1,8,0:0:0:0:
256,192,83530,1,8,0:0:0:0:
256,192,83780,1,8,0:0:0:0:
256,192,84530,1,8,0:0:0:0:
256,192,84780,1,0,0:0:0:0:
256,192,85030,1,0,0:0:0:0:
256,192,85155,1,0,0:0:0:0:
256,192,85530,1,8,0:0:0:0:
256,192,86030,1,0,0:0:0:0:
256,192,86280,1,0,0:0:0:0:
256,192,86530,1,8,0:0:0:0:
256,192,87030,1,8,0:0:0:0:
256,192,87280,1,8,0:0:0:0:
256,192,87530,1,0,0:0:0:0:
256,192,87780,1,8,0:0:0:0:
256,192,88530,1,8,0:0:0:0:
256,192,88905,1,0,0:0:0:0:
256,192,89030,1,0,0:0:0:0:
256,192,89280,1,0,0:0:0:0:
256,192,89530,1,8,0:0:0:0:
256,192,90030,1,0,0:0:0:0:
256,192,90280,1,0,0:0:0:0:
256,192,90530,1,8,0:0:0:0:
256,192,91030,1,8,0:0:0:0:
256,192,91405,1,8,0:0:0:0:
256,192,91655,1,8,0:0:0:0:
256,192,91905,1,8,0:0:0:0:
256,192,92030,1,8,0:0:0:0:
256,192,92280,1,0,0:0:0:0:
256,192,92530,1,8,0:0:0:0:
256,192,93030,1,0,0:0:0:0:
256,192,93280,1,0,0:0:0:0:
256,192,93530,1,8,0:0:0:0:
256,192,93905,1,8,0:0:0:0:
256,192,94155,1,8,0:0:0:0:
256,192,94280,1,8,0:0:0:0:
256,192,94530,1,0,0:0:0:0:
256,192,94905,1,8,0:0:0:0:
256,192,95155,1,8,0:0:0:0:
256,192,95280,1,8,0:0:0:0:
256,192,95530,1,8,0:0:0:0:
256,192,95780,1,0,0:0:0:0:
256,192,96530,1,8,0:0:0:0:
256,192,97280,1,0,0:0:0:0:
256,192,97530,1,8,0:0:0:0:
256,192,98030,1,0,0:0:0:0:
256,192,98405,1,8,0:0:0:0:
256,192,98530,1,8,0:0:0:0:
256,192,98780,1,8,0:0:0:0:
256,192,99030,1,0,0:0:0:0:
256,192,99280,1,0,0:0:0:0:
256,192,99530,1,8,0:0:0:0:
256,192,99905,1,8,0:0:0:0:
256,192,100155,1,8,0:0:0:0:
256,192,100405,1,8,0:0:0:0:
256,192,100530,1,8,0:0:0:0:
256,192,100780,1,8,0:0:0:0:
256,192,101030,1,0,0:0:0:0:
256,192,101280,1,0,0:0:0:0:
256,192,101530,1,8,0:0:0:0:
256,192,102030,1,0,0:0:0:0:
256,192,102280,1,8,0:0:0:0:
256,192,102405,1,8,0:0:0:0:
256,192,102530,1,8,0:0:0:0:
256,192,103030,1,0,0:0:0:0:
256,192,103280,1,8,0:0:0:0:
256,192,103405,1,8,0:0:0:0:
256,192,103530,1,8,0:0:0:0:
256,192,103780,1,8,0:0:0:0:
256,192,104530,1,8,0:0:0:0:
256,192,104905,1,0,0:0:0:0:
256,192,105155,1,8,0:0:0:0:
256,192,105280,1,8,0:0:0:0:
256,192,105530,1,0,0:0:0:0:
256,192,106280,1,0,0:0:0:0:
256,192,106530,1,8,0:0:0:0:
256,192,106780,1,0,0:0:0:0:
256,192,106905,1,0,0:0:0:0:
256,192,107155,1,8,0:0:0:0:
256,192,107280,1,8,0:0:0:0:
256,192,107530,1,0,0:0:0:0:
256,192,108030,1,8,0:0:0:0:
256,192,108405,1,8,0:0:0:0:
256,192,108780,1,8,0:0:0:0:
256,192,109155,1,8,0:0:0:0:
256,192,109405,1,8,0:0:0:0:
256,192,109530,1,8,0:0:0:0:
256,192,109780,1,8,0:0:0:0:
256,192,110030,1,0,0:0:0:0:
256,192,110280,1,0,0:0:0:0:
256,192,110530,1,8,0:0:0:0:
256,192,111030,1,0,0:0:0:0:
256,192,112030,5,0,0:0:0:0:
256,192,112530,1,8,0:0:0:0:
256,192,112780,1,8,0:0:0:0:
256,192,113030,1,0,0:0:0:0:
256,192,113530,1,8,0:0:0:0:
256,192,114030,1,0,0:0:0:0:
256,192,114280,1,8,0:0:0:0:
256,192,114405,1,8,0:0:0:0:
256,192,114780,1,0,0:0:0:0:
256,192,115280,1,8,0:0:0:0:
256,192,115530,1,8,0:0:0:0:
256,192,115780,1,8,0:0:0:0:
256,192,116530,1,8,0:0:0:0:
256,192,117030,1,0,0:0:0:0:
256,192,117280,1,8,0:0:0:0:
256,192,117405,1,8,0:0:0:0:
256,192,117780,1,0,0:0:0:0:
256,192,118030,1,8,0:0:0:0:
256,192,118280,1,8,0:0:0:0:
256,192,118405,1,8,0:0:0:0:
256,192,118780,1,0,0:0:0:0:
256,192,119280,1,8,0:0:0:0:
256,192,119530,1,8,0:0:0:0:
256,192,119780,1,8,0:0:0:0:
256,192,120530,1,8,0:0:0:0:
256,192,120780,1,0,0:0:0:0:
256,192,121030,1,8,0:0:0:0:
256,192,121280,1,8,0:0:0:0:
256,192,121405,1,8,0:0:0:0:
256,192,121780,1,0,0:0:0:0:
256,192,121905,1,0,0:0:0:0:
256,192,122155,1,8,0:0:0:0:
256,192,122530,1,8,0:0:0:0:
256,192,122780,1,0,0:0:0:0:
256,192,123280,1,8,0:0:0:0:
256,192,123530,1,8,0:0:0:0:
256,192,123780,1,8,0:0:0:0:
256,192,124530,1,8,0:0:0:0:
256,192,124905,1,0,0:0:0:0:
256,192,125155,1,0,0:0:0:0:
256,192,125280,1,0,0:0:0:0:
256,192,125530,1,8,0:0:0:0:
256,192,128030,1,0,0:0:0:0:
256,192,128530,1,8,0:0:0:0:
256,192,128905,1,0,0:0:0:0:
256,192,129030,1,0,0:0:0:0:
256,192,129280,1,0,0:0:0:0:
256,192,129530,1,8,0:0:0:0:
256,192,130030,1,0,0:0:0:0:
256,192,130530,1,8,0:0:0:0:
256,192,131030,1,0,0:0:0:0:
256,192,131280,1,0,0:0:0:0:
256,192,131530,1,8,0:0:0:0:
256,192,131780,1,8,0:0:0:0:
256,192,132030,1,0,0:0:0:0:
256,192,132530,1,8,0:0:0:0:
256,192,132905,1,0,0:0:0:0:
256,192,133030,1,0,0:0:0:0:
256,192,133280,1,0,0:0:0:0:
256,192,133530,1,8,0:0:0:0:
256,192,134030,1,0,0:0:0:0:
256,192,134530,1,8,0:0:0:0:
256,192,135030,1,0,0:0:0:0:
256,192,135280,1,0,0:0:0:0:
256,192,135530,1,8,0:0:0:0:
256,192,135780,1,8,0:0:0:0:
256,192,136030,1,0,0:0:0:0:
256,192,136530,1,8,0:0:0:0:
256,192,136780,1,8,0:0:0:0:
256,192,136905,1,8,0:0:0:0:
256,192,137155,1,8,0:0:0:0:
256,192,137405,1,8,0:0:0:0:
256,192,137530,1,8,0:0:0:0:
256,192,138030,1,0,0:0:0:0:
256,192,138530,1,8,0:0:0:0:
256,192,139530,1,0,0:0:0:0:
256,192,139780,1,0,0:0:0:0:
256,192,140030,1,8,0:0:0:0:
256,192,141280,1,8,0:0:0:0:
256,192,141530,1,8,0:0:0:0:
256,192,141780,1,8,0:0:0:0:
256,192,142030,1,0,0:0:0:0:
256,192,144030,1,0,0:0:0:0:
256,192,144405,1,0,0:0:0:0:
256,192,144655,1,8,0:0:0:0:
256,192,145030,1,0,0:0:0:0:
256,192,145280,1,8,0:0:0:0:
256,192,145405,1,8,0:0:0:0:
256,192,145655,1,8,0:0:0:0:
256,192,146030,1,0,0:0:0:0:
256,192,146405,1,8,0:0:0:0:
256,192,146780,1,0,0:0:0:0:
256,192,147030,1,8,0:0:0:0:
256,192,147280,1,8,0:0:0:0:
256,192,147405,1,8,0:0:0:0:
256,192,147655,1,8,0:0:0:0:
256,192,148030,1,0,0:0:0:0:
256,192,148405,1,8,0:0:0:0:
256,192,148780,1,0,0:0:0:0:
256,192,149030,1,0,0:0:0:0:
256,192,149280,1,8,0:0:0:0:
256,192,149405,1,8,0:0:0:0:
256,192,149780,1,0,0:0:0:0:
256,192,150030,1,0,0:0:0:0:
256,192,150405,1,8,0:0:0:0:
256,192,150655,1,8,0:0:0:0:
256,192,151030,1,0,0:0:0:0:
256,192,151405,1,8,0:0:0:0:
256,192,152030,1,8,0:0:0:0:
256,192,152405,1,0,0:0:0:0:
256,192,152655,1,8,0:0:0:0:
256,192,153030,1,8,0:0:0:0:
256,192,153280,1,8,0:0:0:0:
256,192,153405,1,8,0:0:0:0:
256,192,153655,1,8,0:0:0:0:
256,192,154030,1,0,0:0:0:0:
256,192,154405,1,8,0:0:0:0:
256,192,154655,1,0,0:0:0:0:
256,192,155030,1,8,0:0:0:0:
256,192,155280,1,8,0:0:0:0:
256,192,155405,1,8,0:0:0:0:
256,192,155655,1,8,0:0:0:0:
256,192,156030,1,0,0:0:0:0:
256,192,156405,1,8,0:0:0:0:
256,192,156655,1,8,0:0:0:0:
256,192,157030,1,0,0:0:0:0:
256,192,157280,1,8,0:0:0:0:
256,192,157405,1,8,0:0:0:0:
256,192,157655,1,8,0:0:0:0:
256,192,158030,1,0,0:0:0:0:
256,192,158405,1,8,0:0:0:0:
256,192,158655,1,8,0:0:0:0:
256,192,159030,1,0,0:0:0:0:
256,192,160030,5,0,0:0:0:0:
256,192,160530,1,8,0:0:0:0:
256,192,160780,1,0,0:0:0:0:
256,192,161030,1,8,0:0:0:0:
256,192,161280,1,8,0:0:0:0:
256,192,161405,1,8,0:0:0:0:
256,192,161655,1,0,0:0:0:0:
256,192,162030,1,8,0:0:0:0:
256,192,162280,1,0,0:0:0:0:
256,192,162530,1,8,0:0:0:0:
256,192,162780,1,8,0:0:0:0:
256,192,162905,1,8,0:0:0:0:
256,192,163030,1,8,0:0:0:0:
256,192,163280,1,0,0:0:0:0:
256,192,163405,1,0,0:0:0:0:
256,192,163655,1,8,0:0:0:0:
256,192,164030,1,8,0:0:0:0:
256,192,164280,1,8,0:0:0:0:
256,192,164530,1,0,0:0:0:0:
256,192,164655,1,0,0:0:0:0:
256,192,164780,1,0,0:0:0:0:
256,192,165030,1,8,0:0:0:0:
256,192,165405,1,0,0:0:0:0:
256,192,166030,1,0,0:0:0:0:
256,192,166280,1,8,0:0:0:0:
256,192,166405,1,8,0:0:0:0:
256,192,166530,1,8,0:0:0:0:
256,192,166780,1,0,0:0:0:0:
256,192,167030,1,0,0:0:0:0:
256,192,167405,1,8,0:0:0:0:
256,192,168030,1,8,0:0:0:0:
256,192,168280,1,8,0:0:0:0:
256,192,168530,1,8,0:0:0:0:
256,192,168780,1,0,0:0:0:0:
256,192,169030,1,8,0:0:0:0:
256,192,169280,1,0,0:0:0:0:
256,192,169405,1,0,0:0:0:0:
256,192,169780,1,0,0:0:0:0:
256,192,170030,1,8,0:0:0:0:
256,192,170280,1,8,0:0:0:0:
256,192,170530,1,8,0:0:0:0:
256,192,170780,1,0,0:0:0:0:
256,192,171030,1,8,0:0:0:0:
256,192,171280,1,8,0:0:0:0:
256,192,171405,1,8,0:0:0:0:
256,192,171780,1,0,0:0:0:0:
256,192,172030,1,8,0:0:0:0:
256,192,172280,1,0,0:0:0:0:
256,192,172530,1,0,0:0:0:0:
256,192,172780,1,8,0:0:0:0:
256,192,173030,1,8,0:0:0:0:
256,192,173280,1,0,0:0:0:0:
256,192,173405,1,0,0:0:0:0:
256,192,173780,1,8,0:0:0:0:
256,192,173905,1,8,0:0:0:0:
256,192,174030,1,8,0:0:0:0:
256,192,174280,1,8,0:0:0:0:
256,192,174530,1,0,0:0:0:0:
256,192,174780,1,0,0:0:0:0:
256,192,175030,1,8,0:0:0:0:
256,192,175405,1,8,0:0:0:0:
256,192,175780,1,8,0:0:0:0:
256,192,176030,1,8,0:0:0:0:
256,192,192030,5,0,0:0:0:0:
256,192,192530,1,8,0:0:0:0:
256,192,192780,1,8,0:0:0:0:
256,192,193030,1,0,0:0:0:0:
256,192,193530,1,8,0:0:0:0:
256,192,194030,1,0,0:0:0:0:
256,192,194280,1,8,0:0:0:0:
256,192,194405,1,8,0:0:0:0:
256,192,194780,1,0,0:0:0:0:
256,192,195280,1,8,0:0:0:0:
256,192,195530,1,8,0:0:0:0:
256,192,195780,1,8,0:0:0:0:
256,192,196530,1,8,0:0:0:0:
256,192,197030,1,0,0:0:0:0:
256,192,197280,1,8,0:0:0:0:
256,192,197405,1,8,0:0:0:0:
256,192,197780,1,0,0:0:0:0:
256,192,198030,1,8,0:0:0:0:
256,192,198280,1,8,0:0:0:0:
256,192,198405,1,8,0:0:0:0:
256,192,198780,1,0,0:0:0:0:
256,192,199280,1,8,0:0:0:0:
256,192,199530,1,8,0:0:0:0:
256,192,199780,1,8,0:0:0:0:
256,192,200530,1,8,0:0:0:0:
256,192,200780,1,0,0:0:0:0:
256,192,201030,1,8,0:0:0:0:
256,192,201280,1,8,0:0:0:0:
256,192,201405,1,8,0:0:0:0:
256,192,201780,1,0,0:0:0:0:
256,192,201905,1,0,0:0:0:0:
256,192,202155,1,8,0:0:0:0:
256,192,202530,1,8,0:0:0:0:
256,192,202780,1,0,0:0:0:0:
256,192,203280,1,8,0:0:0:0:
256,192,203530,1,8,0:0:0:0:
256,192,203780,1,8,0:0:0:0:
256,192,204530,1,8,0:0:0:0:
256,192,204905,1,0,0:0:0:0:
256,192,205155,1,0,0:0:0:0:
256,192,205280,1,0,0:0:0:0:
256,192,205530,1,8,0:0:0:0:
