osu file format v14

[General]
AudioFilename: audio.mp3
AudioLeadIn: 0
PreviewTime: 15905
Countdown: 0
SampleSet: Normal
StackLeniency: 0.7
Mode: 1
LetterboxInBreaks: 0
WidescreenStoryboard: 0

[Editor]
Bookmarks: 15780,16030,16280,31780,32030,32280,63780,64030,64280,79780,80030,80280,111780,112030,112280,127780,128030,128280,160030,176030,191780,192030,192280,205280,205530,205780
DistanceSpacing: 0.5
BeatDivisor: 4
GridSize: 32
TimelineZoom: 1.6

[Metadata]
Title:untitled 08 | 09.06.2014.
TitleUnicode:untitled 08 | 09.06.2014.
Artist:Kendrick Lamar
ArtistUnicode:Kendrick Lamar
Creator:Kqrth
Version:Inner Oni
Source:
Tags:english hiphop hip-hop west coast rap untitled unmastered. why so sad blue faces genjuro
BeatmapID:2310035
BeatmapSetID:1105251

[Difficulty]
HPDrainRate:6
CircleSize:2
OverallDifficulty:4.5
ApproachRate:5
SliderMultiplier:1.4
SliderTickRate:1

[Events]
//Background and Video events
0,0,"bg.jpg",0,0
//Break Periods
2,176530,189530
//Storyboard Layer 0 (Background)
//Storyboard Layer 1 (Fail)
//Storyboard Layer 2 (Pass)
//Storyboard Layer 3 (Foreground)
//Storyboard Layer 4 (Overlay)
//Storyboard Sound Samples

[TimingPoints]
30,500,4,1,0,60,1,0
141155,-105.263157894737,4,1,0,60,0,0
141342,-105.726909507281,4,1,0,60,0,0
141467,-106.194652674459,4,1,0,60,0,0
141592,-106.666666666667,4,1,0,60,0,0
141717,-107.142895408177,4,1,0,60,0,0
141842,-107.623279776402,4,1,0,60,0,0
141967,-108.108108108108,4,1,0,60,0,0
142530,-101.26582278481,4,1,0,60,0,0
142717,-101.479881106171,4,1,0,60,0,0
142905,-101.694949727102,4,1,0,60,0,0
143092,-101.910828025478,4,1,0,60,0,0
143217,-102.127624807617,4,1,0,60,0,0
143342,-102.345450693544,4,1,0,60,0,0
143530,-102.564102564103,4,1,0,60,0,0
143780,-100,4,1,0,60,0,0
159905,-83.3333333333333,4,1,0,65,0,0
160030,-83.3333333333333,4,1,0,65,0,1
174905,-83.3333333333333,4,1,0,60,0,1
175030,-83.3333333333333,4,1,0,60,0,0
176155,-200,4,1,0,5,0,0
191905,-100,4,1,0,60,0,0

[HitObjects]
256,192,16030,5,0,0:0:0:0:
256,192,16530,1,8,0:0:0:0:
256,192,16780,1,8,0:0:0:0:
256,192,17030,1,0,0:0:0:0:
256,192,17530,1,8,0:0:0:0:
256,192,18030,1,0,0:0:0:0:
256,192,18155,1,0,0:0:0:0:
256,192,18280,1,8,0:0:0:0:
256,192,18405,1,8,0:0:0:0:
256,192,18655,1,0,0:0:0:0:
256,192,18780,1,8,0:0:0:0:
256,192,19030,1,0,0:0:0:0:
256,192,19280,1,8,0:0:0:0:
256,192,19405,1,8,0:0:0:0:
256,192,19530,1,8,0:0:0:0:
256,192,19780,1,8,0:0:0:0:
256,192,20030,1,0,0:0:0:0:
256,192,20530,1,8,0:0:0:0:
256,192,20780,1,0,0:0:0:0:
256,192,20905,1,8,0:0:0:0:
256,192,21030,1,0,0:0:0:0:
256,192,21280,1,0,0:0:0:0:
256,192,21405,1,8,0:0:0:0:
256,192,21655,1,8,0:0:0:0:
256,192,21780,1,0,0:0:0:0:
256,192,21905,1,0,0:0:0:0:
256,192,22030,1,8,0:0:0:0:
256,192,22280,1,8,0:0:0:0:
256,192,22405,1,0,0:0:0:0:
256,192,22655,1,0,0:0:0:0:
256,192,22780,1,8,0:0:0:0:
256,192,23030,1,0,0:0:0:0:
256,192,23280,1,8,0:0:0:0:
256,192,23405,1,8,0:0:0:0:
256,192,23530,1,8,0:0:0:0:
256,192,23780,1,8,0:0:0:0:
256,192,24030,1,0,0:0:0:0:
256,192,24530,1,8,0:0:0:0:
256,192,24780,1,8,0:0:0:0:
256,192,25030,1,0,0:0:0:0:
256,192,25280,1,0,0:0:0:0:
256,192,25405,1,8,0:0:0:0:
256,192,25655,1,8,0:0:0:0:
256,192,25780,1,8,0:0:0:0:
256,192,25905,1,0,0:0:0:0:
256,192,26155,1,8,0:0:0:0:
256,192,26405,1,0,0:0:0:0:
256,192,26530,1,8,0:0:0:0:
256,192,26780,1,8,0:0:0:0:
256,192,26905,1,8,0:0:0:0:
256,192,27280,1,8,0:0:0:0:
256,192,27405,1,8,0:0:0:0:
256,192,27530,1,8,0:0:0:0:
256,192,27780,1,8,0:0:0:0:
256,192,28030,1,0,0:0:0:0:
256,192,28530,1,8,0:0:0:0:
256,192,28655,1,8,0:0:0:0:
256,192,28905,1,0,0:0:0:0:
256,192,29155,1,8,0:0:0:0:
256,192,29280,1,0,0:0:0:0:
256,192,29530,1,8,0:0:0:0:
256,192,32030,1,0,0:0:0:0:
256,192,32280,1,0,0:0:0:0:
256,192,32405,1,0,0:0:0:0:
256,192,32530,1,8,0:0:0:0:
256,192,32780,1,8,0:0:0:0:
256,192,32905,1,0,0:0:0:0:
256,192,33280,1,8,0:0:0:0:
256,192,33530,1,0,0:0:0:0:
256,192,34030,1,0,0:0:0:0:
256,192,34155,1,8,0:0:0:0:
256,192,34280,1,0,0:0:0:0:
256,192,34405,1,0,0:0:0:0:
256,192,34530,1,8,0:0:0:0:
256,192,34780,1,8,0:0:0:0:
256,192,34905,1,0,0:0:0:0:
256,192,35280,1,0,0:0:0:0:
256,192,35405,1,8,0:0:0:0:
256,192,35530,1,8,0:0:0:0:
256,192,35655,1,0,0:0:0:0:
256,192,35905,1,8,0:0:0:0:
256,192,36155,5,8,0:0:0:0:
256,192,36280,1,0,0:0:0:0:
256,192,36405,1,0,0:0:0:0:
256,192,36530,1,8,0:0:0:0:
256,192,37030,1,0,0:0:0:0:
256,192,37280,1,0,0:0:0:0:
256,192,37405,1,0,0:0:0:0:
256,192,37530,1,8,0:0:0:0:
256,192,37655,1,0,0:0:0:0:
256,192,37780,1,8,0:0:0:0:
256,192,37905,1,8,0:0:0:0:
256,192,38030,1,0,0:0:0:0:
256,192,38280,1,0,0:0:0:0:
256,192,38405,1,0,0:0:0:0:
256,192,38530,1,8,0:0:0:0:
256,192,38780,1,8,0:0:0:0:
256,192,38905,1,0,0:0:0:0:
256,192,39280,1,0,0:0:0:0:
256,192,39405,1,0,0:0:0:0:
256,192,39530,1,8,0:0:0:0:
256,192,39655,1,0,0:0:0:0:
256,192,39780,1,8,0:0:0:0:
256,192,39905,1,8,0:0:0:0:
256,192,40030,1,0,0:0:0:0:
256,192,40280,1,8,0:0:0:0:
256,192,40530,1,0,0:0:0:0:
256,192,40780,1,8,0:0:0:0:
256,192,40905,1,8,0:0:0:0:
256,192,41030,1,0,0:0:0:0:
256,192,41280,1,0,0:0:0:0:
256,192,41405,1,0,0:0:0:0:
256,192,41530,1,8,0:0:0:0:
256,192,41780,1,0,0:0:0:0:
256,192,42155,1,0,0:0:0:0:
256,192,42280,1,8,0:0:0:0:
256,192,42530,1,0,0:0:0:0:
256,192,42780,1,8,0:0:0:0:
256,192,42905,1,8,0:0:0:0:
256,192,43030,1,0,0:0:0:0:
256,192,43280,1,8,0:0:0:0:
256,192,43530,1,0,0:0:0:0:
256,192,43780,1,0,0:0:0:0:
256,192,43905,1,8,0:0:0:0:
256,192,44030,1,0,0:0:0:0:
256,192,44155,1,0,0:0:0:0:
256,192,44280,1,8,0:0:0:0:
256,192,44530,1,0,0:0:0:0:
256,192,44780,1,8,0:0:0:0:
256,192,45155,1,8,0:0:0:0:
256,192,45280,1,0,0:0:0:0:
256,192,45405,1,0,0:0:0:0:
256,192,45530,1,8,0:0:0:0:
256,192,45780,1,0,0:0:0:0:
256,192,46155,1,8,0:0:0:0:
256,192,46280,1,0,0:0:0:0:
256,192,46405,1,0,0:0:0:0:
256,192,46530,1,8,0:0:0:0:
256,192,46655,1,0,0:0:0:0:
256,192,46780,1,8,0:0:0:0:
256,192,46905,1,8,0:0:0:0:
256,192,47030,1,0,0:0:0:0:
256,192,47280,1,0,0:0:0:0:
256,192,47530,1,8,0:0:0:0:
256,192,47780,1,0,0:0:0:0:
256,192,47905,1,8,0:0:0:0:
256,192,48155,1,0,0:0:0:0:
256,192,48280,1,0,0:0:0:0:
256,192,48530,1,8,0:0:0:0:
256,192,48780,1,0,0:0:0:0:
256,192,49155,1,8,0:0:0:0:
256,192,49280,1,0,0:0:0:0:
256,192,49405,1,0,0:0:0:0:
256,192,49530,1,8,0:0:0:0:
256,192,49655,1,8,0:0:0:0:
256,192,49780,1,0,0:0:0:0:
256,192,49905,1,8,0:0:0:0:
256,192,50155,1,0,0:0:0:0:
256,192,50280,1,0,0:0:0:0:
256,192,50530,1,8,0:0:0:0:
256,192,50780,1,0,0:0:0:0:
256,192,51280,1,0,0:0:0:0:
256,192,51405,1,0,0:0:0:0:
256,192,51530,1,8,0:0:0:0:
256,192,51780,1,0,0:0:0:0:
256,192,51905,1,8,0:0:0:0:
256,192,52155,1,0,0:0:0:0:
256,192,52280,1,0,0:0:0:0:
256,192,52530,1,8,0:0:0:0:
256,192,52780,1,0,0:0:0:0:
256,192,52905,1,8,0:0:0:0:
256,192,53155,1,8,0:0:0:0:
256,192,53280,1,0,0:0:0:0:
256,192,53405,1,0,0:0:0:0:
256,192,53530,1,8,0:0:0:0:
256,192,53780,1,0,0:0:0:0:
256,192,53905,1,8,0:0:0:0:
256,192,54030,1,0,0:0:0:0:
256,192,54280,1,8,0:0:0:0:
256,192,54530,1,0,0:0:0:0:
256,192,54780,1,8,0:0:0:0:
256,192,54905,1,0,0:0:0:0:
256,192,55155,1,0,0:0:0:0:
256,192,55280,1,8,0:0:0:0:
256,192,55405,1,8,0:0:0:0:
256,192,55530,1,0,0:0:0:0:
256,192,55780,1,8,0:0:0:0:
256,192,55905,1,0,0:0:0:0:
256,192,56280,1,8,0:0:0:0:
256,192,56530,1,0,0:0:0:0:
256,192,56780,1,8,0:0:0:0:
256,192,56905,1,0,0:0:0:0:
256,192,57155,1,0,0:0:0:0:
256,192,57280,1,8,0:0:0:0:
256,192,57530,1,0,0:0:0:0:
256,192,58030,1,8,0:0:0:0:
256,192,58280,1,0,0:0:0:0:
256,192,58405,1,8,0:0:0:0:
256,192,58530,1,0,0:0:0:0:
256,192,58780,1,8,0:0:0:0:
256,192,58905,1,0,0:0:0:0:
256,192,59030,1,0,0:0:0:0:
256,192,59155,1,0,0:0:0:0:
256,192,59280,1,8,0:0:0:0:
256,192,59530,1,0,0:0:0:0:
256,192,60030,1,0,0:0:0:0:
256,192,60280,1,8,0:0:0:0:
256,192,60530,1,0,0:0:0:0:
256,192,60655,1,0,0:0:0:0:
256,192,60780,1,8,0:0:0:0:
256,192,61030,1,0,0:0:0:0:
256,192,61280,1,0,0:0:0:0:
256,192,61405,1,0,0:0:0:0:
256,192,61530,1,8,0:0:0:0:
256,192,61655,1,8,0:0:0:0:
256,192,61780,1,0,0:0:0:0:
256,192,62030,1,8,0:0:0:0:
256,192,62280,1,0,0:0:0:0:
256,192,62405,1,0,0:0:0:0:
256,192,62530,1,8,0:0:0:0:
256,192,62780,1,0,0:0:0:0:
256,192,62905,1,8,0:0:0:0:
256,192,63030,1,0,0:0:0:0:
256,192,63280,1,8,0:0:0:0:
256,192,63405,1,8,0:0:0:0:
256,192,63530,1,0,0:0:0:0:
256,192,63655,1,0,0:0:0:0:
256,192,64030,5,0,0:0:0:0:
256,192,64405,5,0,0:0:0:0:
256,192,64530,1,8,0:0:0:0:
256,192,64780,1,8,0:0:0:0:
256,192,65030,1,0,0:0:0:0:
256,192,65530,1,8,0:0:0:0:
256,192,66030,1,0,0:0:0:0:
256,192,66155,1,0,0:0:0:0:
256,192,66280,1,8,0:0:0:0:
256,192,66405,1,8,0:0:0:0:
256,192,66655,1,0,0:0:0:0:
256,192,66780,1,8,0:0:0:0:
256,192,67030,1,0,0:0:0:0:
256,192,67280,1,8,0:0:0:0:
256,192,67405,1,8,0:0:0:0:
256,192,67530,1,8,0:0:0:0:
256,192,67780,1,8,0:0:0:0:
256,192,68030,1,0,0:0:0:0:
256,192,68530,1,8,0:0:0:0:
256,192,68780,1,0,0:0:0:0:
256,192,68905,1,8,0:0:0:0:
256,192,69030,1,0,0:0:0:0:
256,192,69280,1,0,0:0:0:0:
256,192,69405,1,8,0:0:0:0:
256,192,69655,1,8,0:0:0:0:
256,192,69780,1,0,0:0:0:0:
256,192,69905,1,0,0:0:0:0:
256,192,70030,1,8,0:0:0:0:
256,192,70280,1,8,0:0:0:0:
256,192,70405,1,0,0:0:0:0:
256,192,70655,1,0,0:0:0:0:
256,192,70780,1,8,0:0:0:0:
256,192,71030,1,0,0:0:0:0:
256,192,71280,1,8,0:0:0:0:
256,192,71405,1,8,0:0:0:0:
256,192,71530,1,8,0:0:0:0:
256,192,71780,1,8,0:0:0:0:
256,192,72030,1,0,0:0:0:0:
256,192,72530,1,8,0:0:0:0:
256,192,72780,1,8,0:0:0:0:
256,192,73030,1,0,0:0:0:0:
256,192,73280,1,0,0:0:0:0:
256,192,73405,1,8,0:0:0:0:
256,192,73655,1,8,0:0:0:0:
256,192,73780,1,8,0:0:0:0:
256,192,73905,1,0,0:0:0:0:
256,192,74155,1,8,0:0:0:0:
256,192,74405,1,0,0:0:0:0:
256,192,74530,1,8,0:0:0:0:
256,192,74780,1,8,0:0:0:0:
256,192,74905,1,8,0:0:0:0:
256,192,75280,1,8,0:0:0:0:
256,192,75405,1,8,0:0:0:0:
256,192,75530,1,8,0:0:0:0:
256,192,75780,1,8,0:0:0:0:
256,192,76030,1,0,0:0:0:0:
256,192,76530,1,8,0:0:0:0:
256,192,76655,1,8,0:0:0:0:
256,192,76905,1,0,0:0:0:0:
256,192,77155,1,8,0:0:0:0:
256,192,77280,1,0,0:0:0:0:
256,192,77530,1,8,0:0:0:0:
256,192,80030,5,0,0:0:0:0:
256,192,80280,1,0,0:0:0:0:
256,192,80405,1,0,0:0:0:0:
256,192,80530,1,8,0:0:0:0:
256,192,80655,1,8,0:0:0:0:
256,192,80905,1,8,0:0:0:0:
256,192,81030,1,0,0:0:0:0:
256,192,81530,1,8,0:0:0:0:
256,192,82030,1,0,0:0:0:0:
256,192,82280,1,0,0:0:0:0:
256,192,82405,1,0,0:0:0:0:
256,192,82530,1,8,0:0:0:0:
256,192,82780,1,8,0:0:0:0:
256,192,82905,1,8,0:0:0:0:
256,192,83030,1,0,0:0:0:0:
256,192,83155,1,0,0:0:0:0:
256,192,83280,1,8,0:0:0:0:
256,192,83405,1,0,0:0:0:0:
256,192,83530,1,8,0:0:0:0:
256,192,83780,1,0,0:0:0:0:
256,192,83905,1,0,0:0:0:0:
256,192,84030,1,8,0:0:0:0:
256,192,84155,1,0,0:0:0:0:
256,192,84280,1,0,0:0:0:0:
256,192,84530,1,8,0:0:0:0:
256,192,84780,1,8,0:0:0:0:
256,192,84905,1,8,0:0:0:0:
256,192,85030,1,0,0:0:0:0:
256,192,85155,1,8,0:0:0:0:
256,192,85530,1,8,0:0:0:0:
256,192,86030,1,0,0:0:0:0:
256,192,86280,1,0,0:0:0:0:
256,192,86405,1,0,0:0:0:0:
256,192,86530,1,8,0:0:0:0:
256,192,86780,1,8,0:0:0:0:
256,192,86905,1,8,0:0:0:0:
256,192,87030,1,0,0:0:0:0:
256,192,87155,1,8,0:0:0:0:
256,192,87280,1,0,0:0:0:0:
256,192,87405,1,0,0:0:0:0:
256,192,87530,1,8,0:0:0:0:
256,192,87780,1,8,0:0:0:0:
256,192,88030,1,0,0:0:0:0:
256,192,88280,1,0,0:0:0:0:
256,192,88405,1,0,0:0:0:0:
256,192,88530,1,8,0:0:0:0:
256,192,88655,1,0,0:0:0:0:
256,192,88905,1,0,0:0:0:0:
256,192,89030,1,8,0:0:0:0:
256,192,89280,1,0,0:0:0:0:
256,192,89530,1,8,0:0:0:0:
256,192,90030,1,0,0:0:0:0:
256,192,90280,1,0,0:0:0:0:
256,192,90405,1,0,0:0:0:0:
256,192,90530,1,8,0:0:0:0:
256,192,90655,1,8,0:0:0:0:
256,192,90780,1,0,0:0:0:0:
256,192,91030,1,8,0:0:0:0:
256,192,91280,1,0,0:0:0:0:
256,192,91405,1,0,0:0:0:0:
256,192,91530,1,8,0:0:0:0:
256,192,91655,1,0,0:0:0:0:
256,192,91905,1,0,0:0:0:0:
256,192,92030,1,8,0:0:0:0:
256,192,92280,1,0,0:0:0:0:
256,192,92405,1,0,0:0:0:0:
256,192,92530,1,8,0:0:0:0:
256,192,92780,1,8,0:0:0:0:
256,192,92905,1,0,0:0:0:0:
256,192,93030,1,8,0:0:0:0:
256,192,93155,1,8,0:0:0:0:
256,192,93280,1,0,0:0:0:0:
256,192,93405,1,0,0:0:0:0:
256,192,93530,1,8,0:0:0:0:
256,192,93780,1,8,0:0:0:0:
256,192,93905,1,8,0:0:0:0:
256,192,94155,1,0,0:0:0:0:
256,192,94280,1,0,0:0:0:0:
256,192,94530,1,8,0:0:0:0:
256,192,94780,1,0,0:0:0:0:
256,192,94905,1,8,0:0:0:0:
256,192,95155,1,0,0:0:0:0:
256,192,95280,1,8,0:0:0:0:
256,192,95405,1,0,0:0:0:0:
256,192,95530,1,8,0:0:0:0:
256,192,95780,1,0,0:0:0:0:
256,192,96280,1,0,0:0:0:0:
256,192,96405,1,0,0:0:0:0:
256,192,96530,1,8,0:0:0:0:
256,192,96655,1,0,0:0:0:0:
256,192,96780,1,8,0:0:0:0:
256,192,97030,1,0,0:0:0:0:
256,192,97280,1,8,0:0:0:0:
256,192,97405,1,0,0:0:0:0:
256,192,97530,1,8,0:0:0:0:
256,192,97655,1,0,0:0:0:0:
256,192,97780,1,8,0:0:0:0:
256,192,98030,1,0,0:0:0:0:
256,192,98280,1,0,0:0:0:0:
256,192,98405,1,0,0:0:0:0:
256,192,98530,1,8,0:0:0:0:
256,192,98780,1,0,0:0:0:0:
256,192,99030,1,8,0:0:0:0:
256,192,99280,1,0,0:0:0:0:
256,192,99405,1,0,0:0:0:0:
256,192,99530,1,8,0:0:0:0:
256,192,99655,1,8,0:0:0:0:
256,192,99780,1,8,0:0:0:0:
256,192,99905,1,0,0:0:0:0:
256,192,100155,1,8,0:0:0:0:
256,192,100280,1,0,0:0:0:0:
256,192,100405,1,0,0:0:0:0:
256,192,100530,1,8,0:0:0:0:
256,192,100780,1,8,0:0:0:0:
256,192,100905,1,8,0:0:0:0:
256,192,101030,1,0,0:0:0:0:
256,192,101280,1,0,0:0:0:0:
256,192,101530,1,8,0:0:0:0:
256,192,101780,1,0,0:0:0:0:
256,192,101905,1,8,0:0:0:0:
256,192,102030,1,0,0:0:0:0:
256,192,102280,1,8,0:0:0:0:
256,192,102405,1,0,0:0:0:0:
256,192,102530,1,8,0:0:0:0:
256,192,102780,1,8,0:0:0:0:
256,192,102905,1,8,0:0:0:0:
256,192,103030,1,0,0:0:0:0:
256,192,103155,1,8,0:0:0:0:
256,192,103280,1,0,0:0:0:0:
256,192,103405,1,0,0:0:0:0:
256,192,103530,1,8,0:0:0:0:
256,192,103655,1,0,0:0:0:0:
256,192,103780,1,8,0:0:0:0:
256,192,104280,1,0,0:0:0:0:
256,192,104530,1,8,0:0:0:0:
256,192,104780,1,0,0:0:0:0:
256,192,104905,1,0,0:0:0:0:
256,192,105030,1,8,0:0:0:0:
256,192,105155,1,8,0:0:0:0:
256,192,105280,1,0,0:0:0:0:
256,192,105530,1,8,0:0:0:0:
256,192,105655,1,0,0:0:0:0:
256,192,106030,1,0,0:0:0:0:
256,192,106280,1,8,0:0:0:0:
256,192,106405,1,0,0:0:0:0:
256,192,106530,1,8,0:0:0:0:
256,192,106780,1,0,0:0:0:0:
256,192,106905,1,8,0:0:0:0:
256,192,107030,1,0,0:0:0:0:
256,192,107155,1,0,0:0:0:0:
256,192,107280,1,8,0:0:0:0:
256,192,107530,1,8,0:0:0:0:
256,192,107655,1,0,0:0:0:0:
256,192,108030,1,8,0:0:0:0:
256,192,108280,1,0,0:0:0:0:
256,192,108405,1,8,0:0:0:0:
256,192,108655,1,8,0:0:0:0:
256,192,108780,1,0,0:0:0:0:
256,192,109030,1,0,0:0:0:0:
256,192,109155,1,8,0:0:0:0:
256,192,109405,1,8,0:0:0:0:
256,192,109530,1,8,0:0:0:0:
256,192,109780,1,8,0:0:0:0:
256,192,110030,1,0,0:0:0:0:
256,192,110280,1,8,0:0:0:0:
256,192,110405,1,0,0:0:0:0:
256,192,110530,1,8,0:0:0:0:
256,192,110780,1,0,0:0:0:0:
256,192,110905,1,8,0:0:0:0:
256,192,111155,1,8,0:0:0:0:
256,192,111280,1,0,0:0:0:0:
256,192,111405,1,0,0:0:0:0:
256,192,111530,1,8,0:0:0:0:
256,192,111780,1,8,0:0:0:0:
256,192,112030,1,0,0:0:0:0:
256,192,112530,1,8,0:0:0:0:
256,192,112780,1,8,0:0:0:0:
256,192,113030,1,0,0:0:0:0:
256,192,113530,1,8,0:0:0:0:
256,192,114030,1,0,0:0:0:0:
256,192,114155,1,0,0:0:0:0:
256,192,114280,1,8,0:0:0:0:
256,192,114405,1,8,0:0:0:0:
256,192,114655,1,0,0:0:0:0:
256,192,114780,1,8,0:0:0:0:
256,192,115030,1,0,0:0:0:0:
256,192,115280,1,8,0:0:0:0:
256,192,115405,1,8,0:0:0:0:
256,192,115530,1,8,0:0:0:0:
256,192,115780,1,8,0:0:0:0:
256,192,116030,1,0,0:0:0:0:
256,192,116530,1,8,0:0:0:0:
256,192,116780,1,0,0:0:0:0:
256,192,116905,1,8,0:0:0:0:
256,192,117030,1,0,0:0:0:0:
256,192,117280,1,0,0:0:0:0:
256,192,117405,1,8,0:0:0:0:
256,192,117655,1,8,0:0:0:0:
256,192,117780,1,0,0:0:0:0:
256,192,117905,1,0,0:0:0:0:
256,192,118030,1,8,0:0:0:0:
256,192,118280,1,8,0:0:0:0:
256,192,118405,1,0,0:0:0:0:
256,192,118655,1,0,0:0:0:0:
256,192,118780,1,8,0:0:0:0:
256,192,119030,1,0,0:0:0:0:
256,192,119280,1,8,0:0:0:0:
256,192,119405,1,8,0:0:0:0:
256,192,119530,1,8,0:0:0:0:
256,192,119780,1,8,0:0:0:0:
256,192,120030,1,0,0:0:0:0:
256,192,120530,1,8,0:0:0:0:
256,192,120780,1,8,0:0:0:0:
256,192,121030,1,0,0:0:0:0:
256,192,121280,1,0,0:0:0:0:
256,192,121405,1,8,0:0:0:0:
256,192,121655,1,8,0:0:0:0:
256,192,121780,1,8,0:0:0:0:
256,192,121905,1,0,0:0:0:0:
256,192,122155,1,8,0:0:0:0:
256,192,122405,1,0,0:0:0:0:
256,192,122530,1,8,0:0:0:0:
256,192,122780,1,8,0:0:0:0:
256,192,122905,1,8,0:0:0:0:
256,192,123280,1,8,0:0:0:0:
256,192,123405,1,8,0:0:0:0:
256,192,123530,1,8,0:0:0:0:
256,192,123780,1,8,0:0:0:0:
256,192,124030,1,0,0:0:0:0:
256,192,124530,1,8,0:0:0:0:
256,192,124655,1,8,0:0:0:0:
256,192,124905,1,0,0:0:0:0:
256,192,125155,1,8,0:0:0:0:
256,192,125280,1,0,0:0:0:0:
256,192,125530,1,8,0:0:0:0:
256,192,128030,1,0,0:0:0:0:
256,192,128530,1,8,0:0:0:0:
256,192,128780,1,0,0:0:0:0:
256,192,128905,1,8,0:0:0:0:
256,192,129030,1,0,0:0:0:0:
256,192,129155,1,0,0:0:0:0:
256,192,129280,1,8,0:0:0:0:
256,192,129530,1,8,0:0:0:0:
256,192,130030,1,0,0:0:0:0:
256,192,130280,1,0,0:0:0:0:
256,192,130530,1,8,0:0:0:0:
256,192,130780,1,0,0:0:0:0:
256,192,130905,1,8,0:0:0:0:
256,192,131030,1,0,0:0:0:0:
256,192,131280,1,0,0:0:0:0:
256,192,131530,1,8,0:0:0:0:
256,192,131655,1,0,0:0:0:0:
256,192,131780,1,8,0:0:0:0:
256,192,131905,1,8,0:0:0:0:
256,192,132030,1,0,0:0:0:0:
256,192,132530,1,8,0:0:0:0:
256,192,132780,1,0,0:0:0:0:
256,192,132905,1,0,0:0:0:0:
256,192,133030,1,8,0:0:0:0:
256,192,133155,1,8,0:0:0:0:
256,192,133280,1,0,0:0:0:0:
256,192,133530,1,8,0:0:0:0:
256,192,134030,1,0,0:0:0:0:
256,192,134280,1,0,0:0:0:0:
256,192,134530,1,8,0:0:0:0:
256,192,134780,1,0,0:0:0:0:
256,192,134905,1,8,0:0:0:0:
256,192,135030,1,0,0:0:0:0:
256,192,135280,1,0,0:0:0:0:
256,192,135530,1,8,0:0:0:0:
256,192,135655,1,0,0:0:0:0:
256,192,135780,1,8,0:0:0:0:
256,192,135905,1,8,0:0:0:0:
256,192,136030,1,0,0:0:0:0:
256,192,136280,1,0,0:0:0:0:
256,192,136530,1,8,0:0:0:0:
256,192,136780,1,8,0:0:0:0:
256,192,136905,1,8,0:0:0:0:
256,192,137030,1,0,0:0:0:0:
256,192,137155,1,8,0:0:0:0:
256,192,137405,1,8,0:0:0:0:
256,192,137530,1,0,0:0:0:0:
256,192,137655,1,8,0:0:0:0:
256,192,137905,1,8,0:0:0:0:
256,192,138030,1,0,0:0:0:0:
256,192,138530,1,8,0:0:0:0:
256,192,138780,1,8,0:0:0:0:
256,192,139030,1,0,0:0:0:0:
256,192,139405,1,0,0:0:0:0:
256,192,139530,1,8,0:0:0:0:
256,192,139655,1,8,0:0:0:0:
256,192,139780,1,0,0:0:0:0:
256,192,140030,1,8,0:0:0:0:
256,192,141280,5,0,0:0:0:0:
256,192,141405,1,0,0:0:0:0:
256,192,141530,1,8,0:0:0:0:
256,192,141655,1,0,0:0:0:0:
256,192,141780,1,8,0:0:0:0:
256,192,141905,1,8,0:0:0:0:
256,192,142030,1,0,0:0:0:0:
256,192,142655,5,0,0:0:0:0:
256,192,142780,1,8,0:0:0:0:
256,192,143030,1,0,0:0:0:0:
256,192,143155,1,0,0:0:0:0:
256,192,143280,1,0,0:0:0:0:
256,192,143405,1,8,0:0:0:0:
256,192,143655,1,8,0:0:0:0:
256,192,143905,1,8,0:0:0:0:
256,192,144030,1,0,0:0:0:0:
256,192,144155,1,0,0:0:0:0:
256,192,144280,1,0,0:0:0:0:
256,192,144405,1,8,0:0:0:0:
256,192,144655,1,8,0:0:0:0:
256,192,144905,1,0,0:0:0:0:
256,192,145030,1,8,0:0:0:0:
256,192,145155,1,0,0:0:0:0:
256,192,145280,1,0,0:0:0:0:
256,192,145405,1,8,0:0:0:0:
256,192,145530,1,0,0:0:0:0:
256,192,145655,1,8,0:0:0:0:
256,192,145905,1,0,0:0:0:0:
256,192,146030,1,8,0:0:0:0:
256,192,146155,1,8,0:0:0:0:
256,192,146280,1,8,0:0:0:0:
256,192,146405,1,0,0:0:0:0:
256,192,146655,1,8,0:0:0:0:
256,192,146905,1,0,0:0:0:0:
256,192,147030,1,8,0:0:0:0:
256,192,147280,1,8,0:0:0:0:
256,192,147405,1,0,0:0:0:0:
256,192,147655,1,8,0:0:0:0:
256,192,147905,1,0,0:0:0:0:
256,192,148030,1,8,0:0:0:0:
256,192,148155,1,0,0:0:0:0:
256,192,148280,1,8,0:0:0:0:
256,192,148405,1,8,0:0:0:0:
256,192,148530,1,0,0:0:0:0:
256,192,148655,1,8,0:0:0:0:
256,192,148905,1,0,0:0:0:0:
256,192,149030,1,8,0:0:0:0:
256,192,149155,1,8,0:0:0:0:
256,192,149280,1,0,0:0:0:0:
256,192,149405,1,8,0:0:0:0:
256,192,149530,1,0,0:0:0:0:
256,192,149655,1,8,0:0:0:0:
256,192,149905,1,8,0:0:0:0:
256,192,150030,1,0,0:0:0:0:
256,192,150280,1,0,0:0:0:0:
256,192,150405,1,8,0:0:0:0:
256,192,150655,1,8,0:0:0:0:
256,192,150905,1,8,0:0:0:0:
256,192,151030,1,0,0:0:0:0:
256,192,151280,1,0,0:0:0:0:
256,192,151405,1,8,0:0:0:0:
256,192,151530,1,8,0:0:0:0:
256,192,151655,1,0,0:0:0:0:
256,192,151905,1,8,0:0:0:0:
256,192,152030,1,0,0:0:0:0:
256,192,152155,1,8,0:0:0:0:
256,192,152405,1,0,0:0:0:0:
256,192,152655,1,8,0:0:0:0:
256,192,152905,1,0,0:0:0:0:
256,192,153030,1,8,0:0:0:0:
256,192,153155,1,8,0:0:0:0:
256,192,153280,1,8,0:0:0:0:
256,192,153405,1,0,0:0:0:0:
256,192,153655,1,8,0:0:0:0:
256,192,153905,1,0,0:0:0:0:
256,192,154030,1,8,0:0:0:0:
256,192,154155,1,0,0:0:0:0:
256,192,154280,1,0,0:0:0:0:
256,192,154405,1,8,0:0:0:0:
256,192,154655,1,0,0:0:0:0:
256,192,154905,1,8,0:0:0:0:
256,192,155030,1,0,0:0:0:0:
256,192,155155,1,8,0:0:0:0:
256,192,155280,1,8,0:0:0:0:
256,192,155405,1,0,0:0:0:0:
256,192,155655,1,8,0:0:0:0:
256,192,155905,1,8,0:0:0:0:
256,192,156030,1,0,0:0:0:0:
256,192,156280,1,0,0:0:0:0:
256,192,156405,1,8,0:0:0:0:
256,192,156655,1,0,0:0:0:0:
256,192,156905,1,8,0:0:0:0:
256,192,157030,1,0,0:0:0:0:
256,192,157155,1,0,0:0:0:0:
256,192,157280,1,0,0:0:0:0:
256,192,157405,1,8,0:0:0:0:
256,192,157655,1,8,0:0:0:0:
256,192,157905,1,0,0:0:0:0:
256,192,158030,1,8,0:0:0:0:
256,192,158280,1,8,0:0:0:0:
256,192,158405,1,0,0:0:0:0:
256,192,158655,1,8,0:0:0:0:
256,192,158905,1,0,0:0:0:0:
256,192,159030,1,8,0:0:0:0:
256,192,159155,1,8,0:0:0:0:
256,192,159280,1,8,0:0:0:0:
256,192,159405,1,0,0:0:0:0:
256,192,159655,1,8,0:0:0:0:
256,192,160030,5,0,0:0:0:0:
256,192,160280,1,8,0:0:0:0:
256,192,160405,1,0,0:0:0:0:
256,192,160530,1,8,0:0:0:0:
256,192,160780,1,0,0:0:0:0:
256,192,160905,1,0,0:0:0:0:
256,192,161030,1,8,0:0:0:0:
256,192,161155,1,0,0:0:0:0:
256,192,161280,1,8,0:0:0:0:
256,192,161405,1,8,0:0:0:0:
256,192,161530,1,0,0:0:0:0:
256,192,161655,1,8,0:0:0:0:
256,192,161780,1,0,0:0:0:0:
256,192,162030,1,8,0:0:0:0:
256,192,162280,1,0,0:0:0:0:
256,192,162405,1,8,0:0:0:0:
256,192,162530,1,0,0:0:0:0:
256,192,162780,1,8,0:0:0:0:
256,192,162905,1,8,0:0:0:0:
256,192,163030,1,0,0:0:0:0:
256,192,163155,1,8,0:0:0:0:
256,192,163280,1,0,0:0:0:0:
256,192,163405,1,0,0:0:0:0:
256,192,163530,1,8,0:0:0:0:
256,192,163655,1,8,0:0:0:0:
256,192,163780,1,0,0:0:0:0:
256,192,164030,1,8,0:0:0:0:
256,192,164280,1,0,0:0:0:0:
256,192,164405,1,0,0:0:0:0:
256,192,164530,1,8,0:0:0:0:
256,192,164655,1,0,0:0:0:0:
256,192,164780,1,0,0:0:0:0:
256,192,165030,1,8,0:0:0:0:
256,192,165155,1,8,0:0:0:0:
256,192,165280,1,0,0:0:0:0:
256,192,165405,1,8,0:0:0:0:
256,192,165530,1,0,0:0:0:0:
256,192,165780,1,8,0:0:0:0:
256,192,165905,1,8,0:0:0:0:
256,192,166030,1,0,0:0:0:0:
256,192,166280,1,0,0:0:0:0:
256,192,166405,1,0,0:0:0:0:
256,192,166530,1,8,0:0:0:0:
256,192,166780,1,0,0:0:0:0:
256,192,166905,1,0,0:0:0:0:
256,192,167030,1,8,0:0:0:0:
256,192,167155,1,0,0:0:0:0:
256,192,167280,1,8,0:0:0:0:
256,192,167405,1,8,0:0:0:0:
256,192,167530,1,0,0:0:0:0:
256,192,167780,1,0,0:0:0:0:
256,192,167905,1,0,0:0:0:0:
256,192,168030,1,8,0:0:0:0:
256,192,168280,1,0,0:0:0:0:
256,192,168405,1,0,0:0:0:0:
256,192,168530,1,8,0:0:0:0:
256,192,168655,1,8,0:0:0:0:
256,192,168780,1,0,0:0:0:0:
256,192,169030,1,8,0:0:0:0:
256,192,169280,1,8,0:0:0:0:
256,192,169405,1,8,0:0:0:0:
256,192,169530,1,0,0:0:0:0:
256,192,169655,1,8,0:0:0:0:
256,192,169780,1,0,0:0:0:0:
256,192,170030,1,8,0:0:0:0:
256,192,170155,1,0,0:0:0:0:
256,192,170280,1,8,0:0:0:0:
256,192,170405,1,8,0:0:0:0:
256,192,170530,1,0,0:0:0:0:
256,192,170655,1,0,0:0:0:0:
256,192,170780,1,8,0:0:0:0:
256,192,171030,1,8,0:0:0:0:
256,192,171280,1,0,0:0:0:0:
256,192,171405,1,0,0:0:0:0:
256,192,171530,1,8,0:0:0:0:
256,192,171655,1,8,0:0:0:0:
256,192,171780,1,0,0:0:0:0:
256,192,172030,1,8,0:0:0:0:
256,192,172280,1,0,0:0:0:0:
256,192,172405,1,8,0:0:0:0:
256,192,172530,1,0,0:0:0:0:
256,192,172780,1,8,0:0:0:0:
256,192,172905,1,8,0:0:0:0:
256,192,173030,1,0,0:0:0:0:
256,192,173155,1,8,0:0:0:0:
256,192,173280,1,0,0:0:0:0:
256,192,173405,1,0,0:0:0:0:
256,192,173530,1,8,0:0:0:0:
256,192,173780,1,8,0:0:0:0:
256,192,173905,1,8,0:0:0:0:
256,192,174030,1,0,0:0:0:0:
256,192,174280,1,8,0:0:0:0:
256,192,174530,1,0,0:0:0:0:
256,192,174655,1,8,0:0:0:0:
256,192,174780,1,0,0:0:0:0:
256,192,175030,1,8,0:0:0:0:
256,192,175280,1,8,0:0:0:0:
256,192,175405,1,8,0:0:0:0:
256,192,175780,1,8,0:0:0:0:
256,192,176030,1,8,0:0:0:0:
256,192,192030,5,0,0:0:0:0:
256,192,192530,1,8,0:0:0:0:
256,192,192780,1,8,0:0:0:0:
256,192,193030,1,0,0:0:0:0:
256,192,193530,1,8,0:0:0:0:
256,192,194030,1,0,0:0:0:0:
256,192,194155,1,0,0:0:0:0:
256,192,194280,1,8,0:0:0:0:
256,192,194405,1,8,0:0:0:0:
256,192,194655,1,0,0:0:0:0:
256,192,194780,1,8,0:0:0:0:
256,192,195030,1,0,0:0:0:0:
256,192,195280,1,8,0:0:0:0:
256,192,195405,1,8,0:0:0:0:
256,192,195530,1,8,0:0:0:0:
256,192,195780,1,8,0:0:0:0:
256,192,196030,1,0,0:0:0:0:
256,192,196530,1,8,0:0:0:0:
256,192,196780,1,0,0:0:0:0:
256,192,196905,1,8,0:0:0:0:
256,192,197030,1,0,0:0:0:0:
256,192,197280,1,0,0:0:0:0:
256,192,197405,1,8,0:0:0:0:
256,192,197655,1,8,0:0:0:0:
256,192,197780,1,0,0:0:0:0:
256,192,197905,1,0,0:0:0:0:
256,192,198030,1,8,0:0:0:0:
256,192,198280,1,8,0:0:0:0:
256,192,198405,1,0,0:0:0:0:
256,192,198655,1,0,0:0:0:0:
256,192,198780,1,8,0:0:0:0:
256,192,199030,1,0,0:0:0:0:
256,192,199280,1,8,0:0:0:0:
256,192,199405,1,8,0:0:0:0:
256,192,199530,1,8,0:0:0:0:
256,192,199780,1,8,0:0:0:0:
256,192,200030,1,0,0:0:0:0:
256,192,200530,1,8,0:0:0:0:
256,192,200780,1,8,0:0:0:0:
256,192,201030,1,0,0:0:0:0:
256,192,201280,1,0,0:0:0:0:
256,192,201405,1,8,0:0:0:0:
256,192,201655,1,8,0:0:0:0:
256,192,201780,1,8,0:0:0:0:
256,192,201905,1,0,0:0:0:0:
256,192,202155,1,8,0:0:0:0:
256,192,202405,1,0,0:0:0:0:
256,192,202530,1,8,0:0:0:0:
256,192,202780,1,8,0:0:0:0:
256,192,202905,1,8,0:0:0:0:
256,192,203280,1,8,0:0:0:0:
256,192,203405,1,8,0:0:0:0:
256,192,203530,1,8,0:0:0:0:
256,192,203780,1,8,0:0:0:0:
256,192,204030,1,0,0:0:0:0:
256,192,204530,1,8,0:0:0:0:
256,192,204655,1,8,0:0:0:0:
256,192,204905,1,0,0:0:0:0:
256,192,205155,1,8,0:0:0:0:
256,192,205280,1,0,0:0:0:0:
256,192,205530,1,8,0:0:0:0:
