osu file format v14

[General]
AudioFilename: audio.mp3
AudioLeadIn: 0
PreviewTime: 15905
Countdown: 0
SampleSet: None
StackLeniency: 0.2
Mode: 1
LetterboxInBreaks: 0
WidescreenStoryboard: 0

[Editor]
Bookmarks: 16030,32030,64030,80030,112030,128030,160030,176030,192030,208030
DistanceSpacing: 0.5
BeatDivisor: 1
GridSize: 32
TimelineZoom: 1.6

[Metadata]
Title:untitled 08 | 09.06.2014.
TitleUnicode:untitled 08 | 09.06.2014.
Artist:Kendrick Lamar
ArtistUnicode:Kendrick Lamar
Creator:Kqrth
Version:Genjuro's Kantan
Source:
Tags:english hiphop hip-hop west coast rap untitled unmastered. why so sad blue faces genjuro
BeatmapID:2373658
BeatmapSetID:1105251

[Difficulty]
HPDrainRate:8
CircleSize:2
OverallDifficulty:2
ApproachRate:10
SliderMultiplier:1.4
SliderTickRate:1

[Events]
//Background and Video events
0,0,"bg.jpg",0,0
//Break Periods
2,176530,189530
//Storyboard Layer 0 (Background)
//Storyboard Layer 1 (Fail)
//Storyboard Layer 2 (Pass)
//Storyboard Layer 3 (Foreground)
//Storyboard Layer 4 (Overlay)
//Storyboard Sound Samples

[TimingPoints]
30,500,4,1,0,60,1,0
160030,-100,4,1,0,60,0,1
175030,-100,4,1,0,60,0,0

[HitObjects]
256,192,16030,5,0,0:0:0:0:
256,192,16530,1,8,0:0:0:0:
256,192,17030,1,0,0:0:0:0:
256,192,18030,1,8,0:0:0:0:
256,192,18530,1,8,0:0:0:0:
256,192,19030,1,0,0:0:0:0:
256,192,19530,1,0,0:0:0:0:
256,192,20030,1,8,0:0:0:0:
256,192,21030,1,0,0:0:0:0:
256,192,22030,1,8,0:0:0:0:
256,192,24030,1,0,0:0:0:0:
256,192,24530,1,0,0:0:0:0:
256,192,25030,1,8,0:0:0:0:
256,192,26030,1,0,0:0:0:0:
256,192,27030,1,8,0:0:0:0:
256,192,27530,1,8,0:0:0:0:
256,192,28030,1,0,0:0:0:0:
256,192,29030,1,8,0:0:0:0:
256,192,32030,1,0,0:0:0:0:
256,192,33030,1,8,0:0:0:0:
256,192,34030,1,0,0:0:0:0:
256,192,34530,1,0,0:0:0:0:
256,192,35030,1,8,0:0:0:0:
256,192,35530,1,8,0:0:0:0:
256,192,36030,1,0,0:0:0:0:
256,192,37030,1,8,0:0:0:0:
256,192,38030,1,0,0:0:0:0:
256,192,38530,1,8,0:0:0:0:
256,192,40030,1,0,0:0:0:0:
256,192,41030,1,8,0:0:0:0:
256,192,42030,1,0,0:0:0:0:
256,192,42530,1,0,0:0:0:0:
256,192,43030,1,8,0:0:0:0:
256,192,44030,1,0,0:0:0:0:
256,192,45030,1,8,0:0:0:0:
256,192,46030,1,0,0:0:0:0:
256,192,46530,1,8,0:0:0:0:
256,192,48030,1,0,0:0:0:0:
256,192,49030,1,8,0:0:0:0:
256,192,49530,1,0,0:0:0:0:
256,192,50030,1,8,0:0:0:0:
256,192,51030,1,0,0:0:0:0:
256,192,51530,1,8,0:0:0:0:
256,192,52030,1,0,0:0:0:0:
256,192,53030,1,8,0:0:0:0:
256,192,54030,1,0,0:0:0:0:
256,192,54530,1,8,0:0:0:0:
256,192,56030,1,0,0:0:0:0:
256,192,57030,1,8,0:0:0:0:
256,192,58030,1,0,0:0:0:0:
256,192,58530,1,8,0:0:0:0:
256,192,59030,1,8,0:0:0:0:
256,192,59530,1,8,0:0:0:0:
256,192,60030,1,0,0:0:0:0:
256,192,61030,1,8,0:0:0:0:
256,192,62030,1,0,0:0:0:0:
256,192,62530,1,8,0:0:0:0:
256,192,64030,1,0,0:0:0:0:
256,192,64530,1,8,0:0:0:0:
256,192,65030,1,0,0:0:0:0:
256,192,66030,1,8,0:0:0:0:
256,192,66530,1,8,0:0:0:0:
256,192,67030,1,0,0:0:0:0:
256,192,67530,1,0,0:0:0:0:
256,192,68030,1,8,0:0:0:0:
256,192,69030,1,0,0:0:0:0:
256,192,70030,1,8,0:0:0:0:
256,192,72030,1,0,0:0:0:0:
256,192,72530,1,0,0:0:0:0:
256,192,73030,1,8,0:0:0:0:
256,192,74030,1,0,0:0:0:0:
256,192,75030,1,8,0:0:0:0:
256,192,75530,1,8,0:0:0:0:
256,192,76030,1,0,0:0:0:0:
256,192,77030,1,8,0:0:0:0:
256,192,80030,1,0,0:0:0:0:
256,192,81030,1,8,0:0:0:0:
256,192,82030,1,0,0:0:0:0:
256,192,82530,1,8,0:0:0:0:
256,192,83030,1,0,0:0:0:0:
256,192,84030,1,8,0:0:0:0:
256,192,84530,1,0,0:0:0:0:
256,192,85030,1,8,0:0:0:0:
256,192,86030,1,0,0:0:0:0:
256,192,86530,1,8,0:0:0:0:
256,192,88030,1,0,0:0:0:0:
256,192,89030,1,8,0:0:0:0:
256,192,90030,1,0,0:0:0:0:
256,192,90530,1,0,0:0:0:0:
256,192,91030,1,8,0:0:0:0:
256,192,92030,1,0,0:0:0:0:
256,192,93030,1,8,0:0:0:0:
256,192,94030,1,0,0:0:0:0:
256,192,94530,1,8,0:0:0:0:
256,192,96030,1,0,0:0:0:0:
256,192,97030,1,8,0:0:0:0:
256,192,98030,1,0,0:0:0:0:
256,192,98530,1,0,0:0:0:0:
256,192,99030,1,8,0:0:0:0:
256,192,100030,1,0,0:0:0:0:
256,192,100530,1,8,0:0:0:0:
256,192,101030,1,0,0:0:0:0:
256,192,102030,1,0,0:0:0:0:
256,192,102530,1,8,0:0:0:0:
256,192,104030,1,0,0:0:0:0:
256,192,105030,1,8,0:0:0:0:
256,192,105530,1,8,0:0:0:0:
256,192,106030,1,0,0:0:0:0:
256,192,107030,1,8,0:0:0:0:
256,192,108030,1,0,0:0:0:0:
256,192,108530,1,8,0:0:0:0:
256,192,109030,1,0,0:0:0:0:
256,192,109530,1,8,0:0:0:0:
256,192,110030,1,0,0:0:0:0:
256,192,110530,1,8,0:0:0:0:
256,192,112030,1,0,0:0:0:0:
256,192,112530,1,8,0:0:0:0:
256,192,113030,1,0,0:0:0:0:
256,192,114030,1,8,0:0:0:0:
256,192,114530,1,8,0:0:0:0:
256,192,115030,1,0,0:0:0:0:
256,192,115530,1,0,0:0:0:0:
256,192,116030,1,8,0:0:0:0:
256,192,117030,1,0,0:0:0:0:
256,192,118030,1,8,0:0:0:0:
256,192,120030,1,0,0:0:0:0:
256,192,120530,1,0,0:0:0:0:
256,192,121030,1,8,0:0:0:0:
256,192,122030,1,0,0:0:0:0:
256,192,123030,1,8,0:0:0:0:
256,192,123530,1,8,0:0:0:0:
256,192,124030,1,0,0:0:0:0:
256,192,125030,1,8,0:0:0:0:
256,192,128030,1,0,0:0:0:0:
256,192,129030,1,8,0:0:0:0:
256,192,130030,1,0,0:0:0:0:
256,192,130530,1,0,0:0:0:0:
256,192,131030,1,8,0:0:0:0:
256,192,132030,1,0,0:0:0:0:
256,192,133030,1,8,0:0:0:0:
256,192,134030,1,0,0:0:0:0:
256,192,134530,1,8,0:0:0:0:
256,192,136030,1,0,0:0:0:0:
256,192,137030,1,8,0:0:0:0:
256,192,138030,1,0,0:0:0:0:
256,192,138530,1,8,0:0:0:0:
256,192,139030,1,0,0:0:0:0:
256,192,140030,1,8,0:0:0:0:
256,192,142030,1,8,0:0:0:0:
256,192,144030,1,0,0:0:0:0:
256,192,145030,1,8,0:0:0:0:
256,192,146030,1,0,0:0:0:0:
256,192,146530,1,0,0:0:0:0:
256,192,147030,1,8,0:0:0:0:
256,192,147530,1,8,0:0:0:0:
256,192,148030,1,0,0:0:0:0:
256,192,149030,1,8,0:0:0:0:
256,192,150030,1,0,0:0:0:0:
256,192,150530,1,0,0:0:0:0:
256,192,151030,1,8,0:0:0:0:
256,192,152030,1,0,0:0:0:0:
256,192,153030,1,8,0:0:0:0:
256,192,154030,1,0,0:0:0:0:
256,192,154530,1,8,0:0:0:0:
256,192,155030,1,8,0:0:0:0:
256,192,155530,1,8,0:0:0:0:
256,192,156030,1,0,0:0:0:0:
256,192,157030,1,8,0:0:0:0:
256,192,158030,1,0,0:0:0:0:
256,192,158530,1,8,0:0:0:0:
256,192,160030,1,0,0:0:0:0:
256,192,160530,1,0,0:0:0:0:
256,192,161030,1,8,0:0:0:0:
256,192,162030,1,0,0:0:0:0:
256,192,162530,1,8,0:0:0:0:
256,192,163030,1,0,0:0:0:0:
256,192,163530,1,8,0:0:0:0:
256,192,164030,1,0,0:0:0:0:
256,192,165030,1,8,0:0:0:0:
256,192,165530,1,8,0:0:0:0:
256,192,166030,1,0,0:0:0:0:
256,192,167030,1,8,0:0:0:0:
256,192,168030,1,0,0:0:0:0:
256,192,168530,1,0,0:0:0:0:
256,192,169030,1,8,0:0:0:0:
256,192,170030,1,0,0:0:0:0:
256,192,170530,1,8,0:0:0:0:
256,192,171030,1,8,0:0:0:0:
256,192,171530,1,8,0:0:0:0:
256,192,172030,1,0,0:0:0:0:
256,192,173030,1,8,0:0:0:0:
256,192,173530,1,8,0:0:0:0:
256,192,174030,1,0,0:0:0:0:
256,192,176030,1,8,0:0:0:0:
256,192,192030,5,0,0:0:0:0:
256,192,192530,1,8,0:0:0:0:
256,192,193030,1,0,0:0:0:0:
256,192,194030,1,8,0:0:0:0:
256,192,194530,1,8,0:0:0:0:
256,192,195030,1,0,0:0:0:0:
256,192,195530,1,0,0:0:0:0:
256,192,196030,1,8,0:0:0:0:
256,192,197030,1,0,0:0:0:0:
256,192,198030,1,8,0:0:0:0:
256,192,200030,1,0,0:0:0:0:
256,192,200530,1,0,0:0:0:0:
256,192,201030,1,8,0:0:0:0:
256,192,202030,1,0,0:0:0:0:
256,192,203030,1,8,0:0:0:0:
256,192,203530,1,8,0:0:0:0:
256,192,204030,1,0,0:0:0:0:
256,192,205030,1,8,0:0:0:0:
