osu file format v14

[General]
AudioFilename: audio.mp3
AudioLeadIn: 0
PreviewTime: 175915
Countdown: 0
SampleSet: Soft
StackLeniency: 0.7
Mode: 0
LetterboxInBreaks: 0
WidescreenStoryboard: 0

[Editor]
Bookmarks: 155191,155258,155325,155392,155459,155476,155585,155695,155805,239938,282136,324304
DistanceSpacing: 0.7
BeatDivisor: 4
GridSize: 16
TimelineZoom: 3.199999

[Metadata]
Title:m.A.A.d city (feat. MC Eiht)
TitleUnicode:m.A.A.d city (feat. MC Eiht)
Artist:Kendrick Lamar
ArtistUnicode:Kendrick Lamar
Creator:jamesjan3
Version:A trip down memory lane
Source:
Tags:good kid mad m.a.a.d city maad hip hop rap hip-hop english compton harepascals koda unappreciative delusional
BeatmapID:3868198
BeatmapSetID:1879010

[Difficulty]
HPDrainRate:5
CircleSize:3.6
OverallDifficulty:8
ApproachRate:9.2
SliderMultiplier:2
SliderTickRate:1

[Events]
//Background and Video events
0,0,"gkmc.png",0,0
//Break Periods
2,154232,154973
2,219039,225522
2,229588,236731
//Storyboard Layer 0 (Background)
//Storyboard Layer 1 (Fail)
//Storyboard Layer 2 (Pass)
//Storyboard Layer 3 (Foreground)
//Storyboard Layer 4 (Overlay)
//Storyboard Sound Samples

[TimingPoints]
201,400,4,2,0,40,1,8
435,588.235294117647,4,2,0,40,1,8
435,-100,4,2,0,40,0,0
1245,379.746835443038,4,2,0,40,1,8
2004,402.387499161693,4,2,0,40,1,8
2004,-133.333333333333,4,2,0,40,0,0
3614,-133.333333333333,4,2,0,40,0,0
5223,-133.333333333333,4,2,0,40,0,0
6430,-200,4,2,0,40,0,0
9610,405.405405405405,4,2,0,40,1,8
11187,402.684563758389,4,2,0,40,1,8
11587,402.387499161693,4,2,0,90,1,8
11587,-50,4,2,0,90,0,0
13197,402.387499161693,4,2,0,90,1,0
13197,-66.6666666666667,4,2,1,75,0,0
15611,-66.6666666666667,4,2,1,75,0,0
16416,-133.333333333333,4,2,1,75,0,0
16818,-80,4,2,1,75,0,0
17220,-66.6666666666667,4,2,1,75,0,0
18024,-133.333333333333,4,2,1,75,0,0
18427,-80,4,2,1,75,0,0
18829,-66.6666666666667,4,2,1,75,0,0
19031,-50,4,2,1,75,0,0
19635,-100,4,2,1,75,0,0
20438,-66.6666666666667,4,2,1,75,0,0
21244,-80,4,2,1,75,0,0
22048,-66.6666666666667,4,2,1,75,0,0
22853,-100,4,2,1,75,0,0
23256,-66.6666666666667,4,2,1,75,0,0
24463,-100,4,2,1,75,0,0
24864,-66.6666666666667,4,2,1,75,0,0
25469,-50,4,2,1,75,0,0
26071,-50,4,2,1,60,0,0
26676,-66.6666666666667,4,2,1,60,0,0
28487,-57.1428571428571,4,2,1,60,0,0
28889,-50,4,2,1,60,0,0
29090,-66.6666666666667,4,2,1,60,0,0
31705,-57.1428571428571,4,2,1,60,0,0
32108,-50,4,2,1,60,0,0
32309,-66.6666666666667,4,2,1,60,0,0
32510,-66.6666666666667,4,2,1,40,0,0
35528,-100,4,2,1,40,0,0
38144,-66.6666666666667,4,2,1,40,0,0
38748,-100,4,2,1,40,0,0
40558,-80,4,2,1,40,0,0
41362,-100,4,2,1,40,0,0
42168,-80,4,2,1,40,0,0
42972,-100,4,2,1,40,0,0
43978,-100,4,2,1,40,0,0
44783,-66.6666666666667,4,2,1,40,0,0
45387,-57.1428571428571,4,2,1,60,0,0
46192,-100,4,2,1,60,0,0
46996,-57.1428571428571,4,2,1,60,0,0
47800,-100,4,2,1,60,0,0
48605,-57.1428571428571,4,2,1,60,0,0
50215,-133.333333333333,4,2,6,60,0,0
50416,-133.333333333333,4,2,6,60,0,0
50818,-133.333333333333,4,2,9,60,0,0
51422,-133.333333333333,4,2,12,40,0,0
51825,-200,4,2,1,40,0,0
53837,-133.333333333333,4,2,1,40,0,0
54239,-66.6666666666667,4,2,1,40,0,0
55044,-133.333333333333,4,2,1,40,0,0
55447,-200,4,2,1,40,0,0
56654,-50,4,2,1,40,0,0
57056,-200,4,2,1,40,0,0
61482,-100,4,2,1,40,0,0
61884,-100,4,2,1,40,0,0
63896,-100,4,2,1,40,0,0
64701,-66.6666666666667,4,2,1,60,0,0
65304,-100,4,2,1,60,0,0
65505,-66.6666666666667,4,2,1,60,0,0
69529,-100,4,2,1,60,0,0
69730,-66.6666666666667,4,2,1,60,0,0
70536,-50,4,2,1,60,0,0
71944,-66.6666666666667,4,2,1,60,0,0
83614,-200,4,2,1,60,0,0
84016,-200,4,2,1,40,0,0
85123,-100,4,2,1,40,0,0
85626,-200,4,2,1,40,0,0
85927,-100,4,2,1,40,0,0
86430,-100,4,2,10,60,0,0
86530,-100,4,2,10,60,0,0
86631,-100,4,2,1,40,0,0
90454,-66.6666666666667,4,2,1,40,0,0
91259,-100,4,2,1,40,0,0
91661,-200,4,2,1,40,0,0
92667,-100,4,2,1,40,0,0
93673,-80,4,2,1,40,0,0
94880,-66.6666666666667,4,2,1,40,0,0
96892,-66.6666666666667,4,2,1,60,0,0
97093,-100,4,2,1,60,0,0
97496,-50,4,2,1,60,0,0
98100,-80,4,2,1,60,0,0
98502,-50,4,2,1,60,0,0
98703,-66.6666666666667,4,2,1,60,0,0
99106,-50,4,2,1,60,0,0
99910,-66.6666666666667,4,2,1,60,0,0
101268,-66.6666666666667,4,2,1,5,0,0
101318,-66.6666666666667,4,2,1,60,0,0
101922,-50,4,2,1,60,0,0
102123,-100,4,2,1,60,0,0
102324,-50,4,2,1,60,0,0
103934,-66.6666666666667,4,2,1,60,0,0
104538,-80,4,2,1,60,0,0
104739,-66.6666666666667,4,2,1,60,0,0
105745,-50,4,2,1,60,0,0
105946,-80,4,2,1,60,0,0
106147,-66.6666666666667,4,2,1,60,0,0
106349,-50,4,2,1,60,0,0
107556,-80,4,2,1,60,0,0
108763,-66.6666666666667,4,2,1,60,0,0
108964,-50,4,2,1,60,0,0
110372,-66.6666666666667,4,2,1,60,0,0
116207,-100,4,2,1,40,0,0
119425,-100,4,2,1,40,0,0
119627,-100,4,2,1,40,0,0
120029,-100,4,2,6,40,0,0
120230,-100,4,2,1,40,0,0
120431,-100,4,2,1,40,0,0
120633,-100,4,2,10,40,0,0
121035,-100,4,2,1,40,0,0
128681,-100,4,2,1,40,0,0
129083,-66.6666666666667,4,2,1,75,0,0
132303,-133.333333333333,4,2,1,75,0,0
132504,-66.6666666666667,4,2,1,75,0,0
133912,-133.333333333333,4,2,1,75,0,0
134315,-66.6666666666667,4,2,1,75,0,0
134918,-50,4,2,1,75,0,0
135924,-66.6666666666667,4,2,1,75,0,0
137131,-133.333333333333,4,2,1,75,0,0
137534,-66.6666666666667,4,2,1,75,0,0
138741,-100,4,2,1,75,0,0
139143,-66.6666666666667,4,2,1,75,0,0
140350,-100,4,2,1,75,0,0
140753,-66.6666666666667,4,2,1,75,0,0
141355,-50,4,2,1,75,0,0
141960,-400,4,2,1,50,0,0
142765,-80,4,2,1,50,0,0
143569,-400,4,2,1,50,0,0
143972,-66.6666666666667,4,2,1,50,0,0
144173,-200,4,2,1,50,0,0
144373,-400,4,2,1,50,0,0
144977,-200,4,2,1,50,0,0
145179,-80,4,2,1,50,0,0
145581,-80,4,2,9,50,0,0
145984,-400,4,2,1,50,0,0
146587,-200,4,2,1,50,0,0
146789,-400,4,2,1,50,0,0
147191,-66.6666666666667,4,2,1,50,0,0
147593,-200,4,2,1,50,0,0
149203,-400,4,2,1,50,0,0
149605,-200,4,2,1,50,0,0
150410,-400,4,2,1,50,0,0
150812,-50,4,2,1,50,0,0
151416,-200,4,2,1,50,0,0
152421,-50,4,2,1,50,0,0
152824,-200,4,2,1,50,0,0
153227,-50,4,2,0,90,0,0
155543,659.340659340659,4,2,3,50,1,0
155543,-66.6666666666667,4,2,3,50,0,0
176641,-50,4,2,3,60,0,0
184306,-66.6666666666667,4,2,3,5,0,0
184389,-50,4,2,3,60,0,0
184471,-66.6666666666667,4,2,3,5,0,0
184553,-50,4,2,3,60,0,0
197740,-50,4,2,3,80,0,0
205405,-66.6666666666667,4,2,3,5,0,0
205488,-50,4,2,3,80,0,0
205570,-66.6666666666667,4,2,3,5,0,0
205652,-50,4,2,3,80,0,0
212658,-66.6666666666667,4,2,3,5,0,0
212740,-50,4,2,3,80,0,0
212823,-66.6666666666667,4,2,3,5,0,0
212905,-50,4,2,3,80,0,0
218180,-100,4,2,3,80,0,0
226092,-400,4,2,3,80,0,0
226751,-166.666666666667,4,2,3,80,0,0
227411,-133.333333333333,4,2,3,80,0,0
227740,-100,4,2,3,80,0,0
228070,-80,4,2,3,80,0,0
228400,-100,4,2,3,80,0,0
228729,-133.333333333333,4,2,3,80,0,0
229059,-66.6666666666667,4,2,3,80,0,0
237301,-200,4,2,3,80,0,0
237795,-66.6666666666667,4,2,3,80,0,0
238125,-50,4,2,3,80,0,0
239114,-100,4,2,3,80,0,0
239279,-100,4,2,9,90,0,0
239334,-100,4,1,10,90,0,0
239938,-66.6666666666667,4,2,3,60,0,0
240268,-50,4,2,3,60,0,0
240597,-50,4,2,3,60,0,0
258152,-33.3333333333333,4,1,10,60,0,0
258729,-40,4,1,10,60,0,0
259718,-50,4,2,3,60,0,0
261036,-50,4,2,3,70,0,0
266312,-250,4,2,3,70,0,0
268949,-50,4,2,3,70,0,0
271256,-50,4,2,3,75,0,0
271532,-66.6666666666667,4,2,3,5,0,0
271586,-50,4,2,3,80,0,0
277438,-66.6666666666667,4,2,3,5,0,0
277521,-50,4,2,3,80,0,0
279416,-66.6666666666667,4,2,3,5,0,0
279499,-50,4,2,3,80,0,0
282136,-133.333333333333,4,2,3,40,0,0
284821,659.340659340659,4,2,2,40,1,0
284821,-133.333333333333,4,2,2,40,0,0
292733,659.340659340659,4,2,2,40,1,0
292733,-133.333333333333,4,2,2,40,0,0
302623,-200,4,2,2,20,0,0
303282,-66.6666666666667,4,2,2,40,0,0
313172,-57.1428571428571,4,2,2,40,0,0
319106,-200,4,2,2,40,0,0
319766,-100,4,2,2,40,0,0
320425,-66.6666666666667,4,2,2,40,0,0
321084,-50,4,2,2,40,0,0
321524,-33.3333333333333,4,2,2,40,0,0
321689,-80,4,2,2,40,0,0
322733,-40,4,2,2,40,0,0
323062,-33.3333333333333,4,2,2,40,0,0
324323,659.340659340659,4,3,3,80,1,0
324323,-33.3333333333333,4,3,3,80,0,1
325696,-66.6666666666667,4,2,1,5,0,1
325751,-33.3333333333333,4,3,3,80,0,1
325806,-66.6666666666667,4,2,1,5,0,1
325861,-33.3333333333333,4,3,3,80,0,1
325916,-66.6666666666667,4,2,1,5,0,1
325971,-33.3333333333333,4,3,3,80,0,1
326905,-66.6666666666667,4,2,1,5,0,1
326960,-33.3333333333333,4,3,3,80,0,1
328031,-66.6666666666667,4,2,1,5,0,1
328114,-33.3333333333333,4,3,3,80,0,1
328196,-66.6666666666667,4,2,1,5,0,1
328279,-33.3333333333333,4,3,3,80,0,1
328443,-28.5714285714286,4,3,3,80,0,1
328526,-66.6666666666667,4,2,1,5,0,1
328608,-28.5714285714286,4,3,3,80,0,1
328773,-50,4,3,3,80,0,1
328855,-66.6666666666667,4,2,1,5,0,1
328938,-30.7692307692308,4,3,3,80,0,1
329185,-66.6666666666667,4,2,1,5,0,1
329268,-30.7692307692308,4,3,3,80,0,1
329350,-66.6666666666667,4,2,1,5,0,1
329432,-30.7692307692308,4,3,3,80,0,1
329515,-66.6666666666667,4,2,1,5,0,1
329597,-33.3333333333333,4,3,3,80,0,1
330174,-66.6666666666667,4,2,1,5,0,1
330257,-33.3333333333333,4,3,3,80,0,1
330833,-66.6666666666667,4,2,1,5,0,1
330916,-33.3333333333333,4,3,3,80,0,1
331493,-66.6666666666667,4,2,1,5,0,1
331575,-33.3333333333333,4,3,3,80,0,1
331823,-66.6666666666667,4,2,1,5,0,1
331905,-33.3333333333333,4,3,3,80,0,1
333553,-50,4,3,3,80,0,1
333883,-33.3333333333333,4,3,3,80,0,1
333965,-66.6666666666667,4,2,1,5,0,1
334048,-33.3333333333333,4,2,1,80,0,0
334213,-50,4,2,1,80,0,0
334542,-50,4,2,1,80,0,0
334790,-66.6666666666667,4,2,1,80,0,0
335119,-100,4,2,1,80,0,0
335449,-133.333333333333,4,2,1,80,0,0

[Colours]
Combo1 : 207,207,207
Combo2 : 192,129,50
Combo3 : 163,220,67

[HitObjects]
512,191,201,5,2,0:2:0:0:
483,12,435,1,2,0:2:0:0:
447,92,729,2,0,P|442:60|492:11,1,100
359,59,1243,1,2,0:2:0:0:
359,59,2004,2,0,B|312:17|240:31|240:31|228:5,2,150.000005722046,2|0|2,0:2|0:0|0:2,0:0:0:0:
359,59,3412,1,0,0:0:0:0:
440,42,3614,2,0,P|472:57|477:93,1,75.0000028610231,2|0,0:2|0:0,0:0:0:0:
477,92,4016,2,0,P|440:70|442:37,1,75.0000028610231
439,41,4418,2,0,P|465:82|491:181,1,150.000005722046,2|0,0:2|0:0,0:0:0:0:
367,287,5022,1,0,0:0:0:0:
478,307,5223,2,0,B|454:306|454:306|449:230|384:202,2,150.000005722046,2|0|2,0:2|0:0|0:2,0:0:0:0:
391,205,6229,1,2,0:3:0:0:
476,202,6430,2,2,B|447:283|319:236|303:150|392:43|511:33|486:266|582:-16|431:-5|392:43,1,450,2|0,0:2|0:0,0:0:0:0:
327,69,8442,2,0,P|289:53|283:-4,2,100,2|0|2,0:2|0:0|0:2,0:0:0:0:
400,100,9448,1,2,0:3:0:0:
449,169,9610,2,2,B|420:144|369:211|474:265|532:205|535:122|487:89|429:95|369:124|304:193|318:224|327:227|336:216|354:266|343:323|261:348|128:336|142:171|235:147|271:163,1,600,2|0,0:2|0:0,0:0:0:0:
257,160,11187,1,2,0:2:0:0:
306,97,11388,2,0,P|284:84|260:80,1,50,2|0,0:2|0:0,0:0:0:0:
131,197,11587,6,0,B|123:219|123:219|150:228|150:228|173:261|173:261|191:165|131:164|130:180|79:167|97:87|97:87|117:125|117:125|152:141|152:141|143:171,3,400,2|2|2|2,1:1|1:1|1:1|1:1,0:0:0:0:
149,153,13197,6,0,L|125:319,1,150.000005722046,6|0,3:2|0:0,0:0:0:0:
279,177,13599,1,2,0:2:0:0:
0,256,13800,1,0,0:0:0:0:
209,366,14000,6,0,L|279:335,1,75.0000028610231,12|0,0:2|0:0,0:0:0:0:
127,301,14202,1,0,0:0:0:0:
420,278,14403,1,0,3:0:0:0:
238,87,14604,1,2,0:2:0:0:
457,76,14805,5,6,0:2:0:0:
457,62,15007,1,0,0:0:0:0:
449,66,15208,1,0,3:0:0:0:
463,71,15409,1,0,0:0:0:0:
162,47,15611,6,0,L|146:130,1,75.0000028610231,14|0,0:2|0:0,0:0:0:0:
76,3,15811,1,2,3:2:0:0:
201,205,16013,1,0,0:0:0:0:
141,270,16214,1,0,0:0:0:0:
440,103,16416,6,0,P|473:45|513:-5,1,75.0000028610231,6|0,3:2|0:0,0:0:0:0:
362,139,16818,2,0,P|325:219|299:251,1,125,0|2,0:0|0:2,0:0:0:0:
133,378,17220,6,0,L|119:279,1,75.0000028610231,14|0,0:2|0:0,0:0:0:0:
220,343,17421,1,0,0:0:0:0:
6,363,17622,1,2,3:2:0:0:
45,280,17824,1,0,0:0:0:0:
97,89,18024,6,0,P|55:44|1:0,1,75.0000028610231,6|0,0:2|0:0,0:0:0:0:
79,168,18427,2,0,P|125:207|181:239,1,125,0|0,3:0|0:0,0:0:0:0:
371,275,18830,2,0,P|362:244|324:216,1,75.0000028610231,14|0,0:2|0:0,0:0:0:0:
199,122,19032,6,0,B|173:86|199:24|238:20|282:24|282:24|294:67,1,200,2|0,3:2|0:0,0:0:0:0:
189,30,19434,2,0,B|174:52|174:52|200:127,1,100,0|0,3:0|0:0,0:0:0:0:
275,372,19634,5,4,3:2:0:0:
314,303,19836,1,0,0:0:0:0:
137,352,20037,2,0,P|84:323|42:316,1,100,2|0,0:2|0:0,0:0:0:0:
407,292,20440,6,0,L|487:274,1,75.0000028610231,14|0,0:2|0:0,0:0:0:0:
371,366,20640,1,0,0:0:0:0:
512,157,20842,1,0,3:0:0:0:
464,88,21043,1,0,0:0:0:0:
284,244,21245,6,0,P|302:183|348:83,1,125,6|0,0:2|0:0,0:0:0:0:
41,182,21647,2,0,P|71:113|93:41,1,125,2|0,3:2|0:0,0:0:0:0:
157,272,22049,6,0,L|127:346,1,75.0000028610231,14|0,0:2|0:0,0:0:0:0:
54,377,22251,1,2,3:2:0:0:
11,144,22452,1,0,0:0:0:0:
90,183,22653,1,0,0:0:0:0:
206,85,22854,6,0,P|237:37|272:6,1,100,6|0,3:2|0:0,0:0:0:0:
264,213,23257,2,0,P|339:175|433:166,1,150.000005722046,2|0,0:2|0:0,0:0:0:0:
512,60,23659,6,0,L|418:98,1,75.0000028610231,14|0,0:2|0:0,0:0:0:0:
433,0,23860,1,0,0:0:0:0:
462,279,24061,1,2,3:2:0:0:
510,206,24263,1,0,0:0:0:0:
286,360,24464,6,0,P|250:326|224:284,1,100,6|0,0:2|0:0,0:0:0:0:
68,348,24865,2,0,P|69:273|93:202,1,150.000005722046,2|0,3:2|0:0,0:0:0:0:
0,216,25269,2,0,P|7:256|55:278,1,75.0000028610231,14|0,0:2|0:0,0:0:0:0:
286,360,25470,6,0,B|312:324|286:262|247:258|203:262|203:262|191:305,1,200,2|0,3:2|0:0,0:0:0:0:
371,325,25872,2,0,B|358:347|358:347|279:360,1,100,0|0,3:0|0:0,0:0:0:0:
0,376,26073,5,6,3:2:0:0:
193,296,26274,1,0,0:0:0:0:
35,160,26476,1,0,0:0:0:0:
71,282,26677,2,0,P|99:251|155:217,1,75.0000028610231,2|0,0:2|0:0,0:0:0:0:
401,157,26878,5,14,0:2:0:0:
176,108,27079,1,0,0:0:0:0:
156,23,27280,1,2,3:2:0:0:
319,189,27482,2,0,P|354:177|394:152,1,75.0000028610231
479,5,27683,5,6,0:2:0:0:
477,11,27884,1,0,0:0:0:0:
512,93,28085,5,2,3:2:0:0:
257,15,28286,1,0,0:0:0:0:
512,93,28488,2,0,B|520:111|520:111|431:81|385:161,1,175.00000166893,14|0,0:2|3:0,0:0:0:0:
378,145,28890,2,0,P|415:152|472:210,1,100,2|0,0:2|0:0,0:0:0:0:
418,382,29091,2,0,P|446:359|445:323,1,75.0000028610231,2|0,0:2|0:0,0:0:0:0:
512,262,29292,5,6,3:2:0:0:
219,323,29494,1,0,0:0:0:0:
118,280,29695,1,0,0:0:0:0:
219,323,29896,2,0,P|210:278|211:236,1,75.0000028610231,2|0,0:2|0:0,0:0:0:0:
198,24,30097,6,0,P|255:23|266:105,1,150.000005722046,14|0,0:2|0:0,0:0:0:0:
33,236,30500,2,0,P|71:209|98:175,1,75.0000028610231,2|0,3:2|0:0,0:0:0:0:
4,148,30701,1,0,0:0:0:0:
162,370,30902,5,6,0:2:0:0:
166,376,31103,1,0,0:0:0:0:
276,240,31304,5,2,3:2:0:0:
1,360,31506,1,0,0:0:0:0:
276,240,31706,2,0,B|292:231|292:231|207:173|144:241,1,175.00000166893,14|0,0:2|3:0,0:0:0:0:
169,244,32109,2,0,P|137:290|135:339,1,100,2|0,0:2|0:0,0:0:0:0:
354,147,32310,2,0,P|328:93|282:76,1,75.0000028610231,2|0,3:2|0:0,0:0:0:0:
250,9,32511,5,2,3:2:0:0:
257,17,32713,1,2,0:2:0:0:
268,19,32914,1,2,0:2:0:0:
170,21,33115,1,0,0:0:0:0:
317,85,33316,5,8,0:1:0:0:
205,315,33517,1,0,0:0:0:0:
281,375,33719,5,2,3:2:0:0:
265,375,33920,1,2,0:2:0:0:
256,383,34121,1,2,0:2:0:0:
361,353,34322,1,0,0:0:0:0:
135,174,34523,5,2,3:1:0:0:
205,315,34725,1,0,0:0:0:0:
135,174,34926,2,0,B|121:187|121:187|216:190|236:96,1,150.000005722046,10|0,0:1|3:0,0:0:0:0:
49,72,35328,1,2,0:2:0:0:
114,133,35529,2,0,P|129:113|137:87,1,50
315,16,35731,6,0,B|333:27|333:27|328:93|368:155,1,150,2|0,3:2|0:0,0:0:0:0:
356,160,36133,2,0,P|406:197|447:193,1,100
417,18,36535,5,8,0:1:0:0:
501,24,36737,2,0,L|487:85,1,50,2|0,0:2|0:0,0:0:0:0:
353,191,36938,5,0,3:0:0:0:
441,194,37139,2,0,L|427:133,1,50,2|0,0:2|0:0,0:0:0:0:
512,146,37340,5,0,0:0:0:0:
508,151,37541,1,2,0:2:0:0:
476,283,37743,5,2,3:1:0:0:
354,107,37944,1,0,0:0:0:0:
476,283,38145,2,0,B|483:298|483:298|416:270|356:325,1,150.000005722046,10|0,0:1|3:0,0:0:0:0:
166,328,38547,5,0,0:0:0:0:
99,371,38749,2,0,P|122:353|130:314,1,50,2|0,3:2|0:0,0:0:0:0:
256,192,38950,5,2,3:2:0:0:
12,171,39151,1,0,0:0:0:0:
87,205,39352,1,2,0:2:0:0:
0,219,39553,1,0,0:0:0:0:
95,48,39754,6,0,P|93:80|110:106,1,50,10|0,0:1|0:0,0:0:0:0:
89,49,39956,2,0,P|100:70|121:84,1,50,2|0,0:1|0:0,0:0:0:0:
256,192,40157,5,2,3:2:0:0:
318,10,40358,1,0,0:0:0:0:
202,10,40559,2,0,B|240:0|240:0|284:22|284:22|326:8,1,125,2|0,0:2|0:0,0:0:0:0:
256,192,40962,5,0,3:0:0:0:
428,55,41163,1,0,0:0:0:0:
487,198,41363,6,0,P|489:166|472:140,1,50,10|0,0:1|0:0,0:0:0:0:
493,197,41564,2,0,P|482:176|461:162,1,50,2|0,3:1|0:0,0:0:0:0:
408,284,41766,5,0,0:0:0:0:
486,303,41968,2,0,L|427:273,1,50,2|0,0:2|0:0,0:0:0:0:
256,192,42169,6,0,B|241:154|241:154|273:114|273:114|264:82,1,125,2|0,3:2|0:0,0:0:0:0:
354,374,42571,1,0,0:0:0:0:
141,344,42772,1,0,0:0:0:0:
259,374,42973,6,0,P|239:348|239:317,1,50,10|0,0:1|0:0,0:0:0:0:
253,376,43174,2,0,P|250:351|260:328,1,50,2|0,0:1|0:0,0:0:0:0:
256,192,43376,5,0,3:0:0:0:
70,342,43577,1,0,0:0:0:0:
136,284,43778,1,2,0:2:0:0:
104,365,43980,1,0,0:0:0:0:
256,192,44181,5,2,3:2:0:0:
43,215,44382,2,0,P|19:206|-1:191,1,50,2|0,0:2|0:0,0:0:0:0:
40,118,44583,2,0,P|64:126|84:141,1,50,10|0,0:1|0:0,0:0:0:0:
256,192,44784,6,0,B|358:220|358:220|333:172,1,150.000005722046,0|2,3:0|0:1,0:0:0:0:
338,182,45388,6,0,P|330:246|333:299,1,87.500000834465,2|0,3:2|0:0,0:0:0:0:
265,317,45589,1,0,0:0:0:0:
512,378,45790,1,2,0:2:0:0:
452,305,45991,1,0,0:0:0:0:
498,78,46193,6,0,P|503:102|498:127,1,50,2|0,1:0|0:0,0:0:0:0:
505,123,46394,2,0,P|483:100|466:91,1,50,2|0,0:1|0:0,0:0:0:0:
442,17,46595,5,2,3:2:0:0:
329,271,46796,1,0,0:0:0:0:
442,17,46997,6,0,P|393:61|368:97,1,87.500000834465,2|0,0:2|0:0,0:0:0:0:
300,97,47199,1,0,0:0:0:0:
86,21,47400,1,2,3:2:0:0:
172,0,47601,1,0,0:0:0:0:
40,296,47801,6,0,P|34:272|41:248,1,50,2|0,1:0|0:0,0:0:0:0:
34,252,48003,2,0,P|55:274|72:283,1,50,2|0,3:1|0:0,0:0:0:0:
87,363,48205,5,2,0:2:0:0:
8,113,48406,1,0,0:0:0:0:
87,363,48606,6,0,B|176:356|217:294|217:294|195:261,2,175.00000166893,2|0|2,3:1|0:0|0:1,0:0:0:0:
193,195,49211,2,0,P|220:195|279:245,1,87.500000834465
432,248,49412,6,0,B|354:204|343:130|343:130|377:109,1,175.00000166893,2|0,1:0|0:1,0:0:0:0:
432,248,49813,6,0,P|391:238|343:261,1,87.500000834465,2|0,3:1|0:0,0:0:0:0:
287,309,50015,1,0,0:0:0:0:
507,105,50216,6,0,L|499:68,1,37.5000014305115,2|0,0:2|0:0,0:0:0:0:
504,102,50418,2,0,L|512:65,1,37.5000014305115
402,64,50618,6,0,L|411:22,1,37.5000014305115
405,61,50819,2,0,L|396:21,1,37.5000014305115,2|0,0:2|0:0,0:0:0:0:
492,64,51020,6,0,L|500:100,1,37.5000014305115,2|0,0:2|0:0,0:0:0:0:
489,61,51222,2,0,L|479:97,1,37.5000014305115
415,22,51423,6,0,L|408:58,1,37.5000014305115,2|0,0:2|0:0,0:0:0:0:
418,19,51625,2,0,L|395:50,1,37.5000014305115
292,3,51826,6,0,B|275:7|275:7|260:38|260:38|232:17|232:17|215:23,2,100,2|2|2,0:3|0:2|0:3,0:0:0:0:
415,25,52832,1,2,0:3:0:0:
260,199,53033,1,2,0:3:0:0:
199,130,53234,1,2,0:3:0:0:
367,317,53436,2,0,B|385:312|385:312|392:280|392:280|416:279,1,75,2|0,0:3|0:0,0:0:0:0:
372,321,53838,2,0,B|360:331|360:331|334:331|334:331|327:370,1,75.0000028610231,2|0,0:2|0:0,0:0:0:0:
443,372,54240,1,2,0:3:0:0:
240,329,54442,1,2,0:3:0:0:
163,311,54643,1,2,0:3:0:0:
10,278,54844,1,2,0:3:0:0:
40,205,55045,6,0,B|23:187|23:187|33:155|33:155|18:136,1,75.0000028610231,2|0,0:3|0:0,0:0:0:0:
49,208,55448,2,0,B|72:208|72:208|90:180|90:180|114:179,1,75.0000028610231,2|0,0:2|0:0,0:0:0:0:
95,103,55850,1,2,0:3:0:0:
323,198,56051,1,2,0:3:0:0:
231,159,56252,1,2,0:3:0:0:
475,87,56454,1,2,0:3:0:0:
390,112,56655,2,0,P|360:33|474:87,1,300,2|0,0:1|0:0,0:0:0:0:
453,161,57057,2,0,B|464:191|464:191|468:171|468:171|489:211,1,75,2|0,0:2|0:0,0:0:0:0:
498,265,57460,1,2,0:3:0:0:
252,257,57661,1,2,0:3:0:0:
319,314,57862,1,2,0:3:0:0:
111,138,58063,5,2,0:3:0:0:
46,91,58264,2,0,B|26:107|26:107|34:150,1,50,2|0,0:3|0:0,0:0:0:0:
38,85,58667,2,0,B|27:108|27:108|-17:112,1,50,2|0,0:2|0:0,0:0:0:0:
96,30,59069,1,2,0:3:0:0:
181,276,59270,1,2,0:3:0:0:
121,340,59471,1,2,0:3:0:0:
284,167,59673,1,2,0:3:0:0:
337,101,59874,2,0,B|331:79|331:79|289:72,1,50,2|0,0:3|0:0,0:0:0:0:
331,106,60276,2,0,B|309:109|309:109|285:73,1,50,2|0,0:2|0:0,0:0:0:0:
240,29,60679,1,2,0:3:0:0:
351,308,60880,1,2,0:3:0:0:
429,263,61081,1,2,0:3:0:0:
398,135,61282,5,2,0:3:0:0:
429,342,61483,2,0,B|396:286|396:286|437:241|437:241|429:263,1,150,2|0,0:3|0:0,0:0:0:0:
429,342,61886,2,0,B|417:362|417:362|383:354,1,50,2|0,0:2|0:0,0:0:0:0:
372,362,62087,1,0,0:0:0:0:
251,338,62288,2,0,B|266:343|266:343|253:306,1,50,2|0,0:2|0:0,0:0:0:0:
251,338,62489,2,0,B|248:322|248:322|222:352,1,50
241,359,62691,1,2,0:2:0:0:
98,335,62892,2,0,B|82:317|82:317|106:329,1,50,2|0,0:2|0:0,0:0:0:0:
117,338,63294,2,0,B|143:333|143:333|110:353,1,50
107,330,63494,6,0,B|95:322|95:322|109:275,1,50,2|0,0:2|0:0,0:0:0:0:
371,247,63697,2,0,B|405:236|405:236|405:222,1,50
214,63,63898,2,0,B|203:28|203:28|215:20,1,50,2|0,0:3|0:0,0:0:0:0:
299,39,64099,5,2,0:3:0:0:
343,330,64300,1,2,0:3:0:0:
263,376,64501,2,0,P|244:363|235:344,1,33.3333333333333,2|0,0:3|0:0,0:0:0:0:
51,150,64702,6,0,B|16:166|16:166|66:193|75:278,1,150.000005722046,0|0,3:0|0:0,0:0:0:0:
220,58,65105,2,0,P|212:22|183:0,1,75.0000028610231,2|0,0:2|0:0,0:0:0:0:
154,145,65305,2,0,P|172:172|189:177,1,50,2|0,0:2|0:0,0:0:0:0:
424,92,65507,6,0,B|430:73|430:73|414:38|414:38|422:24,2,75.0000028610231,2|0|0,1:0|0:0|0:0,0:0:0:0:
423,24,65910,6,0,L|403:177,1,150.000005722046,0|0,3:0|0:0,0:0:0:0:
372,366,66312,1,2,0:2:0:0:
428,259,66513,2,0,L|348:275,1,75.0000028610231,2|0,0:2|0:0,0:0:0:0:
100,316,66714,6,0,B|84:311|84:311|71:275|71:275|52:266,2,75.0000028610231,2|0|0,3:1|0:0|0:0,0:0:0:0:
53,73,67116,5,8,0:2:0:0:
100,316,67318,2,0,P|104:278|117:243,1,75.0000028610231,0|0,3:0|0:0,0:0:0:0:
130,128,67519,1,0,0:0:0:0:
130,128,67720,2,0,P|97:147|73:174,1,75.0000028610231
100,316,67922,2,0,P|146:257|207:212,2,150.000005722046,0|0|2,3:0|0:0|0:2,0:0:0:0:
253,375,68525,1,2,0:2:0:0:
279,99,68726,6,0,B|287:85|287:85|271:50|271:50|276:30,2,75.0000028610231,2|0|0,1:0|0:0|0:0,0:0:0:0:
279,99,69129,6,0,P|302:32|373:27,1,150.000005722046,0|0,3:0|0:0,0:0:0:0:
175,95,69530,2,0,P|182:140|199:151,1,50,2|0,0:2|0:0,0:0:0:0:
397,185,69732,2,0,P|362:173|304:195,1,75.0000028610231,2|0,0:2|0:0,0:0:0:0:
203,311,69934,6,0,B|191:327|191:327|198:366|198:366|186:377,2,75.0000028610231,2|0|0,3:1|0:0|0:0,0:0:0:0:
0,113,70336,1,8,0:2:0:0:
22,279,70537,6,0,B|14:226|65:176|130:197|130:197|120:257,1,200,0|0,3:0|0:0,0:0:0:0:
42,187,70940,2,0,B|50:207|50:207|143:240,1,100,0|0,3:0|0:0,0:0:0:0:
413,306,71141,5,0,3:0:0:0:
406,314,71342,1,0,0:0:0:0:
417,317,71543,1,2,0:2:0:0:
402,304,71744,1,2,0:2:0:0:
491,83,71945,6,0,B|483:69|483:69|499:34|499:34|494:14,2,75.0000028610231,2|0|0,1:0|0:0|0:0,0:0:0:0:
494,14,72348,6,0,P|472:90|394:71,1,150.000005722046,0|0,3:0|0:0,0:0:0:0:
227,6,72750,2,0,P|201:33|168:51,1,75.0000028610231,2|0,0:2|0:0,0:0:0:0:
234,136,72951,2,0,P|282:79|346:40,2,150.000005722046,2|2|0,0:2|3:2|0:0,0:0:0:0:
4,354,73555,1,8,0:2:0:0:
102,367,73756,2,0,P|97:331|85:295,1,75.0000028610231,0|0,3:0|0:0,0:0:0:0:
274,363,73957,2,0,P|256:283|230:220,1,150.000005722046
4,354,74360,5,0,3:0:0:0:
357,288,74561,1,0,0:0:0:0:
150,344,74762,1,2,0:2:0:0:
230,220,74963,2,0,P|216:290|214:319,1,75.0000028610231,2|0,0:2|0:0,0:0:0:0:
474,376,75165,1,2,1:2:0:0:
351,101,75366,1,0,0:0:0:0:
478,151,75567,2,0,P|462:116|422:1,1,150.000005722046,0|0,3:0|0:0,0:0:0:0:
77,99,75969,1,0,0:0:0:0:
143,39,76171,2,0,P|162:82|168:123,1,75.0000028610231
336,190,76372,1,0,3:0:0:0:
240,191,76573,2,0,P|263:144|266:117,1,75.0000028610231
120,14,76774,1,10,0:2:0:0:
25,45,76974,2,0,P|60:75|83:110,1,75.0000028610231,2|0,3:2|0:0,0:0:0:0:
295,269,77177,2,0,P|330:313|398:377,1,150.000005722046,2|0,0:1|3:0,0:0:0:0:
0,384,77579,5,6,3:2:0:0:
101,117,77780,1,0,0:0:0:0:
92,211,77981,1,0,0:0:0:0:
101,117,78182,2,0,P|52:125|10:144,1,75.0000028610231
84,384,78384,5,14,0:2:0:0:
389,193,78585,1,2,0:2:0:0:
227,160,78786,2,0,P|215:120|205:2,1,150.000005722046,2|0,3:1|0:0,0:0:0:0:
168,384,79188,5,6,0:2:0:0:
336,98,79390,1,0,0:0:0:0:
446,275,79591,1,2,3:2:0:0:
336,98,79792,2,0,P|373:89|405:69,1,75.0000028610231,2|0,0:2|0:0,0:0:0:0:
256,384,79993,5,14,0:2:0:0:
82,140,80194,1,0,3:0:0:0:
256,384,80396,1,2,0:2:0:0:
389,193,80597,2,0,P|345:213|320:232,1,75.0000028610231,2|0,0:2|0:0,0:0:0:0:
344,384,80798,5,6,3:2:0:0:
63,240,80999,1,0,0:0:0:0:
113,52,81200,2,0,P|132:136|145:213,1,150.000005722046
428,384,81603,5,14,0:2:0:0:
485,308,81804,2,0,P|442:280|414:254,1,75.0000028610231,2|0,0:2|0:0,0:0:0:0:
389,67,82005,1,2,3:1:0:0:
389,67,82206,2,0,P|383:111|380:156,1,75.0000028610231
512,384,82408,5,6,0:2:0:0:
256,264,82609,1,0,0:0:0:0:
428,384,82810,5,2,3:2:0:0:
113,286,83011,1,0,0:0:0:0:
344,384,83212,5,14,0:2:0:0:
10,362,83414,1,2,3:2:0:0:
255,383,83615,5,2,0:1:0:0:
256,0,84017,6,0,L|337:19,2,75,2|2|0,3:1|0:1|0:0,0:0:0:0:
260,4,84822,6,0,L|210:19,1,50,10|0,0:1|0:0,0:0:0:0:
212,18,85124,2,0,P|170:6|76:65,1,150,2|0,0:1|0:0,0:0:0:0:
260,4,85627,6,0,L|264:53,1,50,2|0,0:1|0:0,0:0:0:0:
264,53,85928,2,0,P|252:109|282:196,1,150,2|0,0:1|0:0,0:0:0:0:
310,355,86431,1,2,0:2:0:0:
310,355,86532,2,0,P|333:310|261:347,1,200
512,90,87236,5,2,3:2:0:0:
409,223,87437,2,0,P|426:172|436:115,2,100
212,306,88041,1,8,0:1:0:0:
297,313,88242,2,0,P|289:277|283:258,1,50,2|0,0:2|0:0,0:0:0:0:
165,197,88443,1,0,3:0:0:0:
159,201,88644,2,0,P|149:235|145:256,1,50
0,278,88846,1,2,0:2:0:0:
62,219,89047,1,0,0:0:0:0:
19,371,89248,2,0,P|64:346|118:326,1,100,0|2,3:0|0:2,0:0:0:0:
189,137,89651,2,0,P|141:121|27:61,1,150,10|0,0:1|0:0,0:0:0:0:
46,81,90052,6,0,P|52:107|69:123,1,50,2|0,0:2|0:0,0:0:0:0:
148,33,90253,1,0,3:0:0:0:
148,33,90455,2,0,B|254:19|246:125|369:98,1,225.000008583069,2|0,3:2|0:0,0:0:0:0:
419,52,90857,2,0,P|432:5|413:46,1,150.000005722046,2|0,0:1|0:0,0:0:0:0:
353,100,91260,2,0,B|351:125|351:125|332:105|332:105|290:139|305:210,1,150,10|0,0:1|0:0,0:0:0:0:
355,255,91662,2,0,P|381:252|403:243,1,50,2|0,3:2|0:0,0:0:0:0:
144,338,92064,2,0,P|119:334|93:333,1,50,2|0,0:2|0:0,0:0:0:0:
83,342,92366,2,0,P|84:355|86:366,1,25,2|0,0:2|3:0,0:0:0:0:
234,371,92668,2,0,P|248:303|275:272,1,100,2|8,0:2|0:1,0:0:0:0:
448,163,93071,5,2,3:2:0:0:
351,95,93272,1,2,0:2:0:0:
353,102,93472,2,0,P|347:126|337:149,1,50,2|0,0:2|0:0,0:0:0:0:
176,168,93674,2,0,P|183:102|224:30,2,125,2|0|0,3:2|0:0|0:0,0:0:0:0:
0,56,94278,1,0,0:0:0:0:
96,62,94479,2,0,P|87:92|74:120,1,62.5,8|0,0:1|0:0,0:0:0:0:
74,120,94680,1,2,0:2:0:0:
215,276,94882,6,0,B|237:204|237:204|257:236|301:226|301:226|319:155|436:140|436:140|414:128|414:128|406:144|406:144|387:131|387:131|375:148|375:148|353:137|353:137|337:157|337:157|323:144|323:144|309:164|309:164|292:149|292:149|277:166|277:166|254:159|254:159|242:188,1,600.000022888185,2|0,3:2|0:0,1:0:0:0:
335,307,96893,6,0,P|300:322|273:348,1,75.0000028610231,2|0,3:2|0:0,0:0:0:0:
441,229,97095,2,0,P|463:239|488:241,1,50
345,187,97296,1,2,0:1:0:0:
387,376,97497,2,0,B|357:216|357:216|363:207|363:207|338:180,1,200,2|8,0:1|0:2,0:0:0:0:
0,175,97899,5,0,0:0:0:0:
140,334,98101,1,2,3:2:0:0:
140,334,98302,2,0,P|110:345|67:336,1,62.5
40,265,98503,2,0,P|78:234|100:189,1,100,2|0,0:2|0:0,0:0:0:0:
223,74,98704,2,0,P|212:39|187:12,1,75.0000028610231
123,61,98905,1,2,3:1:0:0:
164,249,99107,2,0,B|134:89|134:89|140:80|140:80|122:60,1,200,2|8,0:1|0:2,0:0:0:0:
493,22,99509,5,0,3:0:0:0:
300,120,99710,1,2,0:2:0:0:
374,45,99911,2,0,P|404:76|413:128,1,75.0000028610231
349,266,100113,2,0,L|225:233,1,112.500004291535,2|0,3:2|0:0,0:0:0:0:
214,233,100314,2,0,L|176:299,1,75.0000028610231
398,194,100515,1,0,0:0:0:0:
276,283,100716,2,0,L|383:257,1,75.0000028610231,2|0,0:2|0:0,0:0:0:0:
506,222,100917,1,8,1:2:0:0:
506,222,101119,2,0,L|382:189,1,112.500004291535
370,189,101320,2,0,L|349:114,1,75.0000028610231,2|0,3:2|0:0,0:0:0:0:
148,26,101521,1,0,0:0:0:0:
324,0,101722,1,2,0:2:0:0:
169,211,101923,2,0,P|139:152|147:113,1,100
289,222,102124,2,0,P|270:255|268:275,1,50,2|0,3:1|0:0,0:0:0:0:
102,265,102326,2,0,B|259:223|259:223|264:214|264:214|290:223,1,200,2|8,0:1|0:2,0:0:0:0:
509,37,102728,6,0,B|466:102|383:82|374:9|374:9|406:-10,1,200,0|2,3:0|0:2,0:0:0:0:
509,37,103131,2,0,B|486:40|486:40|472:118,1,100,0|0,3:0|0:0,0:0:0:0:
438,384,103331,5,2,3:2:0:0:
502,337,103533,1,2,0:0:0:0:
438,384,103733,1,2,0:0:0:0:
311,320,103935,2,0,P|325:278|352:246,1,75.0000028610231,2|0,0:1|0:0,0:0:0:0:
196,120,104136,2,0,P|234:82|329:47,1,150.000005722046,2|0,1:0|0:0,0:0:0:0:
322,47,104539,6,0,P|283:75|245:85,1,62.5,2|0,3:2|0:0,0:0:0:0:
171,212,104740,2,0,P|114:179|96:144,1,75.0000028610231
14,210,104941,1,2,0:2:0:0:
196,120,105142,1,0,0:0:0:0:
14,210,105343,1,0,3:0:0:0:
2,315,105545,2,0,P|58:311|90:286,1,75.0000028610231,2|0,0:1|0:0,0:0:0:0:
223,292,105746,2,0,P|255:248|255:201,1,100,2|0,1:0|0:0,0:0:0:0:
360,354,105947,6,0,P|334:347|313:317,1,62.5,2|0,3:1|0:0,0:0:0:0:
171,212,106148,2,0,P|176:161|199:139,1,75.0000028610231,2|0,0:1|0:0,0:0:0:0:
109,34,106350,2,0,P|153:2|205:1,1,100,2|0,0:2|0:0,0:0:0:0:
256,60,106551,1,2,3:2:0:0:
48,162,106752,1,0,0:0:0:0:
255,203,106953,1,2,0:2:0:0:
305,278,107154,1,2,0:2:0:0:
463,2,107356,1,2,1:2:0:0:
376,38,107557,2,0,P|374:69|366:99,1,62.5
472,302,107758,1,2,3:2:0:0:
466,298,107959,2,0,P|467:266|475:236,1,62.5
454,142,108160,1,2,0:2:0:0:
302,178,108362,1,0,0:0:0:0:
454,142,108563,1,0,3:0:0:0:
417,46,108764,2,0,P|386:68|360:128,1,75.0000028610231,2|0,0:1|0:0,0:0:0:0:
139,146,108965,2,0,P|127:195|149:275,1,100,2|0,1:0|0:0,0:0:0:0:
301,368,109166,6,0,B|342:318|293:243|232:256|232:256|212:300,1,200,0|2,3:0|0:2,0:0:0:0:
301,368,109568,2,0,B|288:348|288:348|315:247,1,100,0|0,3:0|0:0,0:0:0:0:
512,0,109770,5,6,3:2:0:0:
411,267,109971,1,0,0:0:0:0:
359,186,110172,1,2,0:2:0:0:
411,267,110373,2,0,P|430:234|455:207,1,75.0000028610231,2|0,0:2|0:0,0:0:0:0:
428,0,110575,5,12,0:2:0:0:
230,254,110776,1,0,0:0:0:0:
253,164,110977,2,0,P|276:235|312:300,1,150.000005722046,2|0,3:2|0:0,0:0:0:0:
344,0,111379,5,6,0:2:0:0:
165,180,111581,1,0,0:0:0:0:
2,109,111782,1,2,3:2:0:0:
66,190,111983,2,0,P|85:156|93:119,1,75.0000028610231,2|0,0:2|0:0,0:0:0:0:
256,0,112184,5,12,0:2:0:0:
409,226,112385,1,0,3:0:0:0:
385,318,112587,2,0,P|361:246|325:181,1,150.000005722046,2|0,0:2|0:0,0:0:0:0:
168,0,112989,5,6,3:2:0:0:
59,267,113190,1,0,0:0:0:0:
267,211,113391,1,2,0:2:0:0:
143,208,113593,2,0,P|155:240|165:285,1,75.0000028610231,2|0,0:2|0:0,0:0:0:0:
84,0,113794,5,12,0:2:0:0:
27,76,113995,2,0,P|65:108|102:129,1,75.0000028610231
267,211,114196,1,2,3:2:0:0:
267,211,114397,2,0,P|236:178|198:151,1,75.0000028610231
0,0,114599,5,6,0:2:0:0:
327,18,114800,1,0,0:0:0:0:
84,0,115001,5,2,3:2:0:0:
378,118,115202,1,2,0:2:0:0:
168,0,115403,5,12,0:2:0:0:
352,235,115605,1,0,3:0:0:0:
256,0,115806,5,2,0:2:0:0:
255,292,116007,1,0,3:0:0:0:
13,337,116208,6,0,P|30:322|101:280,1,100,2|0,3:2|0:0,0:0:0:0:
38,219,116610,1,2,0:1:0:0:
206,292,116812,2,0,B|171:313|146:349|146:349|158:365,1,100,2|8,0:1|0:1,0:0:0:0:
419,371,117214,5,0,0:0:0:0:
503,300,117415,1,0,3:0:0:0:
493,297,117616,1,0,0:0:0:0:
483,301,117817,2,0,P|447:280|436:218,1,100,2|0,0:2|0:0,0:0:0:0:
379,82,118220,1,2,3:1:0:0:
508,184,118420,2,0,B|486:145|437:141|437:141|412:161,1,100,2|8,0:1|0:1,0:0:0:0:
252,28,118824,5,0,3:0:0:0:
353,0,119025,1,0,0:0:0:0:
260,60,119226,1,0,3:0:0:0:
156,52,119427,2,0,P|129:20|122:3,1,50,2|0,3:2|0:0,0:0:0:0:
44,109,119628,2,0,P|28:62|28:13,1,100
41,18,120030,2,0,P|14:49|6:75,1,50,2|0,0:2|0:0,0:0:0:0:
0,194,120231,1,8,0:1:0:0:
52,124,120432,2,0,P|74:158|78:185,1,50,2|0,0:2|0:0,0:0:0:0:
39,292,120634,2,0,P|30:336|-10:391,1,100,4|0,3:1|0:0,0:0:0:0:
287,313,121036,1,2,0:2:0:0:
214,364,121237,1,0,0:0:0:0:
132,328,121438,1,2,3:1:0:0:
357,363,121639,2,0,B|416:363|438:351|438:351|428:330,1,100,2|8,0:1|0:1,0:0:0:0:
512,198,122042,6,0,L|490:135,1,50,0|0,3:0|0:0,0:0:0:0:
424,220,122243,1,0,0:0:0:0:
432,223,122444,2,0,L|410:160,1,50,0|0,3:0|0:0,0:0:0:0:
428,7,122645,2,0,P|460:12|519:65,1,100,2|0,3:2|0:0,0:0:0:0:
429,93,123049,1,0,0:0:0:0:
249,53,123249,2,0,L|346:75,1,100,2|8,0:2|0:1,0:0:0:0:
77,7,123651,1,2,0:2:0:0:
163,29,123853,2,0,P|153:51|126:76,1,50,0|0,3:0|0:0,0:0:0:0:
24,135,124054,1,0,0:0:0:0:
31,129,124255,2,0,P|15:64|-7:26,1,100,2|0,0:2|0:0,0:0:0:0:
95,199,124657,1,2,3:1:0:0:
91,291,124859,2,0,B|84:340|52:364|52:364|38:344,1,100,2|8,0:1|0:1,0:0:0:0:
0,281,125262,5,0,3:0:0:0:
229,370,125463,2,0,P|267:367|328:335,1,100
400,352,125764,1,0,0:0:0:0:
400,352,125865,2,0,B|408:278|408:278|464:342,1,150,2|2,3:2|0:2,0:0:0:0:
482,342,126268,1,0,0:0:0:0:
479,185,126468,2,0,L|439:75,1,100,2|8,0:2|0:1,0:0:0:0:
394,16,126871,2,0,B|426:53|426:53|431:-1,2,100,0|0|0,0:0|3:0|0:0,0:0:0:0:
512,36,127475,1,2,0:2:0:0:
342,92,127676,1,0,0:0:0:0:
173,49,127877,1,2,3:1:0:0:
256,83,128078,2,0,B|272:51|266:7|266:7|228:-2,1,100,2|8,0:1|0:1,0:0:0:0:
234,252,128480,6,0,L|287:246,1,50,2|0,3:2|0:0,0:0:0:0:
349,191,128681,2,0,P|355:167|366:144,1,50,2|0,0:2|0:0,0:0:0:0:
139,160,128882,2,0,P|155:179|166:202,1,50,0|0,3:0|0:0,0:0:0:0:
272,373,129084,6,0,L|256:197,1,150.000005722046,6|0,3:2|0:0,0:0:0:0:
398,343,129487,1,2,0:2:0:0:
115,279,129688,1,0,0:0:0:0:
338,102,129889,5,12,0:2:0:0:
347,106,130090,1,0,0:0:0:0:
345,116,130292,2,0,P|310:127|264:152,1,75.0000028610231,0|0,3:0|0:0,0:0:0:0:
200,118,130493,1,2,0:2:0:0:
419,280,130694,2,0,P|349:307|277:330,1,150.000005722046,6|0,0:2|0:0,0:0:0:0:
15,278,131096,1,0,3:0:0:0:
61,354,131298,1,0,0:0:0:0:
183,189,131499,6,0,L|199:116,1,75.0000028610231,14|0,0:2|0:0,0:0:0:0:
44,21,131700,2,0,L|8:190,1,150.000005722046,2|0,3:2|0:0,0:0:0:0:
134,44,132102,1,0,0:0:0:0:
388,85,132304,6,0,P|412:71|436:29,1,75.0000028610231,6|0,3:2|0:0,0:0:0:0:
512,160,132706,2,0,P|419:185|370:218,1,150.000005722046,0|2,0:0|0:2,0:0:0:0:
179,242,133108,2,0,P|258:265|383:359,1,225.000008583069,14|0,0:2|0:0,0:0:0:0:
457,337,133511,1,2,3:2:0:0:
499,258,133712,2,0,P|502:294|485:327,1,75.0000028610231
281,352,133913,6,0,P|288:302|304:272,1,75.0000028610231,6|0,0:2|0:0,0:0:0:0:
94,273,134316,2,0,P|141:207|235:179,1,150.000005722046,0|0,3:0|0:0,0:0:0:0:
437,72,134717,2,0,P|416:39|383:18,1,75.0000028610231,14|0,0:2|0:0,0:0:0:0:
223,0,134919,6,0,B|188:39|227:124|311:85|311:85|306:39,1,200,2|0,3:2|0:0,0:0:0:0:
387,20,135322,2,0,B|380:46|380:46|287:64,1,100,0|0,3:0|0:0,0:0:0:0:
18,162,135523,5,4,3:2:0:0:
29,161,135724,1,0,0:0:0:0:
38,156,135925,2,0,P|16:75|14:7,1,150.000005722046,2|0,0:2|0:0,0:0:0:0:
175,206,136327,2,0,L|157:300,1,75.0000028610231,14|0,0:2|0:0,0:0:0:0:
86,322,136529,1,0,0:0:0:0:
312,337,136730,2,0,L|159:367,1,150.000005722046,0|0,3:0|0:0,0:0:0:0:
467,307,137132,6,0,P|489:335|506:379,1,75.0000028610231,6|0,0:2|0:0,0:0:0:0:
506,215,137535,2,0,P|467:140|459:49,1,150.000005722046,2|0,3:2|0:0,0:0:0:0:
256,14,137937,2,0,P|303:25|338:17,1,75.0000028610231,14|0,0:2|0:0,0:0:0:0:
415,0,138138,5,2,3:2:0:0:
303,217,138339,1,0,0:0:0:0:
395,199,138541,1,0,0:0:0:0:
222,350,138742,6,0,P|208:318|201:244,1,100,6|0,3:2|0:0,0:0:0:0:
55,384,139144,2,0,P|51:332|22:231,1,150.000005722046,2|0,0:2|0:0,0:0:0:0:
93,0,139547,2,0,L|71:81,1,75.0000028610231,14|0,0:2|0:0,0:0:0:0:
51,156,139748,1,0,0:0:0:0:
274,74,139949,1,2,3:2:0:0:
205,14,140150,1,0,0:0:0:0:
325,229,140351,6,0,P|342:182|345:132,1,100,6|0,0:2|0:0,0:0:0:0:
467,270,140754,2,0,P|477:195|501:124,1,150,2|0,3:2|0:0,0:0:0:0:
229,100,141156,2,0,L|245:195,1,75.0000028610231,14|0,0:2|0:0,0:0:0:0:
227,361,141356,6,0,B|274:383|344:320|282:251|282:251|240:270,1,200,2|0,3:2|0:0,0:0:0:0:
302,342,141759,2,0,B|275:331|275:331|257:246,1,100,0|0,3:0|0:0,0:0:0:0:
234,7,141961,6,0,L|271:-1,2,37.5,2|2|2,3:1|0:2|0:2,0:0:0:0:
156,23,142665,1,0,0:0:0:0:
156,23,142766,2,0,P|150:64|137:111,2,62.5,2|0|0,1:0|0:0|0:0,0:0:0:0:
8,230,143168,1,0,3:0:0:0:
87,271,143369,1,0,0:0:0:0:
14,221,143570,6,0,L|21:197,1,25,2|0,0:1|0:0,0:0:0:0:
81,284,143973,2,0,P|66:318|32:346,1,75.0000028610231,0|0,3:0|0:0,0:0:0:0:
170,308,144174,2,0,L|199:302,1,25
349,277,144374,2,0,L|374:273,2,25,2|0|0,1:0|3:0|0:0,0:0:0:0:
462,134,144978,6,0,L|473:162,1,25
512,66,145180,2,0,P|495:17|495:-16,1,62.5,2|0,3:1|0:0,0:0:0:0:
500,2,145381,1,0,0:0:0:0:
339,170,145582,5,2,0:2:0:0:
344,174,145784,1,0,0:0:0:0:
482,360,145985,6,0,L|505:349,1,25,2|0,1:0|0:0,0:0:0:0:
267,301,146387,1,0,3:0:0:0:
376,325,146588,6,0,L|343:318,1,25
161,272,146790,2,0,L|185:277,1,25,2|0,0:1|0:0,0:0:0:0:
267,301,147192,2,0,L|259:203,1,75.0000028610231,0|0,3:0|0:0,0:0:0:0:
246,0,147393,1,0,0:0:0:0:
264,113,147594,6,0,L|238:105,1,25,2|0,1:0|0:0,0:0:0:0:
16,59,147796,5,0,3:0:0:0:
512,171,148198,5,0,3:0:0:0:
260,366,148399,2,0,L|250:282,1,75,2|0,0:1|0:0,0:0:0:0:
249,279,148801,2,0,L|245:250,2,25
348,0,149204,6,0,L|343:29,1,25,2|0,1:0|0:0,0:0:0:0:
413,86,149606,2,0,L|382:99,1,25
255,54,149807,2,0,L|279:76,1,25
317,144,150009,5,2,0:1:0:0:
315,153,150210,1,0,0:0:0:0:
289,228,150411,2,0,L|281:252,1,25
0,33,150813,6,0,P|-1:-3|5:32,1,100,2|0,1:0|0:0,0:0:0:0:
0,12,151216,5,0,0:0:0:0:
165,194,151417,2,0,L|135:188,1,25
6,166,151618,1,2,0:1:0:0:
14,163,151819,1,0,0:0:0:0:
13,172,152021,1,0,0:0:0:0:
4,157,152222,1,0,0:0:0:0:
55,345,152422,6,0,P|35:374|43:340,1,100,2|0,1:0|0:0,0:0:0:0:
386,212,152825,6,0,L|374:233,1,25,2|0,0:2|0:0,0:0:0:0:
397,208,153027,2,0,L|415:225,1,25,2|0,0:2|0:0,0:0:0:0:
451,344,153228,6,0,B|445:352|445:352|467:318|467:318|510:304|510:304|429:271|407:322|423:327|413:389|316:354|316:354|354:336|354:336|367:311|367:311|374:313,2,400,2|2|2,1:1|1:1|1:1,0:0:0:0:
55,253,155543,6,0,B|76:142|76:142|105:204,2,150.000005722046,2|2|0,3:0|3:0|1:0,0:0:0:0:
192,361,156532,2,0,P|244:347|303:342,1,100.000003814697
192,361,156861,1,0,3:0:0:0:
504,223,157191,1,0,3:0:0:0:
461,323,157521,2,0,L|433:267,1,50.0000019073487,0|0,1:0|0:0,0:0:0:0:
312,9,157850,1,0,0:0:0:0:
489,109,158070,1,2,0:3:0:0:
469,19,158180,6,0,B|443:51|443:51|465:181,2,150.000005722046,2|2|0,3:0|3:0|1:0,0:0:0:0:
222,155,159169,2,0,P|230:93|224:33,1,100.000003814697
222,155,159499,1,0,3:0:0:0:
32,22,159828,1,0,3:0:0:0:
141,44,160158,2,0,L|87:77,1,50.0000019073487,2|0,1:2|0:0,0:0:0:0:
89,115,160378,2,0,L|42:98,2,50.0000019073487,2|0|0,0:2|0:0|0:0,0:0:0:0:
145,270,160707,1,2,0:3:0:0:
11,170,160817,6,0,B|61:254|61:254|38:312,2,150.000005722046,2|2|0,3:0|3:0|1:0,0:0:0:0:
160,361,161806,2,0,P|168:313|193:236,1,100.000003814697
160,361,162136,1,0,3:0:0:0:
284,103,162466,1,0,3:0:0:0:
295,206,162795,2,0,L|222:185,1,50.0000019073487,0|0,1:0|0:0,0:0:0:0:
512,239,163125,1,0,0:0:0:0:
323,344,163345,1,2,0:3:0:0:
403,379,163455,6,0,B|421:283|421:283|376:232,2,150.000005722046,2|0|0,3:0|3:0|1:0,0:0:0:0:
479,171,164444,2,0,P|484:123|499:73,1,100.000003814697
479,171,164773,1,0,3:0:0:0:
251,12,165103,1,0,3:0:0:0:
378,39,165433,2,0,L|319:67,1,50.0000019073487,2|0,1:2|0:0,0:0:0:0:
304,108,165652,1,2,0:2:0:0:
304,108,165762,2,0,L|242:95,1,50.0000019073487,2|0,0:2|0:0,0:0:0:0:
86,64,165982,1,2,0:3:0:0:
158,6,166092,6,0,P|176:76|177:96,1,75.0000028610231,2|0,3:2|0:0,0:0:0:0:
0,78,166422,2,0,P|18:148|20:173,1,75.0000028610231,2|0,3:0|0:0,0:0:0:0:
80,333,166751,6,0,B|77:353|103:370|163:360|198:315|162:252|80:212|-15:314|3:338,2,300.000011444092,0|0|0,1:0|3:0|1:0,1:0:0:0:
209,159,168400,1,0,0:0:0:0:
0,211,168619,1,2,0:3:0:0:
25,119,168729,6,0,P|54:139|93:182,1,75.0000028610231,2|0,3:2|0:0,0:0:0:0:
214,163,169059,2,0,P|240:189|341:256,1,150.000005722046,2|0,3:0|1:0,0:0:0:0:
414,236,169553,1,0,0:0:0:0:
128,300,169938,1,0,0:0:0:0:
195,383,170048,6,0,B|218:301|218:301|296:320,2,150.000005722046,0|0|0,3:0|3:0|1:0,0:0:0:0:
512,251,171037,1,0,0:0:0:0:
379,338,171257,1,2,0:3:0:0:
465,351,171367,6,0,L|454:293,1,50.0000019073487,2|0,3:0|0:0,0:0:0:0:
420,272,171586,1,2,0:2:0:0:
420,272,171696,2,0,L|431:214,1,50.0000019073487,2|0,3:0|0:0,0:0:0:0:
474,9,172026,1,0,1:0:0:0:
234,80,172356,1,0,0:0:0:0:
376,123,172575,1,0,0:0:0:0:
357,41,172685,6,0,B|310:70|310:70|337:191,2,150.000005722046,0|0|0,3:0|3:0|1:0,0:0:0:0:
126,88,173674,2,0,P|80:66|32:54,1,100.000003814697,0|2,0:0|0:3,0:0:0:0:
129,91,174004,6,0,P|118:128|111:172,1,75.0000028610231,2|0,3:2|0:0,0:0:0:0:
266,353,174334,2,0,P|277:317|284:281,1,75.0000028610231,2|0,3:0|0:0,0:0:0:0:
284,280,174663,1,0,1:0:0:0:
19,168,176641,6,0,B|128:137|107:236|205:205,1,200,2|0,3:1|3:0,0:0:0:0:
282,169,177081,1,2,0:2:0:0:
253,282,177191,1,2,0:2:0:0:
253,282,177301,2,0,P|237:203|195:88,1,200,2|0,1:0|0:0,0:0:0:0:
504,277,177850,1,0,0:0:0:0:
455,353,177960,2,0,B|398:319|398:319|433:231,1,133.333333333333,2|0,3:1|0:0,0:0:0:0:
422,256,178290,2,0,B|475:245|475:245|481:193,1,100,0|0,3:0|0:0,0:0:0:0:
473,0,178619,6,0,B|381:7|438:41|338:54,1,133.333333333333,2|0,1:0|0:0,0:0:0:0:
272,38,178949,2,0,P|279:83|302:126,1,66.6666666666667,2|0,0:2|0:0,0:0:0:0:
320,199,179169,1,2,0:2:0:0:
387,145,179279,1,2,3:1:0:0:
176,76,179499,1,0,0:0:0:0:
198,158,179608,2,0,P|121:140|93:89,1,133.333333333333,2|0,3:2|0:0,0:0:0:0:
16,51,179938,2,0,P|37:40|70:9,2,66.6666666666667,2|2|0,1:0|0:2|0:0,0:0:0:0:
5,134,180268,1,2,0:2:0:0:
283,62,180488,1,0,0:0:0:0:
215,115,180597,2,0,B|171:61|171:61|218:3,1,133.333333333333,2|0,3:1|0:0,0:0:0:0:
212,12,180927,2,0,B|197:86,1,66.6666666666667,0|0,3:0|0:0,0:0:0:0:
76,242,181257,5,2,1:0:0:0:
99,327,181367,2,0,P|106:282|184:232,1,133.333333333333,2|0,0:2|0:0,0:0:0:0:
174,233,181696,2,0,P|189:261|234:273,1,66.6666666666667,2|0,0:2|0:0,0:0:0:0:
278,378,181916,2,0,B|299:285|325:346|350:255,1,133.333333333333,2|0,3:1|0:0,0:0:0:0:
397,174,182246,2,0,P|424:180|462:199,1,66.6666666666667,2|0,3:2|0:0,0:0:0:0:
512,259,182466,1,2,0:2:0:0:
467,328,182575,2,0,P|397:280|345:272,1,133.333333333333,2|0,1:0|0:0,0:0:0:0:
276,140,182905,2,0,P|334:171|400:177,1,133.333333333333,0|2,0:0|0:2,0:0:0:0:
470,133,183235,2,0,B|488:69|488:69|439:19,1,133.333333333333,2|0,3:1|0:0,0:0:0:0:
441,21,183564,2,0,L|361:39,1,66.6666666666667,0|0,3:0|0:0,0:0:0:0:
273,143,183784,1,0,0:0:0:0:
217,84,183894,2,0,P|228:23|261:-4,1,100,2|0,1:0|0:0,0:0:0:0:
300,69,184224,2,0,L|316:119,1,50,2|0,0:2|0:0,0:0:0:0:
220,87,184389,2,0,L|236:142,1,50,2|0,0:2|0:0,0:0:0:0:
262,314,184553,2,0,P|271:259|296:220,1,100,2|0,3:1|0:0,0:0:0:0:
102,178,184883,2,0,P|93:213|80:243,1,66.6666666666667,2|0,3:2|0:0,0:0:0:0:
25,314,185103,1,0,0:0:0:0:
114,346,185213,2,0,P|70:322|22:311,1,100,2|0,1:0|0:0,0:0:0:0:
118,350,185543,2,0,P|142:365|182:379,1,66.6666666666667,2|0,0:2|0:0,0:0:0:0:
274,165,185872,2,0,B|248:106|248:106|179:131,1,133.333333333333,2|0,3:1|0:0,0:0:0:0:
183,129,186202,2,0,B|212:149|212:149|286:119,1,100,0|0,3:0|0:0,0:0:0:0:
512,96,186532,5,2,1:0:0:0:
474,18,186641,2,0,P|462:55|448:159,1,133.333333333333,2|0,0:2|0:0,0:0:0:0:
465,233,186971,2,0,P|414:219|372:214,1,66.6666666666667,2|0,0:2|0:0,0:0:0:0:
258,196,187191,1,2,3:1:0:0:
330,257,187301,1,2,0:2:0:0:
330,257,187411,1,2,0:2:0:0:
330,257,187521,2,0,P|359:186|315:136,1,133.333333333333,2|0,3:2|0:0,0:0:0:0:
247,282,187850,2,0,P|254:320|303:346,2,66.6666666666667,2|0|0,1:0|0:0|0:0,0:0:0:0:
262,200,188180,1,0,0:0:0:0:
509,183,188400,1,2,0:2:0:0:
461,249,188510,2,0,P|463:186|478:136,1,100,2|0,3:1|0:0,0:0:0:0:
512,0,188839,1,0,3:0:0:0:
207,74,189169,6,0,P|179:66|99:12,2,100,2|0|0,1:0|0:0|0:0,0:0:0:0:
335,124,189608,1,2,0:2:0:0:
296,51,189718,1,0,0:0:0:0:
296,51,189828,2,0,P|252:90|277:179,1,133.333333333333,2|0,3:1|0:0,0:0:0:0:
328,238,190158,2,0,P|300:189|204:72,1,200,2|2,3:2|1:0,0:0:0:0:
161,12,190597,2,0,P|128:30|93:44,2,66.6666666666667,2|0|0,0:2|0:0|0:0,0:0:0:0:
96,169,191037,1,2,0:2:0:0:
26,113,191147,2,0,P|81:131|148:179,1,100,2|0,3:1|0:0,0:0:0:0:
228,323,191477,1,0,3:0:0:0:
386,64,191806,6,0,P|388:99|372:150,1,66.6666666666667,2|0,1:0|0:0,0:0:0:0:
467,230,192026,1,2,0:2:0:0:
471,138,192136,2,0,P|459:170|432:205,1,66.6666666666667,2|0,0:2|0:0,0:0:0:0:
472,335,192356,2,0,B|457:362|457:362|415:285|292:276,1,200,2|0,0:0|0:0,1:0:0:0:
299,264,192795,2,0,P|281:300|197:324,1,133.333333333333,2|0,3:2|0:0,0:0:0:0:
139,199,193125,2,0,P|153:173|190:156,1,66.6666666666667,2|0,1:0|0:0,0:0:0:0:
59,293,193345,2,0,B|73:320|73:320|115:243|238:234,1,200,2|0,0:2|0:0,1:0:0:0:
375,34,193784,2,0,P|366:74|361:139,1,100,2|0,3:1|0:0,0:0:0:0:
143,1,194114,2,0,P|137:57|129:79,1,66.6666666666667,2|0,3:2|0:0,0:0:0:0:
150,142,194334,1,2,0:2:0:0:
258,62,194444,1,2,1:0:0:0:
283,334,194773,5,2,0:2:0:0:
205,290,194883,2,0,P|164:299|135:314,1,66.6666666666667,2|0,0:2|0:0,0:0:0:0:
240,205,195103,1,0,3:0:0:0:
310,254,195213,2,0,P|363:239|421:214,2,100,2|2|2,0:2|0:2|0:2,0:0:0:0:
145,313,195652,1,2,0:2:0:0:
145,313,195762,2,0,P|127:282|103:183,1,133.333333333333,0|0,1:0|0:0,0:0:0:0:
50,359,196092,1,2,0:2:0:0:
217,255,196257,1,2,0:2:0:0:
18,168,196422,1,2,3:2:0:0:
101,255,196586,1,0,0:0:0:0:
33,34,196751,6,0,B|14:11|14:11|46:92,1,100,2|0,3:2|0:0,0:0:0:0:
177,91,197081,2,0,B|121:46|121:46|149:56,1,100,2|0,1:3|0:0,0:0:0:0:
257,14,197411,2,0,B|227:11|227:11|311:39,1,100,2|0,0:3|0:0,0:0:0:0:
498,92,197740,6,0,B|404:82|425:180|310:157,1,200,2|0,3:1|3:0,0:0:0:0:
325,145,198180,2,0,P|344:172|352:204,1,66.6666666666667
284,282,198400,1,2,1:0:0:0:
462,229,198619,2,0,P|490:192|458:222,1,133.333333333333,2|0,0:2|0:0,1:0:0:0:
226,153,199059,2,0,P|226:86|212:22,1,133.333333333333,2|0,3:1|0:0,0:0:0:0:
291,215,199389,2,0,P|277:280|278:347,1,133.333333333333,2|0,3:2|0:0,0:0:0:0:
278,347,199718,1,2,1:0:0:0:
44,234,199938,2,0,P|53:188|51:233,1,133.333333333333,2|0,0:2|0:0,1:0:0:0:
78,314,200268,1,0,0:0:0:0:
47,237,200378,2,0,B|157:214|113:299|247:265,2,200,2|0|2,3:1|3:0|1:0,0:0:0:0:
87,189,201147,6,0,P|61:210|50:241,1,66.6666666666667,2|0,0:2|0:0,0:0:0:0:
136,298,201367,2,0,P|186:255|199:188,1,133.333333333333,2|0,0:2|0:0,0:0:0:0:
273,11,201696,2,0,L|300:220,1,200,2|0,3:1|3:0,0:0:0:0:
345,341,202136,2,0,P|363:311|360:276,1,66.6666666666667,2|0,0:2|0:0,0:0:0:0:
301,212,202356,1,2,1:0:0:0:
489,160,202575,2,0,P|512:121|482:154,1,133.333333333333,2|0,0:2|0:0,0:0:0:0:
455,231,202905,1,0,0:0:0:0:
502,138,203015,2,0,P|410:98|311:89,1,200,2|0,3:1|3:0,0:0:0:0:
84,258,203564,5,2,0:2:0:0:
74,352,203674,2,0,L|152:330,1,66.6666666666667,2|0,1:0|0:0,0:0:0:0:
228,314,203894,1,2,0:2:0:0:
228,314,204004,2,0,P|236:241|162:227,1,133.333333333333,2|0,0:2|0:0,0:0:0:0:
100,200,204334,2,0,P|81:182|83:144,1,66.6666666666667,2|0,3:1|0:0,0:0:0:0:
12,30,204553,1,2,0:2:0:0:
5,121,204663,2,0,P|68:103|100:47,1,133.333333333333,0|0,3:0|0:0,0:0:0:0:
197,26,204993,2,0,L|208:110,1,66.6666666666667,2|0,1:0|0:0,0:0:0:0:
183,74,205323,2,0,L|200:17,1,50,2|0,0:2|0:0,0:0:0:0:
117,4,205488,2,0,L|103:51,1,50,2|0,0:2|0:0,0:0:0:0:
286,200,205652,2,0,P|335:202|384:148,2,100,2|0|0,3:1|0:0|3:0,0:0:0:0:
491,151,206202,2,0,P|491:118|475:89,1,66.6666666666667,2|0,0:0|1:0,0:0:0:0:
319,48,206422,2,0,P|295:71|282:101,1,66.6666666666667,2|0,0:0|0:0,0:0:0:0:
376,175,206641,2,0,L|405:45,1,133.333333333333,2|0,0:2|0:0,0:0:0:0:
405,45,206971,1,0,3:0:0:0:
197,87,207136,2,0,P|153:78|101:58,2,100,2|0|0,0:2|3:0|0:0,0:0:0:0:
188,0,207630,1,2,1:2:0:0:
118,159,207740,1,2,0:2:0:0:
507,306,208180,5,0,0:0:0:0:
413,354,208290,2,0,P|416:317|516:275,1,133.333333333333,2|0,3:1|0:0,0:0:0:0:
509,176,208619,2,0,B|484:97|484:97|481:114|481:114|452:11,1,200,0|2,3:0|1:0,1:0:0:0:
293,40,209059,1,2,0:2:0:0:
370,8,209169,2,0,P|330:38|353:112,1,133.333333333333,2|0,0:2|0:0,0:0:0:0:
420,156,209499,1,2,0:2:0:0:
490,102,209608,2,0,B|474:56|474:56|467:61|467:61|452:3,2,100,2|0|0,3:1|0:0|3:0,1:0:0:0:
476,191,210048,2,0,L|408:148,1,66.6666666666667
342,187,210268,2,0,B|361:240|361:240|372:238|372:238|425:390,1,200,2|0,1:0|0:0,1:0:0:0:
342,187,210817,5,0,0:0:0:0:
229,326,210927,2,0,P|185:293|187:247,1,66.6666666666667,2|0,3:1|0:0,0:0:0:0:
182,199,211147,1,2,0:2:0:0:
92,271,211257,2,0,B|180:246|180:246|174:230|174:230|273:205,1,200,2|2,3:2|1:0,1:0:0:0:
354,78,211696,1,0,0:0:0:0:
261,123,211806,2,0,P|256:91|293:-1,1,133.333333333333
482,1,212136,1,0,0:0:0:0:
443,82,212246,2,0,P|434:26|396:-36,1,66.6666666666667,2|0,3:1|0:0,0:0:0:0:
354,78,212466,1,0,0:0:0:0:
354,78,212575,2,0,L|344:147,1,50,2|0,3:2|0:0,0:0:0:0:
475,195,212740,2,0,L|438:228,1,50,2|0,0:2|0:0,0:0:0:0:
321,240,212905,2,0,B|376:253|376:253|382:270|382:270|518:311,1,200,2|0,1:0|0:0,1:0:0:0:
73,219,213455,5,0,0:0:0:0:
219,281,213564,2,0,P|243:234|231:203,1,66.6666666666667,2|0,3:1|0:0,0:0:0:0:
154,228,213784,1,2,0:2:0:0:
188,358,213894,2,0,B|178:300|178:300|169:294|169:294|156:222,1,133.333333333333,2|0,3:2|0:0,1:0:0:0:
80,123,214224,2,0,L|58:205,1,66.6666666666667,2|0,1:0|0:0,0:0:0:0:
190,62,214444,1,2,0:2:0:0:
84,127,214553,2,0,B|149:113|155:165|235:146,1,133.333333333333,2|0,0:2|0:0,0:0:0:0:
367,92,214883,2,0,L|385:21,1,66.6666666666667,2|0,3:1|0:0,0:0:0:0:
300,40,215103,1,0,0:0:0:0:
238,215,215213,2,0,L|212:144,1,66.6666666666667,2|0,3:2|0:0,0:0:0:0:
145,199,215433,1,0,0:0:0:0:
381,300,215542,1,2,1:0:0:0:
456,361,215982,6,0,P|470:325|484:299,1,66.6666666666667
367,137,216202,2,0,P|392:75|412:11,1,133.333333333333,2|0,3:1|0:0,0:0:0:0:
412,11,216532,2,0,L|427:83,1,66.6666666666667,2|0,3:2|0:0,0:0:0:0:
505,112,216751,1,2,0:2:0:0:
306,19,216861,1,2,1:2:0:0:
366,136,217081,2,0,P|308:134|319:13,1,200,2|2,0:2|0:2,0:0:0:0:
387,16,217521,5,2,0:2:0:0:
395,24,217685,1,2,0:0:0:0:
470,57,217850,5,2,0:2:0:0:
465,67,218015,1,2,0:0:0:0:
511,134,218180,6,0,L|479:246,2,100,2|2|2,0:2|0:3|0:3,0:0:0:0:
21,378,226092,6,0,L|7:373,3,12.5,0|0|2|0,0:0|0:0|0:2|0:0,0:0:0:0:
64,311,226751,2,0,L|38:289,5,19.9999993896485,2|0|0|0|0|0,0:2|0:0|0:0|0:0|0:0|0:0,0:0:0:0:
150,268,227411,2,0,L|141:246,3,18.7500007152558
252,290,227740,2,0,L|261:253,1,33.3333333333333
392,260,227960,1,2,0:0:0:0:
392,260,228070,2,0,L|371:215,2,41.6666666666667,2|0|0,0:0|0:0|0:0,0:0:0:0:
457,152,228400,2,0,L|427:139,2,33.3333333333333,2|0|0,0:2|0:0|0:0,0:0:0:0:
429,58,228729,2,0,L|405:61,2,25.0000009536744,2|0|0,0:2|0:0|0:0,0:0:0:0:
430,142,229059,2,0,P|460:73|510:18,1,150.000005722046,2|2,0:2|0:2,0:0:0:0:
491,46,237301,6,0,P|509:34|515:33,2,25,2|0|0,0:2|0:0|0:0,0:0:0:0:
405,66,237795,2,0,P|403:47|410:30,2,37.5000014305115,2|0|0,0:0|0:0|0:0,0:0:0:0:
387,177,238125,2,0,P|367:161|354:140,5,50
388,331,238949,2,0,P|385:297|377:279,1,50,2|0,0:0|0:0,0:0:0:0:
494,347,239114,2,0,P|480:330|458:323,1,33.3333333333333,2|0,0:0|0:0,0:0:0:0:
256,192,239334,5,0,0:0:0:0:
256,192,239938,6,0,P|213:200|177:217,1,75.0000028610231,2|0,3:1|0:0,0:0:0:0:
240,327,240268,2,0,L|261:178,1,133.333333333333,2|0,3:2|0:0,0:0:0:0:
277,117,240597,2,0,L|204:76,1,66.6666666666667,2|0,1:0|0:0,0:0:0:0:
150,183,240817,2,0,L|73:48,1,133.333333333333,2|0,0:2|0:0,0:0:0:0:
13,29,241147,1,2,0:2:0:0:
156,20,241257,1,2,3:1:0:0:
32,355,241586,1,0,3:0:0:0:
156,20,241916,6,0,L|190:210,1,133.333333333333,2|0,1:0|0:0,0:0:0:0:
269,168,242246,2,0,L|249:239,1,66.6666666666667,2|0,0:2|0:0,0:0:0:0:
229,335,242466,1,2,0:2:0:0:
332,297,242575,2,0,P|318:237|234:271,1,133.333333333333,2|0,3:1|0:0,0:0:0:0:
173,305,242905,2,0,L|262:355,1,66.6666666666667,2|0,3:2|0:0,0:0:0:0:
306,380,243125,1,2,0:2:0:0:
454,342,243235,2,0,L|430:238,2,100,2|2|0,1:0|0:0|0:0,0:0:0:0:
375,182,243729,2,0,L|395:130,1,50,2|0,0:2|0:0,0:0:0:0:
448,7,243894,1,2,3:1:0:0:
231,337,244224,1,0,3:0:0:0:
448,7,244553,6,0,L|504:73,1,66.6666666666667,2|0,1:0|0:0,0:0:0:0:
375,182,244773,2,0,L|351:36,1,133.333333333333,2|0,0:2|0:0,0:0:0:0:
278,20,245103,1,2,0:2:0:0:
416,109,245213,2,0,P|310:105|254:192,1,200,2|0,3:1|3:0,0:0:0:0:
26,346,245762,5,2,0:2:0:0:
78,275,245872,2,0,L|27:137,1,133.333333333333,2|0,1:0|0:0,0:0:0:0:
52,7,246202,2,0,L|105:46,1,66.6666666666667,2|0,0:2|0:0,0:0:0:0:
0,70,246422,1,2,0:2:0:0:
141,82,246532,2,0,P|78:102|34:151,1,133.333333333333,2|0,3:1|0:0,0:0:0:0:
55,240,246861,1,2,3:2:0:0:
144,248,246971,2,0,L|79:231,1,66.6666666666667,2|0,0:2|0:0,0:0:0:0:
12,340,247191,2,0,B|25:368|25:368|155:229,1,200,2|0,1:0|0:0,1:0:0:0:
288,116,247685,2,0,P|298:143|303:178,1,50,2|0,0:2|0:0,0:0:0:0:
371,223,247850,1,2,3:1:0:0:
496,138,248015,1,2,0:2:0:0:
371,223,248180,2,0,P|384:169|416:135,1,100,2|0,3:2|0:0,0:0:0:0:
482,302,248510,2,0,P|478:252|454:209,2,100,2|0|0,1:0|0:0|0:0,0:0:0:0:
315,359,249059,1,2,0:2:0:0:
410,371,249169,2,0,L|375:272,1,66.6666666666667,2|0,3:1|0:0,0:0:0:0:
227,215,249389,1,2,0:2:0:0:
307,235,249499,2,0,B|308:272|308:272|220:310,1,133.333333333333,2|0,3:2|0:0,1:0:0:0:
388,309,249828,2,0,B|388:278|388:278|209:317,1,200,2|0,1:0|0:0,1:0:0:0:
13,274,250378,5,0,0:0:0:0:
67,333,250488,2,0,P|62:261|74:178,1,133.333333333333,2|0,3:1|0:0,0:0:0:0:
5,136,250817,2,0,L|73:110,1,66.6666666666667,2|0,3:2|0:0,0:0:0:0:
80,30,251037,1,2,0:2:0:0:
0,8,251147,1,2,1:0:0:0:
150,88,251312,1,2,0:0:0:0:
300,13,251477,1,2,0:2:0:0:
150,88,251641,1,2,0:0:0:0:
290,194,251806,2,0,L|266:83,1,100,2|0,3:1|0:0,0:0:0:0:
459,148,252136,2,0,L|365:0,1,150,2|0,3:2|0:0,0:0:0:0:
368,7,252466,1,2,1:0:0:0:
468,0,253015,5,2,0:2:0:0:
504,74,253125,2,0,L|475:134,1,66.6666666666667,2|0,3:1|0:0,0:0:0:0:
407,262,253345,1,2,0:2:0:0:
485,225,253455,2,0,B|489:194|489:194|373:167,1,133.333333333333,0|0,3:0|0:0,1:0:0:0:
489,229,253784,2,0,B|462:239|462:239|370:88,1,200,2|0,1:0|0:0,1:0:0:0:
405,106,254224,2,0,L|386:185,1,66.6666666666667,2|0,0:2|0:0,0:0:0:0:
338,323,254444,2,0,L|309:213,1,100,2|0,3:1|0:0,0:0:0:0:
138,372,254773,2,0,L|151:222,1,150,2|0,3:2|0:0,0:0:0:0:
152,211,255103,1,2,1:0:0:0:
96,292,255652,5,2,0:2:0:0:
25,365,255762,2,0,L|-4:275,1,66.6666666666667,2|0,3:1|0:0,0:0:0:0:
78,190,255982,1,2,0:2:0:0:
3,212,256092,2,0,P|60:237|100:297,1,133.333333333333,2|0,3:2|0:0,0:0:0:0:
200,358,256422,2,0,L|164:208,1,133.333333333333,2|0,1:0|0:0,0:0:0:0:
205,155,256751,1,2,0:2:0:0:
24,31,256916,1,0,0:0:0:0:
178,3,257081,1,2,3:1:0:0:
78,190,257246,1,2,0:0:0:0:
115,84,257411,2,0,P|209:115|334:109,2,200,2|2|0,3:2|1:0|0:0,0:0:0:0:
115,84,258152,6,0,B|103:28|103:28|120:32|120:32|130:71,1,112.500004291535
187,317,258400,1,0,0:2:0:0:
171,290,258729,6,0,B|157:356|157:356|178:351|178:351|189:305,1,125,0|0,1:2|1:0,1:0:0:0:
245,52,259059,1,0,1:2:0:0:
92,246,259206,1,0,1:0:0:0:
312,139,259352,2,0,B|340:116|340:116|337:99|337:99|290:131,1,111.111111111111,0|0,1:0|1:0,1:0:0:0:
113,147,259718,6,0,L|23:58,1,100,2|0,3:2|0:0,0:0:0:0:
149,293,260048,2,0,L|246:321,1,100,2|0,3:2|0:0,0:0:0:0:
91,368,260378,2,0,P|117:269|233:193,1,200,2|0,1:2|0:0,0:0:0:0:
491,158,260927,5,0,0:0:0:0:
477,66,261037,2,0,L|386:5,1,100,2|0,3:1|0:0,0:0:0:0:
494,161,261367,1,2,3:2:0:0:
288,135,261532,1,2,0:2:0:0:
429,66,261696,2,0,P|342:102|346:196,1,200,2|0,1:0|0:0,0:0:0:0:
457,319,262136,2,0,L|476:244,1,66.6666666666667,2|0,0:2|0:0,0:0:0:0:
379,279,262356,2,0,L|299:354,1,100,2|0,3:1|0:0,0:0:0:0:
91,345,262685,2,0,L|58:259,1,66.6666666666667,0|0,3:0|0:0,0:0:0:0:
99,208,262905,1,2,0:2:0:0:
11,368,263015,2,0,P|73:330|216:338,1,200,2|0,1:0|0:0,0:0:0:0:
342,117,263564,5,0,0:0:0:0:
346,207,263674,2,0,B|293:36,1,133.333333333333,2|0,3:1|0:0,0:0:0:0:
246,17,264004,2,0,L|219:94,1,66.6666666666667,2|0,3:2|0:0,0:0:0:0:
98,112,264224,1,2,0:2:0:0:
206,161,264334,2,0,P|201:103|155:61,1,100,2|0,1:0|0:0,0:0:0:0:
63,195,264663,2,0,P|68:253|114:295,1,100,2|0,0:2|0:0,0:0:0:0:
288,335,264993,1,2,3:1:0:0:
0,41,265323,1,2,3:2:0:0:
292,339,265652,2,0,P|375:282|492:254,1,200,2|2,1:0|0:3,0:0:0:0:
292,339,266202,1,0,0:0:0:0:
397,369,266312,6,2,B|414:303|354:244|347:280|287:234|316:159,1,240,2|2,3:1|1:0,0:0:0:0:
314,162,268839,5,2,0:2:0:0:
421,190,268949,2,0,L|362:45,1,133.333333333333,0|0,3:0|0:0,0:0:0:0:
443,35,269279,2,0,L|426:111,1,66.6666666666667,2|0,3:2|0:0,0:0:0:0:
512,89,269499,1,2,0:2:0:0:
306,21,269608,2,0,P|205:45|193:141,1,200,0|0,1:0|0:0,0:0:0:0:
247,197,270048,2,0,P|252:166|230:140,1,66.6666666666667,2|0,0:2|0:0,0:0:0:0:
42,94,270268,1,2,3:2:0:0:
429,189,270597,1,2,3:2:0:0:
42,94,270927,2,0,B|104:60|104:60|143:139,1,133.333333333333,2|0,1:2|0:0,0:0:0:0:
61,282,271257,2,0,L|-10:226,1,66.6666666666667,4|0,0:3|0:3,0:0:0:0:
181,293,271477,2,0,L|173:338,1,33.3333333333333,4|0,0:3|0:0,0:0:0:0:
93,374,271586,2,0,P|88:293|218:250,2,200,2|2|2,3:1|3:2|1:0,0:0:0:0:
431,247,272740,5,2,0:2:0:0:
401,368,272905,2,0,L|342:270,1,100,2|0,3:1|0:0,0:0:0:0:
309,265,273152,1,2,0:2:0:0:
311,254,273235,2,0,L|345:145,1,100,2|0,3:2|0:0,0:0:0:0:
313,368,273564,2,0,B|303:292|368:241|422:237|422:237|442:264,1,200,2|0,1:0|0:0,0:0:0:0:
512,29,274114,5,2,0:2:0:0:
478,109,274224,2,0,L|365:4,1,133.333333333333,2|0,3:1|0:0,0:0:0:0:
321,105,274553,2,0,L|289:23,1,66.6666666666667,2|0,3:2|0:0,0:0:0:0:
170,14,274773,1,2,0:2:0:0:
281,80,274883,2,0,P|249:140|195:188,1,133.333333333333,2|0,1:0|0:0,0:0:0:0:
24,183,275213,2,0,L|-1:100,1,66.6666666666667,2|0,0:2|0:0,0:0:0:0:
73,65,275433,1,2,0:2:0:0:
131,127,275542,2,0,L|106:223,1,100,2|0,3:1|0:0,0:0:0:0:
223,349,275872,2,0,L|286:271,1,100,2|0,3:2|0:0,0:0:0:0:
223,349,276202,2,0,B|233:273|168:222|114:218|114:218|94:245,1,200,2|0,1:0|0:0,0:0:0:0:
0,337,276751,5,0,0:0:0:0:
125,382,276861,2,0,P|174:335|308:269,1,200,2|0,3:1|3:0,0:0:0:0:
512,197,277356,2,0,L|500:256,1,50,2|0,0:2|0:0,0:0:0:0:
444,353,277521,2,0,L|405:194,1,133.333333333333,2|0,1:0|0:0,0:0:0:0:
309,117,277850,2,0,P|325:152|361:170,1,66.6666666666667,2|0,0:2|0:0,0:0:0:0:
512,93,278070,1,2,0:2:0:0:
426,140,278180,2,0,L|496:43,1,100,2|0,3:1|0:0,0:0:0:0:
301,189,278510,2,0,L|314:115,1,66.6666666666667,2|0,3:2|0:0,0:0:0:0:
438,87,278729,1,2,0:2:0:0:
418,215,278839,2,0,B|416:220|416:220|384:21,1,200,2|2,1:0|0:2,0:0:0:0:
332,168,279334,2,0,L|301:119,1,50,2|0,0:2|0:0,0:0:0:0:
142,219,279499,6,0,L|115:98,1,100,2|0,3:2|0:0,0:0:0:0:
202,101,279746,1,2,0:0:0:0:
199,93,279828,2,0,L|213:-1,2,66.6666666666667,2|0|0,3:2|0:0|0:0,0:0:0:0:
41,191,280158,2,0,B|42:196|42:196|120:9,1,200,2|0,1:1|0:0,0:0:0:0:
62,68,280597,2,0,L|111:21,1,66.6666666666667,2|0,0:2|0:0,0:0:0:0:
217,25,280817,1,2,3:2:0:0:
38,225,280982,1,0,0:0:0:0:
231,45,281147,1,2,3:2:0:0:
0,0,281312,1,0,0:0:0:0:
454,132,281477,5,2,1:3:0:0:
462,216,281806,5,2,0:3:0:0:
393,261,282136,6,0,P|371:230|388:158,1,100.000003814697,2|0,0:2|0:0,0:0:0:0:
393,261,282795,2,0,P|367:244|315:240,1,75.0000028610231,2|0,0:2|0:0,0:0:0:0:
251,191,283290,2,0,P|230:186|217:171,2,37.5000014305115,2|0|0,0:2|0:0|0:0,0:0:0:0:
378,157,283784,2,0,P|344:189|322:250,1,100.000003814697,2|0,0:2|0:0,0:0:0:0:
251,191,284444,2,0,P|219:167|188:161,1,37.5000014305115,2|0,0:3|0:0,0:0:0:0:
136,148,284821,2,0,P|92:185|47:195,1,100.000003814697,2|0,0:3|0:0,0:0:0:0:
60,202,285371,1,2,0:2:0:0:
60,202,285481,2,0,P|42:229|28:268,1,75.0000028610231,2|0,0:2|0:0,0:0:0:0:
121,260,285920,2,0,P|140:252|163:220,1,50.0000019073487,2|0,0:2|0:0,0:0:0:0:
60,202,286360,2,0,P|81:177|109:160,1,50.0000019073487,2|0,0:2|0:0,0:0:0:0:
256,178,286799,2,0,P|273:202|294:212,2,50.0000019073487,2|0|0,0:2|0:0|0:0,0:0:0:0:
174,146,287349,1,2,0:2:0:0:
178,150,287459,2,0,P|237:137|331:137,1,150.000005722046,2|0,0:2|0:0,0:0:0:0:
409,177,288228,1,2,0:2:0:0:
409,177,288338,2,0,P|444:162|500:150,1,75.0000028610231,2|0,0:2|0:0,0:0:0:0:
479,152,288777,2,0,P|448:173|421:199,1,75.0000028610231,2|0,0:2|0:0,0:0:0:0:
339,220,289217,2,0,P|326:217|315:208,1,25.0000009536744,2|0,0:2|0:0,0:0:0:0:
365,143,289436,1,2,0:2:0:0:
16,185,289986,1,2,0:2:0:0:
16,185,290096,2,0,P|52:159|62:145,1,50.0000019073487,2|0,0:2|0:0,0:0:0:0:
89,245,290426,2,0,P|116:218|138:178,1,75.0000028610231,2|0,0:2|0:0,0:0:0:0:
205,246,290864,2,0,P|209:228|210:216,1,25.0000009536744,2|0,0:2|0:0,0:0:0:0:
277,166,291084,2,0,P|270:147|263:139,2,25.0000009536744,2|0|0,0:3|0:0|0:0,0:0:0:0:
340,252,291415,2,0,P|346:225|346:211,1,37.5000014305115,2|0,0:3|0:0,0:0:0:0:
432,259,291661,1,2,0:3:0:0:
439,249,291744,2,0,P|432:233|427:225,2,18.7500007152558,2|0|0,0:3|0:0|0:0,0:0:0:0:
505,196,291992,1,2,0:3:0:0:
512,191,292074,2,0,P|501:163|462:128,1,75.0000028610231,2|0,0:2|0:0,0:0:0:0:
0,161,292733,6,0,P|10:179|13:197,1,25.0000009536744,2|0,0:2|0:0,0:0:0:0:
78,227,292952,2,0,P|93:205|102:153,1,75.0000028610231,2|0,0:2|0:0,0:0:0:0:
178,124,293393,1,2,0:2:0:0:
178,124,293502,2,0,P|183:133|187:160,2,25.0000009536744,2|0|0,0:2|0:0|0:0,0:0:0:0:
234,232,293942,2,0,P|255:201|266:165,1,75.0000028610231,2|0,0:2|0:0,0:0:0:0:
380,204,294492,2,0,P|365:170|342:141,2,75.0000028610231,2|0|0,0:2|0:0|0:0,0:0:0:0:
468,218,295260,1,2,0:2:0:0:
468,218,295371,2,0,P|496:209|509:187,1,50.0000019073487,2|0,0:2|0:0,0:0:0:0:
468,218,295700,2,0,P|443:190|424:157,1,75.0000028610231,2|0,0:2|0:0,0:0:0:0:
424,157,296140,1,2,0:2:0:0:
315,210,296360,2,0,P|319:170|333:142,2,56.2500021457673,2|0|0,0:2|0:0|0:0,0:0:0:0:
230,224,297129,1,2,0:2:0:0:
230,224,297239,1,2,0:2:0:0:
230,224,297349,2,0,P|218:214|207:188,1,37.5000014305115,2|0,0:3|0:0,0:0:0:0:
130,208,297678,2,0,P|123:193|124:165,1,37.5000014305115,2|0,0:3|0:0,0:0:0:0:
40,160,298008,2,0,P|31:190|4:237,1,75.0000028610231,2|0,0:3|0:0,0:0:0:0:
108,219,298448,2,0,L|133:207,1,25.0000009536744,2|0,0:2|0:0,0:0:0:0:
209,187,298667,2,0,P|202:169|188:147,1,37.5000014305115,2|0,0:3|0:0,0:0:0:0:
289,222,298997,2,0,P|296:204|310:182,1,37.5000014305115,2|0,0:3|0:0,0:0:0:0:
389,172,299327,2,0,P|411:188|512:217,1,125.000004768372,2|0,0:3|0:0,0:0:0:0:
503,216,299986,2,0,P|475:199|462:171,2,50.0000019073487,2|0|0,0:2|0:0|0:0,0:0:0:0:
510,223,300536,1,2,0:2:0:0:
510,223,300645,2,0,P|472:214|414:174,1,100.000003814697,2|0,0:2|0:0,0:0:0:0:
338,182,301195,1,2,0:3:0:0:
338,182,301305,2,0,P|337:155|341:137,1,37.5000014305115,2|0,0:3|0:0,0:0:0:0:
253,186,301551,1,2,0:3:0:0:
243,177,301634,2,0,P|232:155|232:146,2,18.7500007152558,2|0|0,0:3|0:0|0:0,0:0:0:0:
175,221,301964,2,0,P|155:199|150:177,1,37.5000014305115,2|0,0:3|0:0,0:0:0:0:
127,284,302211,1,2,0:3:0:0:
122,294,302293,2,0,P|104:293|91:286,3,18.7500007152558,2|2|2|2,0:3|0:3|0:3|0:3,0:0:0:0:
136,372,302623,2,0,P|127:375|118:375,5,12.5,2|2|2|2|2|2,0:3|0:3|0:3|0:3|0:3|0:3,0:0:0:0:
4,375,303172,5,2,0:2:0:0:
4,375,303282,2,0,P|4:340|50:356,1,100.000003814697,2|0,0:2|0:0,0:0:0:0:
136,370,303612,2,0,P|179:331|154:288,1,100.000003814697,2|0,0:2|0:0,0:0:0:0:
197,263,303942,2,0,P|172:284|173:311,1,50.0000019073487,2|0,0:2|0:0,0:0:0:0:
237,352,304162,2,0,P|173:367|172:302,1,150.000005722046,2|0,0:2|0:0,0:0:0:0:
253,368,304821,2,0,P|272:333|333:355,1,100.000003814697,2|0,0:2|0:0,0:0:0:0:
324,340,305151,1,2,0:2:0:0:
324,340,305260,2,0,P|349:383|412:360,1,100.000003814697,2|0,0:2|0:0,0:0:0:0:
393,382,305590,1,2,0:2:0:0:
393,382,305700,2,0,P|377:334|421:304,1,100.000003814697,2|0,0:2|0:0,0:0:0:0:
495,295,306030,1,2,0:2:0:0:
495,295,306140,2,0,P|508:274|506:250,2,50.0000019073487,2|0|0,0:2|0:0|0:0,0:0:0:0:
510,376,306469,2,0,P|423:358|423:285,1,150.000005722046,2|0,0:2|0:0,0:0:0:0:
177,383,307129,2,0,P|240:351|234:314,1,100.000003814697,2|0,0:2|0:0,0:0:0:0:
241,331,307458,1,2,0:2:0:0:
241,331,307568,2,0,P|209:307|205:291,1,50.0000019073487,2|0,0:2|0:0,0:0:0:0:
135,365,307788,2,0,P|78:327|134:282,1,150.000005722046,2|0,0:2|0:0,0:0:0:0:
135,365,308337,2,0,P|101:379|84:366,1,50.0000019073487,2|0,0:2|0:0,0:0:0:0:
39,317,308557,2,0,P|91:314|118:236,1,100.000003814697,2|0,0:2|0:0,0:0:0:0:
200,288,308886,2,0,P|218:324|248:317,1,75.0000028610231,2|0,0:2|0:0,0:0:0:0:
328,328,309134,1,2,0:2:0:0:
328,328,309216,2,0,P|384:360|364:306,1,150.000005722046,2|0,0:2|0:0,0:0:0:0:
512,384,309875,2,0,P|488:338|458:334,1,50.0000019073487,2|0,0:2|0:0,0:0:0:0:
409,324,310095,2,0,P|380:325|381:291,2,50.0000019073487,2|0|0,0:2|0:0|0:0,0:0:0:0:
492,340,310425,1,2,0:2:0:0:
284,365,310755,2,0,P|273:347|288:310,1,50.0000019073487,2|0,0:2|0:0,0:0:0:0:
175,337,310974,2,0,P|180:294|278:236,1,150.000005722046,2|0,0:2|0:0,0:0:0:0:
328,191,311414,1,2,0:2:0:0:
328,191,311524,2,0,P|314:238|265:241,1,100.000003814697,2|0,0:2|0:0,0:0:0:0:
268,242,311853,1,2,0:2:0:0:
268,242,311963,2,0,P|254:184|204:163,1,100.000003814697,2|0,0:2|0:0,0:0:0:0:
221,164,312513,2,0,P|216:188|223:217,1,50.0000019073487,2|0,0:2|0:0,0:0:0:0:
307,210,312733,2,0,P|313:182|308:157,2,50.0000019073487,2|0|0,0:2|0:0|0:0,0:0:0:0:
265,239,313062,1,2,0:2:0:0:
265,239,313172,2,0,B|252:57,1,175.00000166893,2|0,0:2|0:0,0:0:0:0:
80,25,313612,6,0,B|91:38|91:38|211:6,1,116.666667779287,2|0,0:3|0:0,0:0:0:0:
340,95,313941,1,2,0:3:0:0:
409,46,314051,2,0,B|404:29|404:29|300:4,1,116.666667779287,2|0,0:3|0:0,0:0:0:0:
187,12,314381,1,2,0:3:0:0:
253,65,314491,2,0,B|306:45|306:45|315:54|315:54|389:29|389:29|410:47,1,175.00000166893,2|0,0:3|0:0,0:0:0:0:
438,38,315040,2,0,B|447:55|447:55|392:42,1,58.3333338896433,2|0,0:3|0:0,0:0:0:0:
252,64,315260,2,0,B|196:50|196:50|194:64|194:64|136:49,1,116.666667779287,2|0,0:3|0:0,0:0:0:0:
80,3,315590,1,2,0:3:0:0:
84,87,315700,2,0,B|102:95|102:95|171:76|171:76|176:80|176:80|259:62,1,175.00000166893,2|0,0:3|0:0,0:0:0:0:
417,40,316139,1,2,0:3:0:0:
346,76,316249,2,0,B|330:52|330:52|342:23,1,58.3333338896433,2|0,0:3|0:0,0:0:0:0:
486,0,316469,1,2,0:3:0:0:
486,0,316579,1,2,0:3:0:0:
486,0,316689,2,0,B|483:17|483:17|418:38|418:38|484:33|484:33|500:51,1,175.00000166893,2|0,0:3|0:0,0:0:0:0:
257,25,317238,1,2,0:3:0:0:
344,74,317348,2,0,B|289:68|289:68|285:72|285:72|234:65|234:65|230:70|230:70|172:65,1,175.00000166893,2|0,0:3|0:0,0:0:0:0:
47,20,317788,2,0,B|52:-7|52:-7|76:14,1,58.3333338896433,2|0,0:3|0:0,0:0:0:0:
83,89,318007,2,0,B|102:106|102:106|168:86|168:86|173:65,1,116.666667779287,2|0,0:3|0:0,0:0:0:0:
257,25,318337,1,2,0:3:0:0:
257,25,318447,2,0,B|244:35|244:35|258:77,1,58.3333338896433,2|0,0:3|0:0,0:0:0:0:
407,87,318667,2,0,B|423:74|423:74|410:35,1,58.3333338896433,2|0,0:3|0:0,0:0:0:0:
333,53,318886,1,2,0:3:0:0:
509,49,319106,6,0,L|512:0,1,50,2|0,0:1|0:0,0:0:0:0:
430,57,319766,6,0,L|512:0,1,100,2|0,0:1|0:0,0:0:0:0:
445,134,320425,6,0,L|512:0,1,150.000005722046,2|0,0:1|0:0,0:0:0:0:
512,0,321084,6,0,L|512:86,1,66.6666666666667,2|0,0:1|0:0,0:0:0:0:
512,0,321524,6,0,L|456:84,1,100.000003814697,2|0,0:1|0:0,0:0:0:0:
275,272,321744,6,2,B|190:255|164:143|187:34|294:19|358:62|345:155|286:162,1,416.666666666667,2|0,0:1|0:0,0:0:0:0:
161,187,323062,6,2,B|130:191|117:160|128:148|128:148|137:173|156:173,1,100.000003814697,2|0,0:0|2:0,0:2:0:0:
403,316,323282,6,2,B|391:293|354:299|354:299|347:323|327:335,1,100.000003814697,0|0,0:0|2:0,0:0:0:0:
210,330,323502,6,2,B|201:273|256:246|253:263|305:234|288:161,1,200.000007629395,0|0,0:0|0:0,1:1:0:0:
265,86,323831,2,2,P|268:52|271:83,1,100.000003814697,2|0,0:0|0:0,0:0:0:0:
282,260,324051,6,0,L|234:245,1,50.0000019073487,0|0,1:0|2:0,0:0:0:0:
278,276,324161,2,0,L|243:229,1,50.0000019073487,0|0,1:0|2:0,0:0:0:0:
179,190,324323,6,0,B|123:179|87:231|87:231|108:287,1,150.000005722046,4|0,0:0|2:0,0:0:0:0:
398,358,324652,2,0,L|436:99,1,225.000008583069,4|0,0:0|2:0,0:0:0:0:
482,72,324982,2,0,B|512:81|512:81|510:138,2,75.0000028610231,0|0|0,1:3|0:0|0:0,0:0:0:0:
270,18,325312,1,0,0:0:0:0:
134,177,325476,1,0,0:0:0:0:
119,46,325641,6,2,L|167:35,1,50.0000019073487,2|2,0:0|2:0,0:0:0:0:
100,41,325751,2,2,L|66:4,1,50.0000019073487,2|2,0:0|2:0,0:0:0:0:
102,58,325861,2,2,L|86:105,1,50.0000019073487,2|2,0:0|2:0,0:0:0:0:
109,47,325971,6,0,B|198:33|274:70|274:70|278:120|325:141,1,250.000009536744,0|0,0:0|2:0,0:0:0:0:
391,95,326301,2,0,B|384:70|403:50|403:50|384:70|338:55,1,100.000003814697,2|0,1:3|2:0,0:0:0:0:
324,267,326520,2,0,B|374:239|417:279|417:279|374:239|397:174,1,200.000007629395,2|0,0:3|2:0,0:0:0:0:
314,135,326850,2,0,L|293:213,1,50.0000019073487,0|0,0:0|2:0,0:0:0:0:
140,347,326960,6,0,B|67:375|-4:316|9:211|73:189|73:189|95:219|121:214,2,300.000011444092,4|4|0,0:0|0:0|1:3,0:0:0:0:
68,104,327784,1,0,0:0:0:0:
335,177,327949,2,2,B|352:191|373:185|373:185|345:166,1,75.0000028610231,0|0,0:0|2:0,0:0:0:0:
169,115,328114,2,2,B|147:123|142:144|142:144|172:129,1,75.0000028610231,0|0,0:0|2:0,0:0:0:0:
288,35,328279,5,2,0:0:0:0:
240,194,328443,2,0,B|250:189|250:189|268:114,1,87.500000834465,2|2,0:2|2:0,0:0:0:0:
473,0,328608,5,2,0:0:0:0:
512,127,328773,2,0,B|503:124|503:124|491:84,1,50,2|2,0:2|2:0,0:0:0:0:
288,35,328938,6,0,L|351:279,1,243.750006973744,0|0,1:3|2:0,0:0:0:0:
394,346,329268,2,0,P|424:319|437:264,1,81.2500023245812,0|0,1:0|2:0,1:0:0:0:
307,205,329432,2,0,P|277:231|263:287,1,81.2500023245812,0|0,1:0|2:0,1:0:0:0:
107,370,329597,6,0,B|40:380|22:306|22:306|54:276,1,150.000005722046,4|0,0:0|2:0,0:0:0:0:
52,16,329927,2,0,P|155:31|168:135,1,225.000008583069,4|0,0:0|2:0,0:0:0:0:
82,145,330257,2,0,L|-5:155,2,75.0000028610231,0|0|0,1:3|0:0|0:0,0:0:0:0:
463,101,330586,1,0,0:0:0:0:
426,374,330751,6,0,P|398:348|392:312,1,75.0000028610231,0|0,0:0|2:0,0:0:0:0:
245,166,330916,2,2,L|296:334,1,150.000005722046,0|0,0:0|2:0,0:0:0:0:
474,307,331246,2,2,B|522:276|503:217|503:217|458:87,1,225.000008583069,0|0,0:0|2:0,0:0:0:0:
431,28,331575,1,2,1:1:0:0:
245,166,331740,2,0,B|268:242,1,75.0000028610231,0|0,0:0|2:0,0:0:0:0:
420,242,331905,2,2,B|384:251|371:218|371:218|337:120,1,150.000005722046,0|0,0:0|0:0,0:0:0:0:
319,55,332152,5,0,0:0:0:0:
319,55,332235,2,0,B|322:135|276:170|178:191|149:101|149:101|180:74|170:39,2,300.000011444092,2|4|0,0:1|0:0|1:3,0:0:0:0:
90,37,333059,1,0,0:0:0:0:
107,243,333224,2,0,P|55:151|100:102,1,150.000005722046
344,276,333553,6,0,L|325:382,1,100,4|0,0:0|0:0,0:0:0:0:
200,87,333883,2,0,L|177:-5,1,75.0000028610231,4|0,0:0|2:0,0:0:0:0:
295,196,334048,5,0,2:0:0:0:
295,196,334130,1,0,2:0:0:0:
295,195,334213,2,0,P|315:180|329:159,1,50,0|0,1:3|2:0,2:0:0:0:
205,183,334377,5,0,2:0:0:0:
205,183,334459,1,0,2:0:0:0:
205,183,334542,2,0,P|177:205|167:228,1,50,0|0,2:0|2:0,2:0:0:0:
91,213,334790,2,0,P|89:234|94:249,2,37.5000014305115,0|0|0,2:0|2:0|2:0,2:0:0:0:
32,295,335119,2,0,P|39:308|47:314,2,25,0|0|0,2:0|2:0|2:0,2:0:0:0:
4,380,335449,2,0,P|14:385|22:385,2,18.7500007152558,0|0|0,2:0|2:0|2:0,2:0:0:0:
