osu file format v14

[General]
AudioFilename: audio.mp3
AudioLeadIn: 0
PreviewTime: 41885
Countdown: 0
SampleSet: None
StackLeniency: 0.7
Mode: 0
LetterboxInBreaks: 0
WidescreenStoryboard: 0

[Editor]
Bookmarks: 19140,42746,58484,74221,82090,82582,97828,113566,121435,121926,137172,152910,183402,184385
DistanceSpacing: 1
BeatDivisor: 8
GridSize: 8
TimelineZoom: 1.9

[Metadata]
Title:i
TitleUnicode:i
Artist:Kendrick Lamar
ArtistUnicode:Kendrick Lamar
Creator:ScubDomino
Version:love muhself (deaf mapped for axarious)
Source:
Tags:oklama to pimp a butterfly tpab
BeatmapID:4537010
BeatmapSetID:2153238

[Difficulty]
HPDrainRate:5
CircleSize:5
OverallDifficulty:8
ApproachRate:9.2
SliderMultiplier:1.4
SliderTickRate:1

[Events]
//Background and Video events
0,0,"kendrick-lamar-god-is-gangsta.jpg",0,0
//Break Periods
2,20199,41438
2,86101,97627
//Storyboard Layer 0 (Background)
//Storyboard Layer 1 (Fail)
//Storyboard Layer 2 (Pass)
//Storyboard Layer 3 (Foreground)
//Storyboard Layer 4 (Overlay)
//Storyboard Sound Samples

[TimingPoints]
19140,491.803278688525,4,2,1,63,1,0
19140,-133.333333333333,4,2,1,63,0,0
42008,-33.3333333333333,4,2,1,63,0,0
42746,-25,4,2,1,63,0,0
43484,-66.6666666666667,4,2,1,63,0,0
43976,-33.3333333333333,4,2,1,63,0,0
44221,-44.4444444444445,4,2,1,63,0,0
44836,-66.6666666666667,4,2,1,63,0,0
45451,-33.3333333333333,4,2,1,63,0,0
46926,-25,4,2,1,63,0,0
47418,-44.4444444444445,4,2,1,63,0,0
48525,-66.6666666666667,4,2,1,63,0,0
48771,-133.333333333333,4,2,1,63,0,0
49508,-33.3333333333333,4,2,1,63,0,0
50615,-25,4,2,1,63,0,0
51230,-66.6666666666667,4,2,1,63,0,0
51844,-33.3333333333333,4,2,1,63,0,0
52090,-33.3333333333333,4,2,1,63,0,0
52828,-66.6666666666667,4,2,1,63,0,0
53443,-33.3333333333333,4,2,1,63,0,0
55287,-66.6666666666667,4,2,1,63,0,0
56517,-44.4444444444445,4,2,1,63,0,0
57746,-66.6666666666667,4,2,1,63,0,0
58484,-44.4444444444445,4,2,1,63,0,0
62418,-33.3333333333333,4,2,1,63,0,0
62541,-66.6666666666667,4,2,1,63,0,0
63894,-28.5714285714286,4,2,1,63,0,0
64385,-33.3333333333333,4,2,1,63,0,0
65369,-66.6666666666667,4,2,1,63,0,0
65861,-25,4,2,1,63,0,0
66107,-28.5714285714286,4,2,1,63,0,0
67091,-66.6666666666667,4,2,1,63,0,0
67828,-33.3333333333333,4,2,1,63,0,0
67951,-66.6666666666667,4,2,1,63,0,0
69058,-44.4444444444445,4,2,1,63,0,0
69303,-66.6666666666667,4,2,1,63,0,0
70533,-33.3333333333333,4,2,1,63,0,0
71025,-66.6666666666667,4,2,1,63,0,0
75943,-28.5714285714286,4,2,1,63,0,0
77910,-66.6666666666667,4,2,1,63,0,0
79355,-66.6666666666667,4,2,1,63,0,0
80615,-41.6666666666667,4,2,1,63,0,0
80861,-25,4,2,1,63,0,0
81353,-33.3333333333333,4,2,1,63,0,0
82090,-25,4,2,1,63,0,0
82828,-41.6666666666667,4,2,1,63,0,0
83320,-66.6666666666667,4,2,1,63,0,0
83566,-44.4444444444445,4,2,1,63,0,0
84181,-66.6666666666667,4,2,1,63,0,0
84796,-33.3333333333333,4,2,1,63,0,0
86271,-25,4,2,1,63,0,0
86763,-44.4444444444445,4,2,1,63,0,0

[Colours]
Combo1 : 255,0,128
Combo2 : 194,255,13
Combo3 : 17,255,130
Combo4 : 255,108,11

[HitObjects]
83,34,19140,6,0,L|137:46,1,52.5000020027161
89,104,19508,1,0,0:0:0:0:
61,166,19631,2,0,L|87:171,1,26.2500010013581
26,79,19877,2,0,L|20:105,1,26.2500010013581
346,125,42008,6,0,P|380:148|464:138,1,105.000004005432
466,46,42254,2,0,P|432:23|348:33,1,105.000004005432
341,136,42500,6,0,P|375:159|459:149,1,105.000004005432
475,41,42746,2,0,B|442:-7|336:-10|369:32|260:72|213:11,1,280
474,223,43361,5,0,0:0:0:0:
444,248,43484,2,0,P|413:259|348:272,1,52.5000020027161
207,246,43730,5,0,0:0:0:0:
316,266,43853,1,0,0:0:0:0:
256,294,43976,2,0,P|195:314|138:237,1,105.000004005432
388,384,44221,6,0,B|412:322|412:322|345:42,1,315.000012016297
343,177,44836,5,0,0:0:0:0:
278,169,44959,2,0,P|253:138|249:91,1,52.5000020027161
441,232,45205,2,0,P|480:225|523:245,1,52.5000020027161
301,360,45451,1,0,0:0:0:0:
477,299,45574,6,0,B|421:263|421:263|368:38,1,210.000008010865
334,0,45943,6,0,P|342:59|292:108,1,105.000004005432
100,145,46189,2,0,P|58:101|70:32,1,105.000004005432
343,0,46435,2,0,P|351:59|301:108,1,105.000004005432
91,149,46680,2,0,P|49:105|98:6,1,157.500006008148
129,58,46926,6,0,B|177:66|177:66|207:91|207:91|262:99,1,140
0,278,47295,1,0,0:0:0:0:
56,319,47418,2,0,P|103:316|154:265,1,78.7500030040742
216,210,47664,5,0,0:0:0:0:
185,241,47787,1,0,0:0:0:0:
246,277,47910,1,0,0:0:0:0:
234,344,48033,1,0,0:0:0:0:
314,307,48156,6,0,L|330:393,1,78.7500030040742
387,328,48402,1,0,0:0:0:0:
403,217,48525,6,0,L|464:230,1,52.5000020027161
445,154,48771,1,0,0:0:0:0:
419,64,48894,6,0,L|450:60,1,26.2500010013581
349,63,49140,5,0,0:0:0:0:
194,77,49262,1,0,0:0:0:0:
275,101,49385,1,0,0:0:0:0:
156,8,49508,2,0,B|175:40|175:40|209:212,1,210.000008010865
58,117,49877,6,0,L|189:157,1,105.000004005432
257,372,50123,2,0,L|156:341,1,105.000004005432
49,124,50369,2,0,L|180:164,1,105.000004005432
267,366,50615,2,0,L|-106:249,1,280
440,273,51230,5,0,0:0:0:0:
378,315,51353,2,0,P|349:320|313:310,1,52.5000020027161
338,214,51599,5,0,0:0:0:0:
354,242,51721,1,0,0:0:0:0:
411,198,51844,6,0,P|395:135|394:81,1,105.000004005432
425,1,52090,6,0,P|505:86|459:196,1,210.000008010865
400,381,52459,2,0,P|320:296|366:186,1,210.000008010865
415,204,52828,2,0,P|405:246|406:275,1,52.5000020027161
461,307,53074,5,0,0:0:0:0:
249,241,53258,1,0,0:0:0:0:
79,371,53443,2,0,P|34:364|43:226,1,210.000008010865
79,147,53812,6,0,B|101:216|101:216|143:248,1,105.000004005432
311,88,54058,2,0,B|289:19|289:19|247:-13,1,105.000004005432
70,154,54303,2,0,B|92:223|92:223|134:255,1,105.000004005432
321,90,54549,5,0,0:0:0:0:
321,90,55041,2,0,B|299:21|299:21|257:-11,1,105.000004005432
328,384,55287,6,0,P|332:341|338:313,1,52.5000020027161
503,382,55533,2,0,B|428:367|423:355|381:362,1,105.000004005432
277,287,55902,1,0,0:0:0:0:
236,232,56025,2,0,P|311:247|358:252,1,105.000004005432
304,168,56517,6,0,P|208:200|-16:240,2,315.000012016297
166,42,57623,5,0,0:0:0:0:
288,67,57746,2,0,L|226:55,1,52.5000020027161
152,0,57992,2,0,P|150:43|130:82,1,78.7500030040742
131,80,58238,5,0,0:0:0:0:
103,67,58361,1,0,0:0:0:0:
85,135,58484,6,0,P|82:172|128:224,1,78.7500030040742
106,281,58730,2,0,P|49:256|25:208,1,78.7500030040742
154,156,58976,2,0,P|224:113|333:180,1,157.500006008148
151,380,59467,6,0,B|75:358|75:358|119:214,1,157.500006008148
173,304,59836,1,0,0:0:0:0:
72,283,59959,2,0,B|94:207|94:207|238:251,1,157.500006008148
440,101,60451,6,0,B|418:176|418:176|343:154,1,157.500006008148
339,80,60819,1,0,0:0:0:0:
361,4,60943,2,0,B|437:26|437:26|414:100,1,157.500006008148
190,160,61435,6,0,B|184:137|184:137|290:109|290:109|296:132,1,157.500006008148
256,192,61803,1,0,0:0:0:0:
321,223,61926,2,0,B|327:246|327:246|221:274|221:274|215:251,1,157.500006008148
424,176,62418,6,0,P|405:171|373:163,1,52.5000020027161
112,232,62664,5,0,0:0:0:0:
86,240,62787,1,0,0:0:0:0:
135,227,62910,5,0,0:0:0:0:
61,246,63032,1,0,0:0:0:0:
94,311,63156,2,0,P|134:327|190:327,1,52.5000020027161
227,384,63402,5,0,0:0:0:0:
215,257,63525,1,0,0:0:0:0:
212,354,63648,5,0,0:0:0:0:
230,286,63771,1,0,0:0:0:0:
280,334,63894,2,0,P|386:322|400:243,1,157.500006008148
442,224,64140,1,0,0:0:0:0:
404,214,64262,1,0,0:0:0:0:
446,152,64385,6,0,P|418:91|461:26,1,105.000004005432
388,0,64631,2,0,P|396:50|369:94,1,105.000004005432
350,164,64877,6,0,B|271:169|279:123|183:130,1,157.500006008148
205,82,65123,2,0,P|157:118|93:106,1,105.000004005432
158,0,65369,6,0,P|140:49|142:66,1,52.5000020027161
252,208,65615,2,0,P|217:168|201:160,1,52.5000020027161
13,174,65861,6,0,P|97:114|198:129,1,210
273,100,66107,2,0,B|369:176|369:176|251:207,1,245.000002336502
251,207,66845,5,0,0:0:0:0:
13,94,67091,6,0,P|18:129|51:162,1,52.5000020027161
89,169,67337,2,0,P|64:161|45:144,1,52.5000020027161
47,35,67583,1,0,0:0:0:0:
207,76,67828,6,0,P|256:60|304:76,1,105.000004005432
162,129,68074,2,0,P|168:100|199:69,1,52.5000020027161
331,81,68320,2,0,P|345:103|350:129,1,52.5000020027161
499,94,68566,6,0,P|494:129|461:162,1,52.5000020027161
422,169,68812,2,0,P|447:161|467:144,1,52.5000020027161
487,223,69058,6,0,P|468:288|469:353,1,118.125004506111
406,379,69303,6,0,P|382:372|362:355,1,52.5000020027161
330,304,69549,2,0,P|331:331|343:354,1,52.5000020027161
256,192,69795,5,0,0:0:0:0:
360,224,70041,2,0,L|303:239,1,52.5000020027161
256,192,70287,5,0,0:0:0:0:
37,123,70533,6,0,B|-28:126|-56:221|45:231|174:216|207:115,1,315.000012016297
143,87,71025,6,0,P|145:55|133:24,1,52.5000020027161
40,239,71271,2,0,P|38:271|50:302,1,52.5000020027161
176,264,71517,1,0,0:0:0:0:
256,192,71762,5,0,0:0:0:0:
184,384,72008,2,0,P|198:362|206:337,1,52.5000020027161
328,384,72254,2,0,P|313:362|305:337,1,52.5000020027161
369,87,72500,6,0,P|367:55|379:24,1,52.5000020027161
472,239,72746,2,0,P|474:271|462:302,1,52.5000020027161
336,264,72992,1,0,0:0:0:0:
259,38,73238,6,0,L|171:54,1,52.5000020027161
330,19,73484,2,0,L|339:70,1,52.5000020027161
253,346,73731,2,0,L|341:330,1,52.5000020027161
182,365,73977,2,0,L|172:313,1,52.5000020027161
256,192,74221,5,0,0:0:0:0:
256,192,74713,1,0,0:0:0:0:
256,192,75205,1,0,0:0:0:0:
256,192,75697,1,0,0:0:0:0:
106,231,75943,2,0,B|156:256|195:218|195:218|168:216,1,122.500001168251
256,120,76189,5,0,0:0:0:0:
256,120,76681,1,0,0:0:0:0:
256,120,77173,1,0,0:0:0:0:
256,120,77665,1,0,0:0:0:0:
368,160,77910,2,0,P|334:160|292:134,1,52.5000020027161
256,48,78156,6,0,P|195:48|172:27,1,52.5000020027161
160,0,78402,1,0,0:0:0:0:
160,112,78525,2,0,P|176:91|174:39,1,52.5000020027161
160,184,78771,2,0,P|111:169|86:125,1,105.000004005432
390,33,79140,6,0,P|415:58|420:103,1,52.5000020027161
414,144,79385,1,0,0:0:0:0:
354,90,79508,2,0,P|345:123|297:148,1,52.5000020027161
203,33,79754,2,0,P|233:74|283:81,1,105.000004005432
219,97,80123,5,0,0:0:0:0:
203,113,80246,1,0,0:0:0:0:
257,195,80369,5,0,0:0:0:0:
217,184,80492,1,0,0:0:0:0:
206,311,80615,6,0,L|167:236,1,83.9999974365235
49,384,80861,6,0,L|105:192,1,140
110,176,81107,5,0,0:0:0:0:
110,176,81230,1,0,0:0:0:0:
88,249,81353,6,0,P|129:279|181:279,1,105.000004005432
362,218,81599,2,0,P|314:186|218:234,1,105.000004005432
83,255,81844,2,0,P|124:285|176:285,1,105.000004005432
357,228,82090,2,0,P|313:198|371:291,1,420
473,68,82705,1,0,0:0:0:0:
458,106,82828,2,0,B|438:125|438:125|356:157,1,83.9999974365235
361,79,83074,1,0,0:0:0:0:
320,173,83197,1,0,0:0:0:0:
283,0,83320,2,0,L|299:76,1,52.5000020027161
366,306,83566,2,0,B|370:242|270:166|256:239|155:188|182:81,1,315.000012016297
169,177,84180,5,0,0:0:0:0:
234,169,84303,2,0,P|259:138|263:91,1,52.5000020027161
71,232,84549,2,0,P|32:225|-11:245,1,52.5000020027161
211,360,84795,1,0,0:0:0:0:
54,324,84918,2,0,B|46:280|111:230|120:278|186:244|168:175,1,210.000008010865
120,15,85287,6,0,B|104:55|104:55|126:151,1,105.000004005432
331,249,85533,2,0,B|347:209|347:209|325:113,1,105.000004005432
111,12,85779,2,0,B|95:52|95:52|117:148,1,105.000004005432
496,298,98197,5,0,0:0:0:0:
458,286,98320,2,0,P|421:298|390:334,1,52.5000020027161
365,376,98566,5,0,0:0:0:0:
318,216,98689,1,0,0:0:0:0:
303,284,98811,2,0,B|296:313|296:313|337:351,1,52.5000020027161
496,228,99057,6,0,P|368:74|174:119,1,420.000016021729
87,225,99672,5,0,0:0:0:0:
20,204,99795,2,0,P|-1:156|7:119,1,52.5000020027161
232,0,100041,2,0,P|253:48|245:85,1,52.5000020027161
152,191,100287,1,0,0:0:0:0:
329,17,100410,6,0,P|293:72|155:5,1,210.000008010865
99,16,100779,2,0,P|135:80|85:160,1,105.000004005432
32,274,101025,2,0,P|33:326|65:367,1,105.000004005432
108,12,101270,6,0,P|144:76|94:156,1,105.000004005432
43,303,101516,2,0,P|103:200|243:239,1,210.000008010865
