osu file format v14

[General]
AudioFilename: audio.mp3
AudioLeadIn: 0
PreviewTime: 52395
Countdown: 0
SampleSet: Soft
StackLeniency: 0.4
Mode: 0
LetterboxInBreaks: 0
WidescreenStoryboard: 1

[Editor]
Bookmarks: 52394,78340,104286,117259,130232,143205,169151,182124,195097,208070,221043,221246,221448,221651,221854,222057,222259,222462,222665,222867,223070,223273,223475,223678,223881,224084,224286,224489,224692,224894,225097,225300,225503,225705,225908,226111,226313,226516,226719,226921,227124,227327,227530,227732,227935,228138,228340,228543,228746,228948,229151,229354,229557,229759,229962,230165,230367,230570,230773,230975,231178,231381,231584,231786,231989,232192,232394,232597,232800,233003,233205,233408,233611,233813,234016,234219,234421,234624,234827,235030,235232,235435,235638,235840,236043,236246,236448,236651,236854,237057,237259,237462,237665,237867,238070,238273,238475,238678,238881,239084,239286,239489,239692,239894,240097,240300,240503,240705,240908,241111,241313,241516,241719,241921,242124,242327,242530,242732,242935,243138,243340,243543,243746,243948,244151,244354,244557,244759,244962,245165,245367,245570,245773,245975,246178,246381,246584,246786,246989
DistanceSpacing: 0.5
BeatDivisor: 6
GridSize: 16
TimelineZoom: 1.2

[Metadata]
Title:Swimming Pools (Drank)
TitleUnicode:Swimming Pools (Drank)
Artist:Kendrick Lamar
ArtistUnicode:Kendrick Lamar
Creator:Myahkey
Version:Hard (feat. riffy)
Source:
Tags:good kid m.a.a.d city maad hip hop rap trap english grand theft auto gta v 5 riffy bakari
BeatmapID:2756225
BeatmapSetID:1328213

[Difficulty]
HPDrainRate:4
CircleSize:4
OverallDifficulty:6.5
ApproachRate:8
SliderMultiplier:1.4
SliderTickRate:2

[Events]
//Background and Video events
0,0,"Screenshot_20201231_165614.jpg",0,0
//Break Periods
//Storyboard Layer 0 (Background)
//Storyboard Layer 1 (Fail)
//Storyboard Layer 2 (Pass)
//Storyboard Layer 3 (Foreground)
//Storyboard Layer 4 (Overlay)
//Storyboard Sound Samples

[TimingPoints]
503,810.810810810811,4,2,1,30,1,0
12259,-50,4,2,1,5,0,0
13475,-50,4,2,1,50,0,0
14287,-50,4,2,1,70,0,0
14489,-50,4,2,1,5,0,0
14692,-50,4,2,1,30,0,0
14894,-50,4,2,1,5,0,0
15097,-50,4,2,1,50,0,0
15908,-50,4,2,1,70,0,0
16111,-50,4,2,1,5,0,0
16314,-50,4,2,1,30,0,0
16516,-50,4,2,1,5,0,0
16719,-50,4,2,1,50,0,0
17530,-50,4,2,1,70,0,0
17732,-50,4,2,1,5,0,0
17935,-50,4,2,1,30,0,0
18138,-50,4,2,1,5,0,0
18341,-50,4,2,1,50,0,0
19152,-50,4,2,1,70,0,0
19354,-50,4,2,1,5,0,0
19557,-50,4,2,1,30,0,0
19759,-50,4,2,1,5,0,0
19962,-50,4,2,1,50,0,0
20773,-50,4,2,1,70,0,0
20975,-50,4,2,1,5,0,0
21179,-50,4,2,1,30,0,0
21381,-50,4,2,1,5,0,0
21584,-50,4,2,1,50,0,0
22395,-50,4,2,1,70,0,0
22597,-50,4,2,1,5,0,0
22800,-50,4,2,1,30,0,0
23003,-50,4,2,1,5,0,0
23206,-50,4,2,1,50,0,0
24016,-50,4,2,1,70,0,0
24219,-50,4,2,1,5,0,0
24422,-50,4,2,1,30,0,0
24624,-50,4,2,1,5,0,0
24827,-50,4,2,1,50,0,0
25638,-100,4,2,1,70,0,0
25840,-66.6666666666667,4,2,1,70,0,0
26043,-66.6666666666667,4,2,1,70,0,0
38611,-58.8235294117647,4,2,1,70,0,0
39422,-58.8235294117647,4,2,1,80,0,0
39725,-58.8235294117647,4,2,1,5,0,0
39827,-58.8235294117647,4,2,1,80,0,0
40131,-58.8235294117647,4,2,1,5,0,0
40233,-58.8235294117647,4,2,1,80,0,0
40536,-58.8235294117647,4,2,1,5,0,0
40638,-58.8235294117647,4,2,1,80,0,0
40942,-58.8235294117647,4,2,1,5,0,0
41043,-58.8235294117647,4,2,1,80,0,0
42158,-58.8235294117647,4,2,1,5,0,0
42260,-58.8235294117647,4,2,1,80,0,0
42563,-58.8235294117647,4,2,1,5,0,0
42665,-58.8235294117647,4,2,1,80,0,0
45401,-58.8235294117647,4,2,1,5,0,0
45503,-58.8235294117647,4,2,1,80,0,0
45807,-58.8235294117647,4,2,1,5,0,0
45908,-58.8235294117647,4,2,1,80,0,0
51989,-58.8235294117647,4,2,2,80,0,0
52394,-50,4,2,2,85,0,1
78340,-50,4,2,1,50,0,0
79152,-50,4,2,1,70,0,0
79354,-50,4,2,1,5,0,0
79557,-50,4,2,1,30,0,0
79759,-50,4,2,1,5,0,0
79962,-50,4,2,1,50,0,0
80773,-50,4,2,1,70,0,0
80975,-50,4,2,1,5,0,0
81179,-50,4,2,1,30,0,0
81381,-50,4,2,1,5,0,0
81584,-50,4,2,1,50,0,0
82395,-50,4,2,1,70,0,0
82597,-50,4,2,1,5,0,0
82800,-50,4,2,1,30,0,0
83003,-50,4,2,1,5,0,0
83206,-50,4,2,1,50,0,0
84016,-50,4,2,1,70,0,0
84219,-50,4,2,1,5,0,0
84422,-50,4,2,1,30,0,0
84624,-50,4,2,1,5,0,0
84827,-50,4,2,1,50,0,0
85638,-50,4,2,1,70,0,0
85840,-50,4,2,1,5,0,0
86043,-50,4,2,1,30,0,0
86246,-50,4,2,1,5,0,0
86449,-50,4,2,1,50,0,0
87260,-50,4,2,1,70,0,0
87462,-50,4,2,1,5,0,0
87665,-50,4,2,1,30,0,0
87867,-50,4,2,1,5,0,0
88070,-50,4,2,1,50,0,0
88881,-50,4,2,1,70,0,0
89084,-50,4,2,1,5,0,0
89287,-50,4,2,1,30,0,0
89489,-50,4,2,1,5,0,0
89692,-50,4,2,1,50,0,0
91313,-66.6666666666667,4,2,1,50,0,0
91719,-66.6666666666667,4,2,1,70,0,0
101313,-66.6666666666667,4,2,1,80,0,0
101448,-58.8235294117647,4,2,1,80,0,0
116854,-58.8235294117647,4,2,2,85,0,1
117259,-50,4,2,2,85,0,1
143206,-50,4,2,1,50,0,0
144016,-50,4,2,1,70,0,0
144219,-50,4,2,1,5,0,0
144421,-50,4,2,1,30,0,0
144624,-50,4,2,1,5,0,0
144827,-50,4,2,1,50,0,0
145638,-50,4,2,1,70,0,0
145840,-50,4,2,1,5,0,0
146043,-50,4,2,1,30,0,0
146246,-50,4,2,1,5,0,0
146448,-50,4,2,1,50,0,0
147259,-50,4,2,1,70,0,0
147462,-50,4,2,1,5,0,0
147665,-50,4,2,1,30,0,0
147867,-50,4,2,1,5,0,0
148070,-50,4,2,1,50,0,0
148881,-50,4,2,1,70,0,0
149084,-50,4,2,1,5,0,0
149286,-50,4,2,1,30,0,0
149489,-50,4,2,1,5,0,0
149692,-50,4,2,1,50,0,0
150503,-50,4,2,1,70,0,0
150705,-50,4,2,1,5,0,0
150908,-50,4,2,1,30,0,0
151111,-50,4,2,1,5,0,0
151313,-50,4,2,1,50,0,0
152124,-50,4,2,1,70,0,0
152327,-50,4,2,1,5,0,0
152530,-50,4,2,1,30,0,0
152732,-50,4,2,1,5,0,0
152935,-50,4,2,1,50,0,0
153746,-50,4,2,1,70,0,0
153948,-50,4,2,1,5,0,0
154151,-50,4,2,1,30,0,0
154354,-50,4,2,1,5,0,0
154557,-50,4,2,1,50,0,0
156178,-76.9230769230769,4,2,1,50,0,0
156584,-76.9230769230769,4,2,1,60,0,0
169151,-76.9230769230769,4,2,1,80,0,0
169455,-76.9230769230769,4,2,1,5,0,0
169557,-76.9230769230769,4,2,1,80,0,0
170671,-76.9230769230769,4,2,1,5,0,0
170773,-76.9230769230769,4,2,1,80,0,0
175942,-76.9230769230769,4,2,1,5,0,0
176043,-76.9230769230769,4,2,1,80,0,0
177158,-76.9230769230769,4,2,1,5,0,0
177259,-76.9230769230769,4,2,1,80,0,0
181719,-76.9230769230769,4,2,2,85,0,0
182124,-50,4,2,2,85,0,1
208070,-50,4,2,1,50,0,0
208881,-50,4,2,1,70,0,0
209084,-50,4,2,1,5,0,0
209286,-50,4,2,1,30,0,0
209489,-50,4,2,1,5,0,0
209692,-50,4,2,1,50,0,0
210503,-50,4,2,1,70,0,0
210705,-50,4,2,1,5,0,0
210908,-50,4,2,1,30,0,0
211111,-50,4,2,1,5,0,0
211313,-50,4,2,1,50,0,0
212124,-50,4,2,1,70,0,0
212327,-50,4,2,1,5,0,0
212530,-50,4,2,1,30,0,0
212732,-50,4,2,1,5,0,0
212935,-50,4,2,1,50,0,0
213746,-50,4,2,1,70,0,0
213948,-50,4,2,1,5,0,0
214151,-50,4,2,1,30,0,0
214557,-50,4,2,1,50,0,0
215367,-50,4,2,1,70,0,0
215570,-50,4,2,1,5,0,0
215773,-50,4,2,1,30,0,0
216178,-50,4,2,1,50,0,0
216989,-50,4,2,1,70,0,0
217192,-50,4,2,1,5,0,0
217394,-50,4,2,1,30,0,0
217800,-50,4,2,1,50,0,0
218611,-50,4,2,1,70,0,0
218813,-50,4,2,1,5,0,0
219016,-50,4,2,1,30,0,0
219827,-50,4,2,1,40,0,0
220232,-50,4,2,1,50,0,0
220638,-50,4,2,1,60,0,0
220942,-50,4,2,1,5,0,0
221043,-50,4,2,1,80,0,0

[Colours]
Combo1 : 117,117,117
Combo2 : 192,192,192

[HitObjects]
256,192,6989,12,0,12259,0:0:0:0:
176,325,13475,6,0,L|167:253,1,70,2|0,0:0|0:0,0:0:0:0:
156,180,14286,1,8,0:0:0:0:
219,314,15097,6,0,L|210:242,1,70,2|0,0:0|0:0,0:0:0:0:
199,169,15908,1,8,0:0:0:0:
270,302,16719,6,0,L|261:230,1,70,2|0,0:0|0:0,0:0:0:0:
250,157,17530,1,8,0:0:0:0:
312,291,18340,6,0,L|303:219,1,70,2|0,0:0|0:0,0:0:0:0:
293,147,19151,1,8,0:0:0:0:
273,2,19962,6,0,L|282:74,1,70,2|0,0:0|0:0,0:0:0:0:
293,147,20773,1,8,0:0:0:0:
230,13,21584,6,0,L|239:85,1,70,2|0,0:0|0:0,0:0:0:0:
250,158,22395,1,8,0:0:0:0:
179,25,23206,6,0,L|188:97,1,70,2|0,0:0|0:0,0:0:0:0:
199,170,24017,1,8,0:0:0:0:
137,36,24827,6,0,L|146:108,1,70,2|0,0:0|0:0,0:0:0:0:
158,181,25638,1,8,0:0:0:0:
56,137,25840,6,0,L|49:207,1,52.5000020027161,0|2,0:0|0:0,0:0:0:0:
40,273,26246,1,0,0:0:0:0:
40,273,26448,2,0,P|79:264|137:260,1,78.7500030040742,4|0,0:3|0:0,0:0:0:0:
144,293,26854,2,0,L|155:356,1,52.5000020027161,0|4,0:0|0:3,0:0:0:0:
230,305,27259,5,8,0:0:0:0:
313,316,27462,1,0,0:0:0:0:
396,329,27665,1,4,0:3:0:0:
396,329,27766,1,0,0:0:0:0:
396,329,27867,2,0,L|382:255,1,52.5000020027161,0|2,0:0|0:0,0:0:0:0:
447,203,28273,2,0,L|455:151,2,52.5000020027161,0|4|0,0:0|0:3|0:0,0:0:0:0:
373,137,28881,5,8,0:0:0:0:
289,128,29084,2,0,L|283:163,2,26.2500010013581,4|0|2,0:3|0:0|0:0,0:0:0:0:
269,33,29489,1,2,0:0:0:0:
269,33,29692,2,0,P|309:33|357:21,1,78.7500030040742,4|0,0:3|0:0,0:0:0:0:
388,38,30097,2,0,P|392:78|406:123,1,78.7500030040742
419,153,30503,6,0,L|491:143,1,52.5000020027161,8|0,0:0|0:0,0:0:0:0:
496,235,30908,1,4,0:3:0:0:
496,235,31009,1,0,0:0:0:0:
496,235,31111,1,0,0:0:0:0:
512,317,31313,1,2,0:0:0:0:
428,305,31516,1,0,0:0:0:0:
344,292,31719,1,4,0:3:0:0:
261,279,31921,1,0,0:0:0:0:
195,208,32124,5,8,0:0:0:0:
282,194,32327,1,4,0:3:0:0:
282,194,32428,1,0,0:0:0:0:
282,194,32530,1,4,0:3:0:0:
223,128,32732,1,2,0:0:0:0:
223,128,32935,2,0,P|212:90|207:40,1,78.7500030040742,4|0,0:3|0:0,0:0:0:0:
169,33,33340,2,0,L|106:40,1,52.5000020027161,0|4,0:0|0:3,0:0:0:0:
6,49,33746,5,8,0:0:0:0:
74,113,33948,1,0,0:0:0:0:
74,113,34050,1,0,0:0:0:0:
74,113,34151,2,0,L|64:183,1,52.5000020027161,4|2,0:3|0:0,0:0:0:0:
55,248,34557,2,0,L|119:233,1,52.5000020027161,2|0,0:0|0:0,0:0:0:0:
189,224,34962,2,0,L|252:239,1,52.5000020027161,4|0,0:3|0:0,0:0:0:0:
347,263,35367,5,8,0:0:0:0:
284,316,35570,1,4,0:3:0:0:
284,316,35671,1,0,0:0:0:0:
284,316,35773,2,0,L|232:334,1,52.5000020027161,2|2,0:0|0:0,0:0:0:0:
153,356,36178,2,0,L|160:279,1,52.5000020027161,4|0,0:3|0:0,0:0:0:0:
160,219,36584,2,0,L|146:151,1,52.5000020027161,0|4,0:0|0:3,0:0:0:0:
124,60,36989,5,8,0:0:0:0:
206,73,37192,1,0,0:0:0:0:
287,89,37394,2,0,L|353:101,1,52.5000020027161,4|0,0:3|0:0,0:0:0:0:
422,112,37800,1,2,0:0:0:0:
422,112,38003,2,0,L|436:184,2,52.5000020027161,0|4|0,0:0|0:3|0:0,0:0:0:0:
328,184,38611,2,0,L|257:198,1,59.5000011348725,8|4,0:0|0:3,0:0:0:0:
333,266,39016,2,0,L|404:280,1,59.5000011348725,4|2,0:3|0:0,0:0:0:0:
484,296,39421,6,0,P|471:243|466:179,1,119.000002269745,4|2,0:3|0:0,0:0:0:0:
350,26,40232,2,0,P|347:87|332:143,1,119.000002269745,8|4,0:0|0:3,0:0:0:0:
268,322,41043,1,2,0:0:0:0:
186,297,41246,1,0,0:0:0:0:
186,297,41347,1,0,0:0:0:0:
186,297,41448,2,0,L|112:312,1,59.5000011348725,4|2,0:3|0:0,0:0:0:0:
130,211,41854,2,0,P|128:156|109:80,1,119.000002269745,8|4,0:0|0:3,0:0:0:0:
295,69,42665,5,4,0:3:0:0:
295,69,42868,2,0,L|293:108,2,29.7500005674362,2|0|2,0:0|0:0|0:0,0:0:0:0:
388,51,43273,1,4,0:3:0:0:
480,30,43475,1,8,0:0:0:0:
474,152,43678,1,2,0:0:0:0:
474,152,43780,1,0,0:0:0:0:
474,152,43881,2,0,L|463:226,1,59.5000011348725,4|2,0:3|0:0,0:0:0:0:
455,305,44286,1,2,0:0:0:0:
363,276,44489,2,0,L|356:214,1,59.5000011348725,2|4,0:0|0:3,0:0:0:0:
270,187,44894,5,0,0:0:0:0:
270,187,45097,2,0,P|266:247|251:316,1,119.000002269745,8|4,0:0|0:3,0:0:0:0:
45,321,45908,6,0,L|118:305,1,59.5000011348725,4|0,0:3|0:0,0:0:0:0:
196,290,46313,2,0,L|267:307,1,59.5000011348725,2|4,0:0|0:3,0:0:0:0:
346,327,46719,2,0,L|419:308,1,59.5000011348725,8|2,0:0|0:0,0:0:0:0:
368,133,47327,1,2,0:0:0:0:
368,133,47428,1,2,0:0:0:0:
368,133,47530,6,0,L|384:209,1,59.5000011348725,2|2,0:0|0:0,0:0:0:0:
287,213,47935,2,0,L|216:230,1,59.5000011348725,4|0,0:3|0:0,0:0:0:0:
207,133,48341,2,0,L|194:63,1,59.5000011348725,8|4,0:0|0:3,0:0:0:0:
289,53,48746,6,0,L|346:39,2,59.5000011348725,2|0|4,0:0|0:0|0:3,0:0:0:0:
203,80,49354,1,0,0:0:0:0:
203,80,49455,1,0,0:0:0:0:
203,80,49557,2,0,L|121:59,1,59.5000011348725,2|4,0:0|0:3,0:0:0:0:
38,41,49962,1,8,0:0:0:0:
38,41,50367,5,4,0:3:0:0:
49,135,50570,1,0,0:0:0:0:
61,229,50773,2,0,L|126:244,1,59.5000011348725,2|0,0:0|0:0,0:0:0:0:
133,336,51178,2,0,L|190:319,2,59.5000011348725,4|0|8,0:3|0:0|0:1,0:0:0:0:
185,73,52394,6,0,P|217:70|278:65,1,70,6|0,0:1|0:0,0:0:0:0:
419,55,52800,2,0,P|388:49|362:43,1,35
377,38,53003,1,4,0:3:0:0:
278,167,53205,2,0,P|310:164|371:159,1,70,8|0,0:0|0:0,0:0:0:0:
467,212,53611,2,0,P|436:206|410:200,1,35,6|0,0:1|0:0,0:0:0:0:
425,195,53814,1,0,0:0:0:0:
358,277,54016,1,2,0:2:0:0:
147,343,54421,2,0,P|201:351|309:372,1,140,4|8,0:3|0:0,0:0:0:0:
372,320,55030,2,0,P|422:334|517:356,1,140,4|0,0:3|0:0,0:0:0:0:
487,225,55638,6,0,P|430:225|390:229,1,70,6|0,0:1|0:0,0:0:0:0:
340,164,56043,1,0,0:0:0:0:
340,164,56144,1,0,0:0:0:0:
340,164,56246,1,4,0:3:0:0:
264,225,56448,1,8,0:0:0:0:
176,180,56651,1,0,0:0:0:0:
76,247,56854,2,0,P|40:247|-1:190,1,105,6|0,0:1|0:0,0:0:0:0:
16,165,57259,2,0,P|32:130|41:74,1,70,2|0,0:0|0:0,0:0:0:0:
140,15,57665,2,0,P|147:45|147:63,1,35,4|0,0:3|0:0,0:0:0:0:
137,96,57867,1,0,0:0:0:0:
242,66,58070,1,8,0:0:0:0:
309,137,58273,1,4,0:3:0:0:
388,80,58475,2,0,P|408:58|468:42,1,70,4|0,0:3|0:0,0:0:0:0:
499,206,58881,6,0,P|448:209|379:147,1,140,6|0,0:1|0:0,0:0:0:0:
321,232,59489,1,4,0:3:0:0:
414,309,59692,2,0,P|397:342|379:381,1,70,8|0,0:0|0:0,0:0:0:0:
284,325,60097,2,0,P|234:346|161:386,1,105,6|0,0:1|0:0,0:0:0:0:
142,352,60503,2,0,C|93:315|100:242|40:189|38:117,1,280,2|8,0:2|0:0,0:0:0:0:
232,153,61719,1,2,0:0:0:0:
499,206,62124,6,0,P|448:209|379:147,1,140,6|0,0:1|0:0,0:0:0:0:
321,232,62732,1,4,0:3:0:0:
414,309,62935,2,0,P|397:342|379:381,1,70,8|0,0:0|0:0,0:0:0:0:
284,325,63340,2,0,P|234:346|161:386,1,105,6|0,0:1|0:0,0:0:0:0:
142,352,63746,2,0,C|93:315|100:242|40:189|38:117,1,280,2|8,0:2|0:0,0:0:0:0:
232,153,64962,1,2,0:0:0:0:
500,151,65367,6,0,P|458:124|441:93,1,70,6|0,0:1|0:0,0:0:0:0:
437,9,65773,2,0,L|485:10,1,35
487,20,65975,1,4,0:3:0:0:
355,63,66178,2,0,P|327:60|261:30,1,70,8|0,0:0|0:0,0:0:0:0:
208,114,66584,2,0,P|185:73|171:28,1,70,6|0,0:1|0:0,0:0:0:0:
277,169,66989,1,2,0:0:0:0:
203,234,67192,1,0,0:0:0:0:
277,323,67394,2,0,P|247:355|162:355,1,105,4|0,0:3|0:0,0:0:0:0:
141,352,67800,2,0,L|45:338,1,70,8|4,0:0|0:3,0:0:0:0:
22,257,68205,1,0,0:0:0:0:
103,202,68408,2,0,P|117:232|121:253,1,35
101,178,68611,6,0,P|133:149|234:110,1,140,6|0,0:1|0:0,0:0:0:0:
331,141,69219,2,0,P|338:170|341:186,1,35,4|0,0:3|0:0,0:0:0:0:
317,130,69421,2,0,P|334:89|353:48,1,70,10|0,0:0|0:0,0:0:0:0:
453,142,69827,2,0,P|490:177|511:238,1,105,6|0,0:1|0:0,0:0:0:0:
489,270,70232,1,2,0:0:0:0:
510,365,70435,1,0,0:0:0:0:
417,331,70638,2,0,P|402:346|390:362,2,35,4|0|0,0:3|0:0|0:0,0:0:0:0:
289,276,71043,1,8,0:0:0:0:
307,372,71246,1,4,0:3:0:0:
157,310,71448,2,0,P|137:339|116:389,1,70,4|0,0:3|0:0,0:0:0:0:
13,251,71854,6,0,P|50:222|140:233,1,140,6|0,0:1|0:0,0:0:0:0:
232,204,72462,2,0,P|240:227|240:256,1,35,4|0,0:3|0:0,0:0:0:0:
226,180,72665,2,0,P|244:149|269:104,1,70,8|0,0:0|0:0,0:0:0:0:
351,200,73070,2,0,P|384:191|430:172,1,70,6|0,0:1|0:0,0:0:0:0:
452,66,73475,2,0,C|404:27|335:51|269:6|198:21,1,280,2|8,0:0|0:0,0:0:0:0:
16,57,74692,1,2,0:0:0:0:
13,251,75097,6,0,P|50:222|140:233,1,140,6|0,0:1|0:0,0:0:0:0:
232,204,75705,2,0,P|240:227|240:256,1,35,4|0,0:3|0:0,0:0:0:0:
226,180,75908,2,0,P|244:149|269:104,1,70,8|0,0:0|0:0,0:0:0:0:
351,200,76313,2,0,P|383:182|430:172,1,70,6|0,0:1|0:0,0:0:0:0:
452,66,76719,2,0,C|404:27|335:51|269:6|196:21,1,280,2|8,0:0|0:0,0:0:0:0:
16,57,77935,1,2,0:0:0:0:
154,130,78340,6,0,L|226:121,1,70,2|0,0:0|0:0,0:0:0:0:
299,110,79151,1,8,0:0:0:0:
165,173,79962,6,0,L|237:164,1,70,2|0,0:0|0:0,0:0:0:0:
310,153,80773,1,8,0:0:0:0:
177,224,81584,6,0,L|249:215,1,70,2|0,0:0|0:0,0:0:0:0:
322,204,82395,1,8,0:0:0:0:
188,266,83205,6,0,L|260:257,1,70,2|0,0:0|0:0,0:0:0:0:
332,247,84016,1,8,0:0:0:0:
477,227,84827,6,0,L|405:236,1,70,2|0,0:0|0:0,0:0:0:0:
332,247,85638,1,8,0:0:0:0:
466,184,86449,6,0,L|394:193,1,70,2|0,0:0|0:0,0:0:0:0:
321,204,87260,1,8,0:0:0:0:
454,133,88071,6,0,L|382:142,1,70,2|0,0:0|0:0,0:0:0:0:
309,153,88882,1,8,0:0:0:0:
443,91,89692,6,0,L|371:100,1,70,2|0,0:0|0:0,0:0:0:0:
51,31,91313,5,4,0:3:0:0:
51,31,91719,2,0,L|41:98,2,52.5000020027161,0|4|8,0:0|0:3|0:0,0:0:0:0:
26,176,92935,2,0,P|60:167|120:168,1,70.0000026702882,2|0,0:0|0:0,0:0:0:0:
123,167,93340,2,0,P|147:191|176:244,1,70.0000026702882,4|0,0:3|0:0,0:0:0:0:
182,248,93746,2,0,P|216:238|276:239,1,70.0000026702882,10|0,0:0|0:0,0:0:0:0:
282,241,94151,1,0,0:0:0:0:
229,20,94962,6,0,L|313:9,1,70.0000026702882,2|0,0:0|0:0,0:0:0:0:
338,16,95367,2,0,P|331:57|330:102,1,70.0000026702882,8|0,0:0|0:0,0:0:0:0:
336,121,95773,2,0,L|384:113,2,35.0000013351441,4|0|0,0:3|0:0|0:0,0:0:0:0:
350,166,96178,2,0,P|384:202|419:260,2,105.000004005432,0|4|8,0:0|0:3|0:0,0:0:0:0:
290,260,97394,1,4,0:3:0:0:
290,260,97800,1,4,0:3:0:0:
119,232,98205,6,0,L|128:310,1,70.0000026702882,2|0,0:0|0:0,0:0:0:0:
134,332,98611,2,0,P|190:327|245:299,2,105.000004005432,10|4|2,0:0|0:3|0:0,0:0:0:0:
327,300,99827,2,0,L|369:293,2,35.0000013351441,4|0|0,0:3|0:0|0:0,0:0:0:0:
319,257,100232,2,0,P|306:204|274:151,1,105.000004005432,10|0,0:0|0:0,0:0:0:0:
281,160,101043,1,4,0:3:0:0:
345,56,101448,5,2,0:0:0:0:
345,56,101854,2,0,L|358:145,1,79.3333348464966,10|0,0:0|0:0,0:0:0:0:
376,167,102259,2,0,L|462:154,1,79.3333348464966,4|0,0:3|0:0,0:0:0:0:
494,133,102665,2,0,L|479:54,1,79.3333348464966,2|0,0:0|0:0,0:0:0:0:
454,25,103070,2,0,L|362:38,1,79.3333348464966,4|0,0:3|0:0,0:0:0:0:
349,66,103475,1,10,0:0:0:0:
310,76,103611,1,0,0:0:0:0:
270,76,103746,1,0,0:0:0:0:
237,53,103881,2,0,L|244:149,1,79.3333348464966,4|0,0:3|0:0,0:0:0:0:
265,169,104286,6,0,L|352:176,1,79.3333348464966,4|0,0:3|0:0,0:0:0:0:
385,166,104692,2,0,P|391:201|388:264,1,79.3333348464966
355,287,105097,1,8,0:0:0:0:
240,363,105503,2,0,L|245:305,2,39.6666674232483,4|0|0,0:3|0:0|0:0,0:0:0:0:
184,370,105908,2,0,P|136:341|93:333,1,79.3333348464966,2|0,0:0|0:0,0:0:0:0:
60,350,106313,1,4,0:3:0:0:
12,190,106719,2,0,P|61:181|114:181,1,79.3333348464966,10|0,0:0|0:0,0:0:0:0:
126,137,107124,1,2,0:0:0:0:
141,190,107259,1,0,0:0:0:0:
169,237,107394,1,0,0:0:0:0:
191,185,107530,6,0,P|226:166|284:169,1,79.3333348464966,4|0,0:3|0:0,0:0:0:0:
260,107,107935,2,0,P|300:109|349:140,1,79.3333348464966,2|0,0:0|0:0,0:0:0:0:
380,95,108340,2,0,P|398:131|395:189,1,79.3333348464966,10|0,0:0|0:0,0:0:0:0:
454,181,108745,2,0,P|431:215|380:242,1,79.3333348464966,4|0,0:3|0:0,0:0:0:0:
405,291,109151,2,0,P|364:288|315:257,1,79.3333348464966,2|0,0:0|0:0,0:0:0:0:
295,209,109557,1,4,0:3:0:0:
161,302,109962,2,0,L|164:355,2,39.6666674232483,10|0|0,0:0|0:0|0:0,0:0:0:0:
144,249,110367,1,4,0:3:0:0:
105,289,110503,1,0,0:0:0:0:
53,308,110638,1,0,0:0:0:0:
2,285,110773,5,4,0:3:0:0:
226,293,111178,2,0,P|221:267|223:225,2,39.6666674232483,2|0|0,0:0|0:0|0:0,0:0:0:0:
221,348,111584,1,10,0:0:0:0:
272,319,111719,1,0,0:0:0:0:
323,305,111854,1,0,0:0:0:0:
375,309,111989,2,0,P|422:315|467:335,1,79.3333348464966,4|0,0:3|0:0,0:0:0:0:
491,288,112394,2,0,P|472:244|467:195,1,79.3333348464966,2|0,0:0|0:0,0:0:0:0:
490,161,112800,1,4,0:3:0:0:
405,17,113205,2,0,P|447:12|458:12,2,39.6666674232483,10|0|0,0:0|0:0|0:0,0:0:0:0:
361,52,113611,2,0,P|304:36|255:30,1,79.3333348464966,2|0,0:0|0:0,0:0:0:0:
235,58,114016,6,0,P|213:85|186:144,1,79.3333348464966,4|0,0:3|0:0,0:0:0:0:
150,160,114421,2,0,P|137:127|100:74,1,79.3333348464966,2|0,0:0|0:0,0:0:0:0:
83,43,114827,1,10,0:0:0:0:
58,93,114962,1,0,0:0:0:0:
11,122,115097,1,0,0:0:0:0:
0,177,115232,2,0,P|0:219|18:268,1,79.3333348464966,4|0,0:3|0:0,0:0:0:0:
49,294,115638,2,0,P|54:336|56:360,1,39.6666674232483,2|0,0:0|0:0,0:0:0:0:
154,150,116043,2,0,P|158:178|158:199,1,39.6666674232483,4|0,0:3|0:0,0:0:0:0:
282,238,116448,2,0,P|269:275|235:358,1,119.000002269745,8|2,0:1|0:0,0:0:0:0:
474,320,117259,6,0,P|439:323|405:329,1,70,6|0,0:1|0:0,0:0:0:0:
256,272,117665,2,0,P|287:278|313:284,2,35,0|0|4,0:0|0:0|0:3,0:0:0:0:
440,206,118070,2,0,P|406:208|357:218,1,70,8|0,0:0|0:0,0:0:0:0:
316,93,118475,2,0,P|350:104|405:106,1,70,6|0,0:1|0:0,0:0:0:0:
462,26,118881,2,0,P|472:96|476:188,2,140,2|4|8,0:0|0:3|0:0,0:0:0:0:
462,26,120097,1,0,0:0:0:0:
386,109,120300,1,0,0:0:0:0:
248,22,120503,6,0,P|256:58|254:107,1,70,6|0,0:1|0:0,0:0:0:0:
246,242,120908,2,0,P|240:211|234:185,2,35,0|0|4,0:0|0:0|0:3,0:0:0:0:
110,124,121313,2,0,P|150:126|196:137,2,70,8|0|6,0:0|0:0|0:1,0:0:0:0:
2,175,121921,1,0,0:0:0:0:
108,269,122124,2,0,P|171:253|252:243,1,140,2|4,0:0|0:3,0:0:0:0:
249,251,122631,1,0,0:0:0:0:
253,258,122732,1,0,0:0:0:0:
371,332,122935,2,0,P|377:297|377:257,1,70,8|4,0:0|0:3,0:0:0:0:
468,207,123340,2,0,P|469:243|481:282,1,70,4|0,0:3|0:0,0:0:0:0:
389,155,123746,6,0,L|311:167,1,70,6|0,0:1|0:0,0:0:0:0:
168,145,124151,2,0,P|199:151|225:157,1,35
210,162,124354,1,4,0:3:0:0:
252,300,124557,2,0,L|261:213,1,70,8|0,0:0|0:0,0:0:0:0:
270,94,124962,1,6,0:1:0:0:
270,94,125063,1,0,0:0:0:0:
270,94,125165,1,0,0:0:0:0:
359,28,125367,2,0,C|408:65|401:138|461:191|463:263,1,280,2|8,0:0|0:0,0:0:0:0:
257,193,126584,1,2,0:0:0:0:
81,43,126989,6,0,P|154:51|232:32,1,140,6|0,0:1|0:0,0:0:0:0:
246,28,127496,2,0,L|239:79,1,35,0|4,0:0|0:3,0:0:0:0:
313,202,127800,2,0,P|305:167|304:125,1,70,8|0,0:0|0:0,0:0:0:0:
192,120,128205,1,6,0:1:0:0:
246,28,128408,1,0,0:0:0:0:
359,28,128611,2,0,C|408:65|401:138|461:191|463:263,1,280,2|8,0:0|0:0,0:0:0:0:
257,193,129828,1,2,0:0:0:0:
108,320,130232,5,6,0:1:0:0:
19,277,130435,1,0,0:0:0:0:
117,319,130638,2,0,P|146:313|159:311,1,35
167,316,130840,1,4,0:3:0:0:
281,258,131043,2,0,P|325:274|417:320,1,140,8|6,0:0|0:1,0:0:0:0:
413,328,131550,1,0,0:0:0:0:
416,345,131651,1,0,0:0:0:0:
476,237,131854,2,0,P|483:198|495:167,1,70,2|0,0:0|0:0,0:0:0:0:
388,153,132259,2,0,P|365:114|338:43,1,105,4|0,0:3|0:0,0:0:0:0:
349,44,132665,1,8,0:0:0:0:
443,69,132867,1,4,0:3:0:0:
98,228,133475,6,0,P|78:299|50:369,1,140,6|0,0:1|0:0,0:0:0:0:
39,364,133982,1,0,0:0:0:0:
22,368,134084,1,4,0:3:0:0:
168,349,134286,2,0,P|225:362|252:366,1,70,8|0,0:0|0:0,0:0:0:0:
326,324,134692,2,0,P|375:338|432:356,1,105,6|0,0:1|0:0,0:0:0:0:
436,368,135097,1,2,0:0:0:0:
380,152,135503,1,4,0:3:0:0:
201,280,135908,1,8,0:0:0:0:
109,243,136111,1,4,0:3:0:0:
145,152,136313,1,4,0:3:0:0:
234,192,136516,1,0,0:0:0:0:
115,242,136719,6,0,P|99:294|82:379,1,140,6|0,0:1|0:0,0:0:0:0:
20,209,137327,2,0,P|15:187|11:158,1,35,4|0,0:3|0:0,0:0:0:0:
15,159,137530,1,8,0:0:0:0:
50,68,137732,1,0,0:0:0:0:
133,119,137935,2,0,P|136:141|140:168,2,35,6|0|0,0:1|0:0|0:0,0:0:0:0:
233,58,138340,2,0,C|280:102|275:173|330:231|329:304,1,280,2|8,0:0|0:0,0:0:0:0:
393,136,139557,1,2,0:0:0:0:
220,287,139962,6,0,P|162:313|90:375,1,140,6|0,0:1|0:0,0:0:0:0:
92,349,140469,1,0,0:0:0:0:
79,344,140570,1,4,0:3:0:0:
75,219,140773,2,0,P|47:233|13:258,1,70,8|0,0:0|0:0,0:0:0:0:
179,256,141178,1,6,0:1:0:0:
183,242,141280,1,0,0:0:0:0:
184,228,141381,1,0,0:0:0:0:
183,214,141482,1,0,0:0:0:0:
178,200,141584,2,0,C|214:146|285:140|333:77|405:66,1,280,2|8,0:0|0:0,0:0:0:0:
480,120,142597,1,4,0:3:0:0:
442,221,142800,1,2,0:0:0:0:
144,181,143205,6,0,L|216:190,1,70,2|0,0:0|0:0,0:0:0:0:
289,201,144016,1,8,0:0:0:0:
155,138,144827,6,0,L|227:147,1,70,2|0,0:0|0:0,0:0:0:0:
300,158,145638,1,8,0:0:0:0:
167,87,146449,6,0,L|239:96,1,70,2|0,0:0|0:0,0:0:0:0:
312,107,147260,1,8,0:0:0:0:
178,45,148070,6,0,L|250:54,1,70,2|0,0:0|0:0,0:0:0:0:
322,64,148881,1,8,0:0:0:0:
457,127,149692,6,0,L|385:118,1,70,2|0,0:0|0:0,0:0:0:0:
312,107,150503,1,8,0:0:0:0:
446,170,151314,6,0,L|374:161,1,70,2|0,0:0|0:0,0:0:0:0:
301,150,152125,1,8,0:0:0:0:
434,221,152936,6,0,L|362:212,1,70,2|0,0:0|0:0,0:0:0:0:
289,201,153747,1,8,0:0:0:0:
423,263,154557,6,0,L|351:254,1,70,2|0,0:0|0:0,0:0:0:0:
21,46,156178,6,0,L|116:35,2,90.9999958343508,4|2|8,0:3|0:0|0:0,0:0:0:0:
36,180,157394,2,0,L|47:275,2,90.9999958343508,4|2|4,0:3|0:0|0:3,0:0:0:0:
36,180,158611,1,8,0:0:0:0:
275,348,159421,6,0,L|284:293,1,45.4999979171754,4|0,0:3|0:0,0:0:0:0:
368,280,159827,1,2,0:0:0:0:
368,280,160030,2,0,L|380:338,1,45.4999979171754,4|8,0:3|0:0,0:0:0:0:
466,355,160435,1,2,0:0:0:0:
471,282,160638,2,0,L|475:224,2,45.4999979171754,4|0|0,0:3|0:0|0:0,0:0:0:0:
471,282,161854,1,8,0:0:0:0:
231,342,162665,6,0,L|136:353,2,90.9999958343508,4|2|8,0:3|0:0|0:0,0:0:0:0:
216,208,163881,2,0,L|205:113,2,90.9999958343508,4|2|4,0:3|0:0|0:3,0:0:0:0:
216,208,165098,1,8,0:0:0:0:
395,29,165908,6,0,P|396:64|389:108,1,68.2499968757631,4|0,0:3|0:0,0:0:0:0:
384,125,166313,2,0,L|335:128,1,45.4999979171754,2|4,0:0|0:3,0:0:0:0:
261,131,166719,1,8,0:0:0:0:
315,222,166921,1,2,0:0:0:0:
315,222,167124,2,0,L|375:226,2,45.4999979171754,4|0|0,0:3|0:0|0:0,0:0:0:0:
315,222,168340,1,8,0:0:0:0:
72,299,169151,6,0,P|128:305|271:328,1,181.999991668702,4|8,0:3|0:0,0:0:0:0:
397,313,170367,2,0,P|380:313|343:320,1,45.4999979171754,4|0,0:3|0:0,0:0:0:0:
302,262,170773,2,0,P|300:201|303:158,1,90.9999958343508,2|4,0:0|0:3,0:0:0:0:
291,371,171584,1,8,0:0:0:0:
288,362,171786,1,4,0:3:0:0:
284,353,171989,1,0,0:0:0:0:
182,248,172394,5,4,0:3:0:0:
65,335,172800,1,2,0:0:0:0:
65,335,173003,1,4,0:3:0:0:
13,198,173408,1,2,0:0:0:0:
84,209,173611,1,4,0:3:0:0:
139,255,173813,1,2,0:0:0:0:
206,283,174016,2,0,P|242:274|266:270,1,45.4999979171754,2|0,0:0|0:0,0:0:0:0:
495,162,174827,2,0,P|444:157|389:156,1,90.9999958343508,8|4,0:0|0:3,0:0:0:0:
188,98,175638,6,0,P|185:61|174:7,1,90.9999958343508,4|2,0:3|0:0,0:0:0:0:
167,15,176246,1,4,0:3:0:0:
244,248,176854,2,0,P|220:291|195:346,1,90.9999958343508,4|2,0:3|0:0,0:0:0:0:
208,336,177462,1,0,0:0:0:0:
27,188,178070,2,0,P|31:226|48:285,1,90.9999958343508,8|0,0:0|0:0,0:0:0:0:
140,102,178881,5,4,0:3:0:0:
286,205,179286,1,2,0:0:0:0:
286,205,179489,1,4,0:3:0:0:
394,108,179894,1,2,0:0:0:0:
322,123,180097,1,4,0:3:0:0:
261,82,180300,1,2,0:0:0:0:
204,127,180503,2,0,P|184:161|174:183,1,45.4999979171754,2|0,0:2|0:0,0:0:0:0:
138,253,180908,6,0,P|113:230|76:212,1,68.2499968757631,4|0,0:3|0:0,0:0:0:0:
67,196,181313,2,0,P|79:241|90:306,1,90.9999958343508,8|2,0:1|0:0,0:0:0:0:
250,318,182124,6,0,P|215:321|181:327,1,70,6|0,0:1|0:0,0:0:0:0:
45,267,182530,2,0,P|76:273|102:279,2,35,0|0|4,0:3|0:0|0:3,0:0:0:0:
186,227,182935,2,0,P|192:190|190:147,1,70,8|0,0:0|0:0,0:0:0:0:
102,124,183340,1,6,0:1:0:0:
102,124,183442,1,0,0:0:0:0:
102,124,183543,1,0,0:0:0:0:
225,73,183746,2,0,P|285:46|377:29,2,140,2|4|8,0:0|0:3|0:0,0:0:0:0:
225,74,184962,1,0,0:0:0:0:
296,146,185165,1,0,0:0:0:0:
454,105,185367,6,0,P|442:157|444:211,1,105,6|0,0:1|0:0,0:0:0:0:
428,233,185773,2,0,P|392:225|351:227,1,70,0|4,0:0|0:3,0:0:0:0:
261,242,186178,2,0,L|270:314,2,70,8|0|6,0:0|0:0|0:1,0:0:0:0:
165,252,186786,2,0,P|134:258|108:264,2,35,0|0|2,0:0|0:0|0:0,0:0:0:0:
123,269,187394,1,4,0:3:0:0:
170,187,187596,1,0,0:0:0:0:
80,100,187799,2,0,L|73:185,3,70,8|4|4|0,0:0|0:3|0:3|0:0,0:0:0:0:
60,295,188611,6,0,P|107:283|183:278,1,105,6|0,0:1|0:0,0:0:0:0:
186,278,189016,2,0,P|176:315|178:350,1,70,0|4,0:0|0:3,0:0:0:0:
285,318,189421,2,0,P|295:281|293:246,1,70,8|0,0:0|0:0,0:0:0:0:
210,187,189827,1,6,0:1:0:0:
210,187,189928,1,0,0:0:0:0:
210,187,190030,1,0,0:0:0:0:
119,230,190232,2,0,C|70:193|77:120|17:67|15:-5,1,280,2|8,0:0|0:0,0:0:0:0:
211,94,191448,1,2,0:0:0:0:
216,335,191854,6,0,P|232:282|227:223,1,105,6|0,0:1|0:0,0:0:0:0:
228,208,192259,2,0,P|262:214|313:195,1,70,0|4,0:0|0:3,0:0:0:0:
220,128,192665,2,0,P|186:122|135:141,1,70,8|0,0:0|0:0,0:0:0:0:
228,208,193070,1,6,0:1:0:0:
189,289,193273,1,0,0:0:0:0:
118,240,193475,2,0,C|69:203|76:130|16:77|14:5,1,280,2|8,0:0|0:0,0:0:0:0:
211,94,194692,1,2,0:0:0:0:
270,354,195097,5,6,0:1:0:0:
204,271,195300,1,0,0:0:0:0:
108,315,195503,2,0,P|95:340|84:362,1,35
91,357,195705,1,4,0:3:0:0:
16,250,195908,2,0,P|64:224|123:208,1,105,8|0,0:0|0:0,0:0:0:0:
127,213,196313,1,6,0:1:0:0:
140,221,196415,2,0,P|149:246|155:267,1,35
103,123,196719,1,2,0:0:0:0:
180,52,196921,1,0,0:0:0:0:
282,125,197124,2,0,P|336:125|412:102,1,105,4|0,0:3|0:0,0:0:0:0:
393,103,197530,1,8,0:0:0:0:
416,0,197732,1,4,0:3:0:0:
461,351,198340,6,0,P|476:284|494:216,1,140,6|0,0:1|0:0,0:0:0:0:
486,204,198847,1,0,0:0:0:0:
480,192,198948,1,4,0:3:0:0:
374,221,199151,2,0,P|381:251|394:298,1,70,10|0,0:0|0:0,0:0:0:0:
272,284,199557,2,0,P|249:311|210:382,1,105,6|0,0:1|0:0,0:0:0:0:
208,359,199962,1,2,0:0:0:0:
103,373,200165,1,0,0:0:0:0:
27,300,200367,1,4,0:3:0:0:
110,368,200773,5,8,0:0:0:0:
25,288,200975,1,4,0:3:0:0:
31,165,201178,1,4,0:3:0:0:
19,280,201584,6,0,P|74:277|181:302,1,140,6|0,0:1|0:0,0:0:0:0:
149,282,202090,1,0,0:0:0:0:
144,269,202192,1,4,0:3:0:0:
267,301,202394,2,0,P|259:338|246:376,1,70,8|0,0:0|0:0,0:0:0:0:
232,203,202800,1,6,0:1:0:0:
236,189,202901,1,0,0:0:0:0:
242,177,203003,1,0,0:0:0:0:
363,105,203205,2,0,C|389:172|351:234|379:297|344:371,1,280,2|8,0:0|0:0,0:0:0:0:
454,311,204219,1,4,0:3:0:0:
483,184,204421,1,2,0:0:0:0:
289,151,204827,6,0,P|248:129|153:110,1,140,6|0,0:1|0:0,0:0:0:0:
169,101,205334,1,0,0:0:0:0:
180,92,205435,1,4,0:3:0:0:
64,116,205638,2,0,P|41:104|7:61,1,70,8|0,0:0|0:0,0:0:0:0:
123,205,206043,1,6,0:1:0:0:
119,218,206144,1,0,0:0:0:0:
116,231,206246,1,0,0:0:0:0:
114,244,206347,1,0,0:0:0:0:
109,259,206448,2,0,C|165:284|236:263|304:300|374:281,1,280,2|8,0:0|0:0,0:0:0:0:
314,199,207462,1,4,0:3:0:0:
226,346,207665,1,2,0:0:0:0:
280,34,208070,6,0,L|289:106,1,70,2|0,0:0|0:0,0:0:0:0:
300,179,208881,1,8,0:0:0:0:
237,45,209692,6,0,L|246:117,1,70,2|0,0:0|0:0,0:0:0:0:
257,190,210503,1,8,0:0:0:0:
186,57,211314,6,0,L|195:129,1,70,2|0,0:0|0:0,0:0:0:0:
205,201,212125,1,8,0:0:0:0:
144,68,212935,6,0,L|153:140,1,70,2|0,0:0|0:0,0:0:0:0:
163,212,213746,1,8,0:0:0:0:
183,357,214557,6,0,L|174:285,1,70,2|0,0:0|0:0,0:0:0:0:
163,212,215368,1,8,0:0:0:0:
226,346,216179,6,0,L|217:274,1,70,2|0,0:0|0:0,0:0:0:0:
205,201,216990,1,8,0:0:0:0:
277,334,217801,6,0,L|268:262,1,70,2|0,0:0|0:0,0:0:0:0:
257,189,218612,1,8,0:0:0:0:
256,192,219421,12,4,221043,0:1:0:0:
