osu file format v14

[General]
AudioFilename: audio.mp3
AudioLeadIn: 0
PreviewTime: -1
Countdown: 0
SampleSet: Normal
StackLeniency: 0.7
Mode: 0
LetterboxInBreaks: 0
SkinPreference:miraie
WidescreenStoryboard: 1

[Editor]
DistanceSpacing: 1
BeatDivisor: 8
GridSize: 16
TimelineZoom: 1

[Metadata]
Title:Swimming Pools (Drank) (Black Hippy Remix)
TitleUnicode:Swimming Pools (Drank) (Black Hippy Remix)
Artist:Kendrick Lamar
ArtistUnicode:Kendrick Lamar
Creator:Timohaaaaa
Version:Hard
Source:
Tags:pool lamar swim pools ken drick kendrick pol swimming gta5 5 GTA
BeatmapID:1535740
BeatmapSetID:705117

[Difficulty]
HPDrainRate:6
CircleSize:4
OverallDifficulty:5
ApproachRate:8
SliderMultiplier:3.1
SliderTickRate:4

[Events]
//Background and Video events
0,0,"001_290_1.jpg121.jpg",0,0
//Break Periods
//Storyboard Layer 0 (Background)
//Storyboard Layer 1 (Fail)
//Storyboard Layer 2 (Pass)
//Storyboard Layer 3 (Foreground)
//Storyboard Sound Samples

[TimingPoints]
13131,810.810810810811,4,1,0,30,1,0
52050,-100,4,1,0,30,0,1
77590,-100,4,1,0,30,0,0
116915,-100,4,1,0,30,0,1
142861,-100,4,1,0,30,0,0

[HitObjects]
208,208,13131,5,0,0:0:0:0:
272,240,13334,2,0,P|348:236|344:148,1,155
336,96,13942,1,0,0:0:0:0:
400,256,14753,6,0,P|376:312|288:268,1,155
256,224,15361,1,0,0:0:0:0:
240,144,15563,2,0,B|176:176|176:240|176:240|144:256|112:192|128:160,1,232.5
160,96,16374,6,0,L|196:20,2,77.5
320,160,17185,1,0,0:0:0:0:
228,120,17996,6,0,P|168:136|168:160,2,77.5
368,32,18807,2,0,B|448:112|384:144|368:208|416:256,1,232.5
480,288,19617,1,0,0:0:0:0:
400,288,19820,2,0,P|432:224|480:208,1,77.5
288,192,20428,1,0,0:0:0:0:
224,48,21239,5,0,0:0:0:0:
288,96,21442,1,0,0:0:0:0:
220,204,22050,2,0,B|128:192|128:160|144:144|192:128|240:144|288:160,1,232.5
352,192,22861,5,0,0:0:0:0:
416,240,23063,1,0,0:0:0:0:
192,176,23671,2,0,P|176:96|288:112,1,232.5
300,172,24482,2,0,P|288:208|256:240,1,77.5
96,64,25293,1,0,0:0:0:0:
176,192,26104,6,0,L|416:181,2,232.5
192,112,27523,1,0,0:0:0:0:
272,112,27726,1,0,0:0:0:0:
288,192,27928,2,0,L|240:288,3,77.5
176,240,28739,1,0,0:0:0:0:
176,240,29347,6,0,P|180:120|226:195,1,310
226,192,30361,1,0,0:0:0:0:
384,304,30969,2,0,P|432:300|448:272,2,77.5
320,256,31577,1,0,0:0:0:0:
384,208,31780,2,0,L|460:163,2,77.5
144,208,32590,6,0,L|208:128,1,77.5
240,208,32996,1,0,0:0:0:0:
288,144,33199,1,0,0:0:0:0:
208,128,33401,1,0,0:0:0:0:
304,240,33604,1,0,0:0:0:0:
240,288,33807,1,0,0:0:0:0:
208,208,34009,2,0,L|160:272,1,77.5
304,272,34415,2,0,P|352:240|352:224,1,77.5
336,144,34820,2,0,P|384:176|400:192,1,77.5
384,272,35226,1,0,0:0:0:0:
320,224,35428,6,0,P|360:204|412:196,1,77.5
448,240,35834,2,0,P|448:192|432:144,4,77.5
368,240,36847,1,0,0:0:0:0:
368,160,37050,1,0,0:0:0:0:
288,160,37253,2,0,P|287:129|352:96,1,77.5
400,96,37658,1,0,0:0:0:0:
464,144,37861,1,0,0:0:0:0:
448,224,38063,2,0,B|404:228|404:228|368:192,2,77.5
124,211,39077,6,0,L|295:204,2,155
272,160,40293,5,0,0:0:0:0:
432,160,40699,2,0,L|432:240,1,77.5
352,240,41104,2,0,L|416:304,1,77.5
336,320,41509,1,0,0:0:0:0:
272,272,41712,1,0,0:0:0:0:
224,128,41915,1,0,0:0:0:0:
288,176,42117,1,0,0:0:0:0:
224,224,42320,2,0,L|160:176,1,77.5
208,112,42726,5,0,0:0:0:0:
272,144,42928,2,0,P|256:192|240:192,2,38.75
272,64,43334,1,0,0:0:0:0:
352,64,43536,1,0,0:0:0:0:
432,64,43739,1,0,0:0:0:0:
432,64,43840,1,0,0:0:0:0:
432,64,43942,1,0,0:0:0:0:
384,128,44144,1,0,0:0:0:0:
464,144,44347,2,0,P|432:192|416:192,1,77.5
336,192,44753,2,0,L|400:256,1,77.5
263,190,45563,6,0,P|364:172|347:121,1,155
181,197,46374,6,0,L|276:192,2,77.5
181,197,46982,1,0,0:0:0:0:
144,128,47185,1,0,0:0:0:0:
80,160,47388,2,0,P|128:192|160:192,1,77.5
224,192,47793,1,0,0:0:0:0:
224,192,47996,1,0,0:0:0:0:
288,96,48300,1,0,0:0:0:0:
320,112,48401,1,0,0:0:0:0:
288,176,48604,6,0,L|202:121,2,77.5
368,176,49212,1,0,0:0:0:0:
416,112,49415,1,0,0:0:0:0:
160,188,49820,2,0,B|164:144|164:140|164:140|212:116,2,77.5
232,232,50428,1,0,0:0:0:0:
304,224,50631,5,0,0:0:0:0:
256,160,50834,1,0,0:0:0:0:
208,224,51036,1,0,0:0:0:0:
352,192,51239,1,0,0:0:0:0:
256,112,51442,1,0,0:0:0:0:
160,192,51644,1,0,0:0:0:0:
304,272,52050,6,0,P|364:256|368:224,1,77.5
352,176,52455,1,0,0:0:0:0:
288,128,52658,1,0,0:0:0:0:
256,208,52861,2,0,P|208:144|208:112,1,77.5
288,128,53266,1,0,0:0:0:0:
240,64,53469,1,0,0:0:0:0:
320,64,53671,1,0,0:0:0:0:
368,128,53874,2,0,P|384:180|340:208,1,77.5
224,256,54482,2,0,B|192:256|192:256|192:224|176:208|144:192|96:192,1,155
128,112,55090,5,0,0:0:0:0:
176,176,55293,1,0,0:0:0:0:
176,256,55496,1,0,0:0:0:0:
112,304,55699,2,0,P|96:256|128:208,1,77.5
112,160,56104,2,0,P|160:176|192:208,1,77.5
176,272,56509,1,0,0:0:0:0:
320,224,56712,2,0,P|256:204|220:216,1,77.5
96,208,57320,6,0,P|112:160|144:112,2,77.5
176,176,57928,2,0,L|192:256,1,77.5
272,256,58334,1,0,0:0:0:0:
256,176,58536,1,0,0:0:0:0:
416,160,58942,6,0,P|400:112|352:96,1,77.5
304,96,59347,1,0,0:0:0:0:
368,144,59550,1,0,0:0:0:0:
352,32,59753,1,0,0:0:0:0:
288,80,59956,1,0,0:0:0:0:
288,160,60158,2,0,B|240:160|224:128|224:128|224:64|176:48|112:48|96:176,1,310
224,272,61374,1,0,0:0:0:0:
368,192,61780,6,0,B|400:160|400:160|384:128,1,77.5
352,64,62185,1,0,0:0:0:0:
320,128,62387,1,0,0:0:0:0:
320,208,62590,2,0,P|320:160|304:128,1,77.5
256,64,62996,1,0,0:0:0:0:
176,80,63199,1,0,0:0:0:0:
224,144,63401,2,0,B|192:160|192:240|128:256|144:96|32:96|64:288,1,310
144,272,64415,1,0,0:0:0:0:
224,256,64617,6,0,P|224:304|192:336,2,77.5
160,208,65226,1,0,0:0:0:0:
112,144,65428,1,0,0:0:0:0:
160,80,65631,2,0,L|272:96,1,77.5
304,128,66036,1,0,0:0:0:0:
224,160,66238,5,0,0:0:0:0:
304,256,66441,1,0,0:0:0:0:
224,240,66644,1,0,0:0:0:0:
256,96,66847,1,0,0:0:0:0:
368,224,67049,1,0,0:0:0:0:
400,64,67455,1,0,0:0:0:0:
128,128,67861,6,0,P|128:176|144:224,1,77.5
192,256,68266,1,0,0:0:0:0:
288,144,68671,2,0,L|192:144,1,77.5
128,144,69077,1,0,0:0:0:0:
256,224,69482,1,0,0:0:0:0:
400,144,69888,1,0,0:0:0:0:
96,200,70496,5,0,0:0:0:0:
144,128,70699,1,0,0:0:0:0:
192,64,70901,1,0,0:0:0:0:
224,144,71104,5,0,0:0:0:0:
304,144,71307,1,0,0:0:0:0:
384,144,71509,2,0,P|416:96|336:80,1,155
320,144,72117,1,0,0:0:0:0:
239,147,72320,2,0,P|255:195|287:227,1,77.5
352,240,72726,1,0,0:0:0:0:
320,160,72928,1,0,0:0:0:0:
400,192,73131,2,0,P|416:272|288:288,1,232.5
272,224,73942,1,0,0:0:0:0:
112,224,74347,1,0,0:0:0:0:
128,144,74550,6,0,L|144:96,2,38.75
208,160,74955,1,0,0:0:0:0:
192,240,75158,1,0,0:0:0:0:
128,192,75361,1,0,0:0:0:0:
144,112,75563,2,0,P|192:80|240:96,1,77.5
208,160,75969,5,0,0:0:0:0:
272,208,76171,1,0,0:0:0:0:
320,144,76374,2,0,B|272:128|272:128|240:80|176:96,1,155
208,160,76982,1,0,0:0:0:0:
240,224,77185,1,0,0:0:0:0:
336,96,77590,1,0,0:0:0:0:
192,128,77996,6,0,B|240:208|368:192|368:192|384:240|320:288,1,310
272,144,79617,6,0,B|288:96|272:64|272:64|352:64,1,155
416,112,80226,1,0,0:0:0:0:
432,192,80428,1,0,0:0:0:0:
144,96,81239,5,0,0:0:0:0:
224,112,81442,2,0,B|192:192|192:192|32:144,1,232.5
352,112,82861,5,0,0:0:0:0:
320,48,83063,2,0,B|368:32|400:64|400:64|464:32|464:32|448:128,1,232.5
192,256,84482,5,0,0:0:0:0:
112,256,84685,2,0,B|128:192|208:176|208:160|208:160|128:128|96:160,1,232.5
416,224,86104,5,0,0:0:0:0:
448,160,86307,2,0,B|448:112|464:80|464:80|384:64|400:224|384:224,1,232.5
16,144,87726,5,0,0:0:0:0:
96,160,87928,1,0,0:0:0:0:
320,192,88536,2,0,B|256:208|272:64|160:224|144:144|144:144|176:112|160:96,1,232.5
224,80,89347,2,0,P|176:48|128:64,1,77.5
352,192,90158,1,0,0:0:0:0:
432,240,90969,6,0,P|448:192|432:144,2,77.5
368,288,91577,1,0,0:0:0:0:
288,256,91780,2,0,B|288:288|288:288|304:336,1,77.5
384,336,92185,2,0,P|384:288|352:240,1,77.5
304,240,92590,5,0,0:0:0:0:
224,240,92793,1,0,0:0:0:0:
256,160,92996,1,0,0:0:0:0:
336,176,93199,1,0,0:0:0:0:
224,272,93401,1,0,0:0:0:0:
288,320,93604,1,0,0:0:0:0:
304,240,93807,1,0,0:0:0:0:
272,96,94212,6,0,P|224:128|208:144,1,77.5
288,160,94617,2,0,L|368:160,1,77.5
416,96,95023,1,0,0:0:0:0:
352,64,95226,1,0,0:0:0:0:
352,144,95428,2,0,B|352:176|352:176|292:136|280:156,2,77.5
304,80,96036,5,0,0:0:0:0:
224,80,96239,1,0,0:0:0:0:
176,144,96442,2,0,P|224:160|256:160,1,77.5
320,144,96847,1,0,0:0:0:0:
400,160,97050,1,0,0:0:0:0:
224,256,97455,6,0,B|192:256|192:256|176:240|144:256,2,77.5
384,240,98266,1,0,0:0:0:0:
256,160,98671,6,0,P|240:128|256:80,1,77.5
320,112,99077,2,0,L|336:192,1,77.5
336,272,99482,1,0,0:0:0:0:
272,240,99685,1,0,0:0:0:0:
208,208,99888,1,0,0:0:0:0:
144,256,100090,1,0,0:0:0:0:
80,224,100293,1,0,0:0:0:0:
208,128,100699,5,0,0:0:0:0:
240,112,100800,1,0,0:0:0:0:
336,160,101104,1,0,0:0:0:0:
320,80,101306,1,0,0:0:0:0:
240,48,101509,2,0,P|192:64|160:96,1,77.5
240,112,101915,2,0,L|256:192,2,77.5
368,208,102726,5,0,0:0:0:0:
304,256,102929,1,0,0:0:0:0:
288,176,103131,1,0,0:0:0:0:
224,224,103334,1,0,0:0:0:0:
368,288,103536,1,0,0:0:0:0:
368,176,103840,6,0,P|368:144|352:112,2,38.75
272,112,104347,1,0,0:0:0:0:
192,144,104550,1,0,0:0:0:0:
432,144,105158,6,0,P|432:96|416:64,1,77.5
336,64,105563,1,0,0:0:0:0:
192,112,105969,2,0,P|176:112|128:160,1,77.5
192,192,106374,1,0,0:0:0:0:
160,256,106577,2,0,P|192:272|240:240,1,77.5
368,208,107185,5,0,0:0:0:0:
256,96,107590,2,0,B|288:64|288:64|352:64,2,77.5
256,176,108199,1,0,0:0:0:0:
176,192,108401,1,0,0:0:0:0:
304,224,108604,1,0,0:0:0:0:
320,144,108807,1,0,0:0:0:0:
208,112,109111,6,0,P|240:64|272:48,2,77.5
176,192,109719,1,0,0:0:0:0:
208,208,109820,2,0,P|256:200|272:160,1,77.5
160,64,110428,1,0,0:0:0:0:
256,112,110732,5,0,0:0:0:0:
336,80,110935,1,0,0:0:0:0:
336,160,111138,2,0,P|396:144|412:112,2,77.5
256,192,111746,1,0,0:0:0:0:
144,192,112050,2,0,P|96:144|96:112,1,77.5
112,64,112455,1,0,0:0:0:0:
160,128,112658,1,0,0:0:0:0:
224,176,112861,1,0,0:0:0:0:
240,96,113063,1,0,0:0:0:0:
304,144,113266,1,0,0:0:0:0:
304,304,113671,6,0,L|224:304,1,77.5
144,304,114077,2,0,L|176:256,2,38.75
80,256,114482,1,0,0:0:0:0:
128,192,114685,2,0,L|80:144,2,38.75
304,104,115293,2,0,P|372:148|304:176,1,155
272,224,115901,5,0,0:0:0:0:
240,144,116104,1,0,0:0:0:0:
192,256,116307,1,0,0:0:0:0:
304,160,116509,1,0,0:0:0:0:
320,240,116712,5,0,0:0:0:0:
368,176,116914,1,0,0:0:0:0:
288,80,117117,1,0,0:0:0:0:
304,160,117320,1,0,0:0:0:0:
224,144,117523,1,0,0:0:0:0:
240,256,117725,1,0,0:0:0:0:
272,192,117928,5,0,0:0:0:0:
336,144,118131,2,0,P|284:112|256:112,2,77.5
352,224,118739,1,0,0:0:0:0:
272,240,118942,1,0,0:0:0:0:
240,320,119144,1,0,0:0:0:0:
320,320,119347,2,0,P|352:288|384:288,1,77.5
368,208,119753,5,0,0:0:0:0:
368,128,119955,2,0,B|320:144|320:144|288:176,1,77.5
288,240,120361,1,0,0:0:0:0:
208,224,120563,1,0,0:0:0:0:
256,160,120766,2,0,P|208:144|160:160,1,77.5
112,176,121171,1,0,0:0:0:0:
128,96,121374,1,0,0:0:0:0:
208,64,121577,1,0,0:0:0:0:
288,64,121780,2,0,B|272:112|272:112|224:128|176:144|176:192,1,155
256,208,122388,5,0,0:0:0:0:
320,160,122590,2,0,P|288:128|288:96,1,77.5
368,96,122996,2,0,P|352:48|320:32,1,77.5
256,32,123401,1,0,0:0:0:0:
208,176,123807,1,0,0:0:0:0:
272,224,124009,1,0,0:0:0:0:
192,256,124212,1,0,0:0:0:0:
352,224,124415,1,0,0:0:0:0:
304,160,124617,1,0,0:0:0:0:
384,160,124820,1,0,0:0:0:0:
432,224,125023,2,0,B|400:288|400:288|336:304|320:288,2,155
336,96,126239,1,0,0:0:0:0:
208,176,126644,6,0,L|316:152,1,77.5
336,208,127050,1,0,0:0:0:0:
272,96,127253,1,0,0:0:0:0:
256,176,127455,1,0,0:0:0:0:
304,240,127658,2,0,P|352:272|384:272,2,77.5
320,160,128266,2,0,B|336:128|368:112|368:112|320:80|256:96|256:96|208:48|176:160,1,310
256,160,129280,1,0,0:0:0:0:
256,240,129482,6,0,B|208:240|208:240|160:208,1,77.5
128,176,129888,2,0,B|112:224|112:224|128:256,1,77.5
192,304,130293,1,0,0:0:0:0:
336,224,130699,2,0,P|352:176|352:144,1,77.5
272,128,131104,1,0,0:0:0:0:
224,64,131307,1,0,0:0:0:0:
144,64,131509,2,0,B|160:112|160:112|208:144,2,77.5
80,208,132320,1,0,0:0:0:0:
240,224,132726,5,0,0:0:0:0:
192,160,132928,1,0,0:0:0:0:
256,112,133131,1,0,0:0:0:0:
400,176,133536,1,0,0:0:0:0:
352,240,133739,1,0,0:0:0:0:
304,176,133942,1,0,0:0:0:0:
384,32,134347,2,0,B|432:96|432:96|480:112|480:176,1,155
240,160,135361,5,0,0:0:0:0:
160,144,135563,1,0,0:0:0:0:
192,224,135766,1,0,0:0:0:0:
208,144,135969,1,0,0:0:0:0:
272,96,136171,1,0,0:0:0:0:
336,144,136374,1,0,0:0:0:0:
80,112,136780,6,0,P|80:160|96:224,2,77.5
128,48,137388,1,0,0:0:0:0:
160,128,137590,2,0,L|160:208,1,77.5
224,240,137996,1,0,0:0:0:0:
240,160,138199,1,0,0:0:0:0:
304,208,138401,1,0,0:0:0:0:
256,144,138604,1,0,0:0:0:0:
304,80,138807,1,0,0:0:0:0:
432,224,139212,1,0,0:0:0:0:
336,112,139617,6,0,P|368:64|400:48,1,77.5
416,128,140023,1,0,0:0:0:0:
368,192,140226,1,0,0:0:0:0:
304,144,140428,1,0,0:0:0:0:
256,208,140631,1,0,0:0:0:0:
208,144,140834,2,0,P|176:208|192:240,2,77.5
320,256,141644,2,0,B|368:256|368:256|400:240,2,77.5
176,176,142455,5,0,0:0:0:0:
