osu file format v14

[General]
AudioFilename: audio.mp3
AudioLeadIn: 0
PreviewTime: 1177
Countdown: 0
SampleSet: Soft
StackLeniency: 0.6
Mode: 0
LetterboxInBreaks: 0
EpilepsyWarning: 1
WidescreenStoryboard: 1

[Editor]
Bookmarks: 20377,33177,49127,58777,84377,100377,109977,135577
DistanceSpacing: 1.3
BeatDivisor: 4
GridSize: 32
TimelineZoom: 2.4

[Metadata]
Title:HUMBLE.
TitleUnicode:HUMBLE.
Artist:Kendrick Lamar
ArtistUnicode:Kendrick Lamar
Creator:jamesjan3
Version:DAMN.
Source:
Tags:english hip hop hip-hop rap damn. jamesjan kdot
BeatmapID:3187928
BeatmapSetID:1560870

[Difficulty]
HPDrainRate:5.5
CircleSize:3
OverallDifficulty:8.5
ApproachRate:9.6
SliderMultiplier:2
SliderTickRate:1

[Events]
//Background and Video events
Video,-1442,"video.mp4"
0,0,"bg.jpg",0,0
//Break Periods
//Storyboard Layer 0 (Background)
//Storyboard Layer 1 (Fail)
//Storyboard Layer 2 (Pass)
//Storyboard Layer 3 (Foreground)
//Storyboard Layer 4 (Overlay)
//Storyboard Sound Samples

[TimingPoints]
1177,400,4,2,1,100,1,0
1177,-66.6666666666667,4,2,1,100,0,0
1443,-40,4,2,1,5,0,0
1577,-66.6666666666667,4,2,1,100,0,0
1843,-40,4,2,1,5,0,0
2027,400,4,2,1,100,1,0
2027,-133.333333333333,4,2,1,100,0,0
2777,400,4,2,1,100,1,0
2777,-57.1428571428571,4,2,1,100,0,0
3043,-40,4,2,1,5,0,0
3177,-57.1428571428571,4,2,1,100,0,0
3443,-40,4,2,1,5,0,0
3627,400,4,2,1,100,1,0
3627,-133.333333333333,4,2,1,100,0,0
4377,400,4,2,1,100,1,0
4377,-50,4,2,1,100,0,0
4643,-40,4,2,1,5,0,0
4777,-50,4,2,1,100,0,0
5043,-40,4,2,1,5,0,0
5177,-100,4,2,1,100,0,0
5877,-40,4,2,1,5,0,0
5977,-40,4,2,1,100,0,0
6243,-40,4,2,1,5,0,0
6377,-40,4,2,1,100,0,0
6643,-40,4,2,1,5,0,0
6777,-1000,4,2,1,60,0,0
7577,-50,4,2,1,60,0,0
7977,-50,4,2,1,60,0,0
8527,-50,4,2,1,5,0,0
8577,-133.333333333333,4,2,1,60,0,0
8777,-50,4,2,1,60,0,0
10027,-50,4,2,1,5,0,0
10177,-50,4,2,1,60,0,0
10377,-100,4,2,1,60,0,0
10577,-50,4,2,1,60,0,0
10777,-200,4,2,1,60,0,0
10977,-50,4,2,1,60,0,0
11627,-50,4,2,1,5,0,0
11777,-50,4,2,1,60,0,0
12577,-66.6666666666667,4,2,1,60,0,0
12777,-50,4,2,1,60,0,0
13227,-50,4,2,1,5,0,0
13377,-50,4,2,1,60,0,0
13577,-66.6666666666667,4,2,1,60,0,0
13977,-50,4,2,1,60,0,0
14177,-66.6666666666667,4,2,1,60,0,0
14777,-50,4,2,1,60,0,0
14927,-50,4,2,1,5,0,0
14977,-133.333333333333,4,2,1,60,0,0
15377,-50,4,2,1,60,0,0
15777,-66.6666666666667,4,2,1,60,0,0
15977,-50,4,2,1,60,0,0
16427,-50,4,2,1,5,0,0
16577,-50,4,2,1,60,0,0
17977,-50,4,2,1,60,0,0
18127,-50,4,2,1,5,0,0
18177,-50,4,2,1,60,0,0
19627,-50,4,2,1,5,0,0
19777,-50,4,2,1,60,0,0
20377,-50,4,2,1,80,0,0
21577,-66.6666666666667,4,2,1,80,0,0
21777,-50,4,2,1,80,0,0
22927,-50,4,2,1,5,0,0
22977,-80,4,2,1,80,0,0
23577,-43.010752688172,4,2,1,80,0,0
24526,-43.010752688172,4,2,1,5,0,0
24577,-66.6666666666667,4,2,1,80,0,0
24977,-50,4,2,1,80,0,0
26027,-50,4,2,1,5,0,0
26177,-50,4,2,1,80,0,0
26377,-80,4,2,1,80,0,0
26777,-36.3636363636364,4,2,1,80,0,0
27577,-50,4,2,1,80,0,0
27727,-50,4,2,1,5,0,0
27777,-66.6666666666667,4,2,1,80,0,0
28177,-50,4,2,1,80,0,0
29327,-50,4,2,1,5,0,0
29377,-50,4,2,1,80,0,0
29577,-80,4,2,1,80,0,0
29977,-33.3333333333333,4,2,1,80,0,0
30777,-50,4,2,1,80,0,0
30927,-50,4,2,1,5,0,0
30977,-66.6666666666667,4,2,1,80,0,0
31377,-50,4,2,1,80,0,0
32427,-50,4,2,1,5,0,0
32577,-50,4,2,1,80,0,0
32777,-80,4,2,1,60,0,0
33977,-57.1428571428571,4,2,1,60,0,0
34577,-50,4,2,1,60,0,0
34777,-44.4444444444445,4,2,1,60,0,0
35177,-50,4,2,1,60,0,0
35627,-50,4,2,1,5,0,0
35777,-50,4,2,1,60,0,0
35977,-44.4444444444445,4,2,1,60,0,0
37377,-50,4,2,1,60,0,0
38377,-66.6666666666667,4,2,1,60,0,0
38777,-50,4,2,1,60,0,0
38827,-50,4,2,1,5,0,0
38977,-50,4,2,1,60,0,0
39177,-44.4444444444445,4,2,1,60,0,0
40577,-50,4,2,1,60,0,0
42027,-50,4,2,1,5,0,0
42177,-50,4,2,1,60,0,0
42377,-40,4,2,1,60,0,0
43777,-50,4,2,1,60,0,0
45227,-50,4,2,1,5,0,0
45377,-50,4,2,1,60,0,0
45577,-40,4,2,1,60,0,0
49177,-100,4,2,1,60,0,0
49977,-50,4,2,1,60,0,0
50527,-50,4,2,1,5,0,0
50577,-66.6666666666667,4,2,1,60,0,0
50777,-66.6666666666667,4,2,1,60,0,0
51377,-50,4,2,1,60,0,0
52927,-50,4,2,1,5,0,0
52977,-66.6666666666667,4,2,1,60,0,0
53227,-66.6666666666667,4,2,1,5,0,0
53377,-66.6666666666667,4,2,1,60,0,0
53577,-50,4,2,1,60,0,0
54777,-50,4,2,1,60,0,0
55777,-66.6666666666667,4,2,1,60,0,0
55977,-50,4,2,1,60,0,0
56127,-50,4,2,1,5,0,0
56177,-66.6666666666667,4,2,1,60,0,0
56977,-50,4,2,1,60,0,0
57177,-50,4,2,1,60,0,0
57927,-50,4,2,1,5,0,0
57977,-50,4,2,1,60,0,0
58027,-50,4,2,1,5,0,0
58377,-50,4,2,1,60,0,0
58527,-50,4,2,1,5,0,0
58577,-50,4,2,1,60,0,0
58777,-44.4444444444445,4,2,1,80,0,0
59277,-44.4444444444445,4,2,1,80,0,0
59627,-44.4444444444445,4,2,1,5,0,0
59977,-44.4444444444445,4,2,1,80,0,0
60127,-44.4444444444445,4,2,1,5,0,0
60177,-57.1428571428571,4,2,1,80,0,0
60477,-44.4444444444445,4,2,1,80,0,0
61227,-44.4444444444445,4,2,1,5,0,0
61277,-44.4444444444445,4,2,1,80,0,0
61977,-40,4,2,1,80,0,0
62477,-44.4444444444445,4,2,1,80,0,0
62827,-44.4444444444445,4,2,1,5,0,0
63177,-44.4444444444445,4,2,1,80,0,0
63327,-44.4444444444445,4,2,1,5,0,0
63377,-57.1428571428571,4,2,1,80,0,0
63677,-44.4444444444445,4,2,1,80,0,0
64427,-44.4444444444445,4,2,1,5,0,0
64577,-44.4444444444445,4,2,1,80,0,0
64727,-44.4444444444445,4,2,1,5,0,0
64777,-44.4444444444445,4,2,1,80,0,0
64977,-50,4,2,1,80,0,0
65177,-36.3636363636364,4,2,1,80,0,0
68777,-40,4,2,1,80,0,0
69177,-133.333333333333,4,2,1,80,0,0
69577,-40,4,2,1,80,0,0
69727,-40,4,2,1,5,0,0
69777,-40,4,2,1,80,0,0
70077,-66.6666666666667,4,2,1,80,0,0
70377,-44.4444444444445,4,2,1,80,0,0
70727,-44.4444444444445,4,2,1,5,0,0
70777,-44.4444444444445,4,2,1,80,0,0
70827,-44.4444444444445,4,2,1,5,0,0
70977,-44.4444444444445,4,2,1,80,0,0
72427,-44.4444444444445,4,2,1,5,0,0
72477,-44.4444444444445,4,2,1,80,0,0
72777,-40,4,2,1,80,0,0
72927,-40,4,2,1,5,0,0
72977,-40,4,2,1,80,0,0
74027,-40,4,2,1,5,0,0
74077,-40,4,2,1,80,0,0
74777,-44.4444444444445,4,2,1,80,0,0
75627,-44.4444444444445,4,2,1,5,0,0
75977,-40,4,2,1,80,0,0
76127,-40,4,2,1,5,0,0
76177,-57.1428571428571,4,2,1,80,0,0
76777,-40,4,2,1,80,0,0
77227,-40,4,2,1,5,0,0
77377,-44.4444444444445,4,2,1,80,0,0
77527,-44.4444444444445,4,2,1,5,0,0
77577,-44.4444444444445,4,2,1,80,0,0
78777,-66.6666666666667,4,2,1,80,0,0
79377,-100,4,2,1,80,0,0
81177,-40,4,2,1,80,0,0
81977,-133.333333333333,4,2,1,80,0,0
82377,-40,4,2,1,80,0,0
82527,-40,4,2,1,5,0,0
82577,-40,4,2,1,80,0,0
82877,-66.6666666666667,4,2,1,80,0,0
83177,-44.4444444444445,4,2,1,80,0,0
83527,-44.4444444444445,4,2,1,5,0,0
83577,-44.4444444444445,4,2,1,80,0,0
83627,-44.4444444444445,4,2,1,5,0,0
83777,-44.4444444444445,4,2,1,80,0,0
83977,-66.6666666666667,4,2,1,80,0,0
84377,-66.6666666666667,4,2,1,60,0,0
85777,-50,4,2,1,60,0,0
86077,-66.6666666666667,4,2,1,60,0,0
86377,-50,4,2,1,60,0,0
86777,-57.1428571428571,4,2,1,60,0,0
86927,-57.1428571428571,4,2,1,5,0,0
86977,-57.1428571428571,4,2,1,60,0,0
87177,-50,4,2,1,60,0,0
87577,-50,4,2,1,60,0,0
88427,-50,4,2,1,5,0,0
88777,-50,4,2,1,60,0,0
88927,-50,4,2,1,5,0,0
88977,-100,4,2,1,60,0,0
89777,-66.6666666666667,4,2,1,60,0,0
89977,-57.1428571428571,4,2,1,60,0,0
90127,-57.1428571428571,4,2,1,5,0,0
90177,-57.1428571428571,4,2,1,60,0,0
90377,-50,4,2,1,60,0,0
91577,-50,4,2,1,60,0,0
91627,-50,4,2,1,5,0,0
91977,-50,4,2,1,60,0,0
92127,-50,4,2,1,5,0,0
92177,-50,4,2,1,60,0,0
92577,-66.6666666666667,4,2,1,60,0,0
92877,-50,4,2,1,60,0,0
93227,-50,4,2,1,5,0,0
93377,-50,4,2,1,60,0,0
94577,-57.1428571428571,4,2,1,60,0,0
94777,-50,4,2,1,60,0,0
95177,-50,4,2,1,60,0,0
95777,-66.6666666666667,4,2,1,60,0,0
95977,-50,4,2,1,60,0,0
96427,-50,4,2,1,5,0,0
96577,-66.6666666666667,4,2,1,60,0,0
100377,-44.4444444444445,4,2,1,80,0,0
101177,-50,4,2,1,80,0,0
101227,-50,4,2,1,5,0,0
101377,-50,4,2,1,80,0,0
101727,-50,4,2,1,5,0,0
101777,-100,4,2,1,80,0,0
102577,-50,4,2,1,80,0,0
102777,-50,4,2,1,80,0,0
102827,-50,4,2,1,5,0,0
102977,-50,4,2,1,80,0,0
103177,-80,4,2,1,80,0,0
103577,-40,4,2,1,80,0,0
104377,-50,4,2,1,80,0,0
104427,-50,4,2,1,5,0,0
104577,-50,4,2,1,80,0,0
104927,-50,4,2,1,5,0,0
104977,-66.6666666666667,4,2,1,80,0,0
105177,-44.4444444444445,4,2,1,80,0,0
106027,-44.4444444444445,4,2,1,5,0,0
106177,-44.4444444444445,4,2,1,80,0,0
106377,-80,4,2,1,80,0,0
106777,-40,4,2,1,80,0,0
107577,-50,4,2,1,80,0,0
107627,-50,4,2,1,5,0,0
107777,-50,4,2,1,80,0,0
107977,-44.4444444444445,4,2,1,80,0,0
108127,-44.4444444444445,4,2,1,5,0,0
108177,-66.6666666666667,4,2,1,80,0,0
108477,-44.4444444444445,4,2,1,80,0,0
109227,-44.4444444444445,4,2,1,5,0,0
109377,-44.4444444444445,4,2,1,80,0,0
109577,-66.6666666666667,4,2,1,80,0,0
109977,-133.333333333333,4,2,1,70,0,0
110377,-66.6666666666667,4,2,1,70,0,0
110777,-50,4,2,1,70,0,0
110827,-50,4,2,1,5,0,0
110977,-50,4,2,1,70,0,0
111977,-66.6666666666667,4,2,1,70,0,0
112377,-50,4,2,1,70,0,0
112427,-50,4,2,1,5,0,0
112577,-50,4,2,1,70,0,0
113577,-66.6666666666667,4,2,1,70,0,0
113977,-50,4,2,1,70,0,0
114027,-50,4,2,1,5,0,0
114177,-50,4,2,1,70,0,0
115177,-66.6666666666667,4,2,1,70,0,0
115577,-50,4,2,1,70,0,0
115627,-50,4,2,1,5,0,0
115777,-50,4,2,1,70,0,0
116977,-66.6666666666667,4,2,1,70,0,0
117177,-50,4,2,1,70,0,0
117227,-50,4,2,1,5,0,0
117377,-50,4,2,1,70,0,0
117977,-133.333333333333,4,2,1,70,0,0
118377,-66.6666666666667,4,2,1,70,0,0
118777,-50,4,2,1,70,0,0
118827,-50,4,2,1,5,0,0
118977,-50,4,2,1,70,0,0
119577,-133.333333333333,4,2,1,70,0,0
119977,-66.6666666666667,4,2,1,70,0,0
120377,-50,4,2,1,70,0,0
120427,-50,4,2,1,5,0,0
120577,-50,4,2,1,70,0,0
121177,-133.333333333333,4,2,1,70,0,0
121577,-66.6666666666667,4,2,1,70,0,0
121977,-50,4,2,1,70,0,0
122027,-50,4,2,1,5,0,0
122177,-50,4,2,1,70,0,0
126577,-57.1428571428571,4,2,1,70,0,0
128377,-50,4,2,1,70,0,0
128527,-50,4,2,1,5,0,0
128577,-50,4,2,1,70,0,0
128777,-57.1428571428571,4,2,1,70,0,0
129577,-50,4,2,1,70,0,0
129727,-50,4,2,1,5,0,0
129777,-100,4,2,1,70,0,0
129977,-50,4,2,1,70,0,0
131627,-50,4,2,1,5,0,0
131777,-50,4,2,1,70,0,0
132927,-50,4,2,1,5,0,0
132977,-100,4,2,1,70,0,0
133777,-50,4,2,1,70,0,0
134827,-50,4,2,1,5,0,0
134977,-50,4,2,1,70,0,0
135327,-50,4,2,1,5,0,0
135377,-50,4,2,1,70,0,0
135577,-50,4,2,1,90,0,0
136027,-50,4,2,1,5,0,0
136077,-50,4,2,1,90,0,0
136427,-50,4,2,1,5,0,0
136777,-50,4,2,1,90,0,0
136927,-50,4,2,1,5,0,0
136977,-50,4,2,1,90,0,0
138027,-50,4,2,1,5,0,0
138077,-50,4,2,1,90,0,0
138777,-44.4444444444445,4,2,1,90,0,0
139227,-44.4444444444445,4,2,1,5,0,0
139277,-44.4444444444445,4,2,1,90,0,0
139627,-44.4444444444445,4,2,1,5,0,0
139977,-44.4444444444445,4,2,1,90,0,0
140127,-44.4444444444445,4,2,1,5,0,0
140177,-44.4444444444445,4,2,1,90,0,0
141227,-44.4444444444445,4,2,1,5,0,0
141377,-44.4444444444445,4,2,1,90,0,0
142777,-100,4,2,1,90,0,0
145177,-40,4,2,1,90,0,0
145577,-50,4,2,1,90,0,0
145627,-33.3333333333333,4,2,1,5,0,0
145677,-40,4,2,1,90,0,0
146977,-66.6666666666667,4,2,1,90,0,0
147177,-44.4444444444445,4,2,1,90,0,0
147527,-44.4444444444445,4,2,1,5,0,0
147577,-44.4444444444445,4,2,1,90,0,0
147627,-44.4444444444445,4,2,1,5,0,0
147777,-44.4444444444445,4,2,1,90,0,0
148377,-40,4,2,1,90,0,0
148777,-33.3333333333333,4,2,1,90,0,0
148827,-33.3333333333333,4,2,1,5,0,0
148877,-40,4,2,1,90,0,0
149177,-50,4,2,1,90,0,0
149227,-50,4,2,1,5,0,0
149277,-50,4,2,1,90,0,0
149727,-50,4,2,1,5,0,0
149777,-50,4,2,1,90,0,0
150827,-50,4,2,1,5,0,0
150877,-50,4,2,1,90,0,0
152027,-50,4,2,1,5,0,0
152077,-50,4,2,1,90,0,0
152427,-50,4,2,1,5,0,0
152777,-50,4,2,1,90,0,0
152927,-50,4,2,1,5,0,0
152977,-50,4,2,1,90,0,0
153377,-66.6666666666667,4,2,1,90,0,0
153977,-50,4,2,1,90,0,0
154027,-50,4,2,1,5,0,0
154177,-50,4,2,1,90,0,0
157977,-40,4,2,1,90,0,0
158377,-40,4,2,1,90,0,0
158427,-33.3333333333333,4,2,1,5,0,0
158477,-40,4,2,1,90,0,0
159577,-66.6666666666667,4,2,1,90,0,0
159977,-44.4444444444445,4,2,1,90,0,0
160327,-44.4444444444445,4,2,1,5,0,0
160377,-44.4444444444445,4,2,1,90,0,0
160427,-44.4444444444445,4,2,1,5,0,0
160577,-44.4444444444445,4,2,1,90,0,0
160777,-66.6666666666667,4,2,1,90,0,0

[Colours]
Combo1 : 199,214,216
Combo2 : 187,140,163
Combo3 : 75,72,96
Combo4 : 255,0,0

[HitObjects]
260,381,1177,6,0,P|257:265|249:175,1,200.000007629395,4|0,0:3|2:0,0:0:0:0:
252,381,1577,2,0,P|255:265|263:175,1,200.000007629395,4|0,0:3|2:0,0:0:0:0:
256,93,2027,6,0,L|256:41,2,50.0000019073487,2|2|2,0:0|0:0|0:0,0:0:0:0:
111,224,2427,5,2,0:0:0:0:
389,265,2560,1,2,0:0:0:0:
248,384,2693,1,2,0:0:0:0:
248,384,2777,2,0,B|203:335|252:258|270:291|329:254|303:177,1,233.333335558573,4|0,0:3|2:0,0:0:0:0:
262,384,3177,2,0,B|307:335|258:258|240:291|181:254|207:177,1,233.333335558573,4|0,0:3|2:0,0:0:0:0:
256,50,3627,6,0,L|256:-2,1,50.0000019073487,2|0,0:0|0:0,0:0:0:0:
256,227,3893,1,2,0:0:0:0:
377,249,4027,5,2,0:0:0:0:
140,289,4160,1,2,0:0:0:0:
262,384,4293,1,2,0:0:0:0:
262,384,4377,2,0,B|255:322|187:285|187:285|142:210|210:151,1,266.666666666667,4|0,0:3|2:0,0:0:0:0:
250,384,4777,2,0,B|257:322|325:285|325:285|370:210|302:151,1,266.666666666667,4|0,0:3|2:0,0:0:0:0:
255,72,5177,6,0,B|225:39|253:-10|253:-10|288:39|255:103|255:103|255:142|255:142|262:144|262:144|251:144|251:144|256:148|256:148|256:231,1,350,2|0,0:0|2:0,0:0:0:0:
262,384,5977,6,0,B|173:387|117:323|135:245|169:212|169:212|166:275|208:292,1,333.333333333333,4|0,0:3|2:0,0:0:0:0:
250,384,6377,2,0,B|339:387|395:323|377:245|343:212|343:212|346:275|304:292,1,333.333333333333,4|0,0:3|2:0,0:0:0:0:
502,85,7577,6,0,B|482:57|496:31|496:31|453:-23|386:-25|312:58|379:132,1,300,4|0,0:3|2:0,0:0:0:0:
418,191,7977,6,0,P|436:217|419:190,1,100,6|0,0:0|0:0,0:0:0:0:
161,20,8377,6,0,L|-1:41,1,150,8|0,0:0|2:0,0:0:0:0:
12,39,8577,2,0,L|2:87,1,37.5000014305115,2|0,0:0|0:0,0:0:0:0:
0,277,8777,5,2,0:0:0:0:
0,277,8977,2,0,P|49:268|79:214,1,100,4|0,0:3|0:0,0:0:0:0:
291,121,9177,5,0,3:0:0:0:
235,187,9277,2,0,B|169:164|169:164|121:187,1,100,0|4,3:0|0:3,0:0:0:0:
424,86,9577,5,2,0:0:0:0:
59,140,9777,1,4,0:3:0:0:
368,345,9977,6,0,L|445:325,1,50,8|0,0:0|2:0,0:0:0:0:
395,358,10177,2,0,L|364:237,1,100,2|0,0:0|0:0,0:0:0:0:
197,71,10377,5,4,0:3:0:0:
244,0,10577,2,0,B|198:22|198:22|196:90,1,100,2|0,0:0|0:0,0:0:0:0:
113,319,10777,5,4,0:3:0:0:
437,202,10977,1,4,0:3:0:0:
271,212,11177,1,6,0:0:0:0:
201,342,11377,2,0,P|122:330|104:302,1,100,2|0,0:0|0:0,0:0:0:0:
22,54,11577,6,0,L|38:4,1,50,8|0,0:0|2:0,0:0:0:0:
14,27,11777,2,0,L|122:57,1,100,2|0,0:0|0:0,0:0:0:0:
429,112,11977,5,2,0:0:0:0:
429,112,12177,2,0,P|369:137|359:180,1,100,4|0,0:3|0:0,0:0:0:0:
176,310,12377,5,0,3:0:0:0:
263,329,12477,2,0,B|270:303|270:303|232:219,2,100,0|4|0,3:0|0:3|0:0,0:0:0:0:
369,372,12777,5,2,0:0:0:0:
197,66,12977,1,4,0:3:0:0:
444,261,13177,6,0,L|494:248,1,50,8|0,0:0|2:0,0:0:0:0:
493,258,13377,2,0,L|365:226,1,100,2|0,0:0|0:0,0:0:0:0:
197,66,13577,5,4,0:3:0:0:
307,14,13777,2,0,P|295:69|293:112,1,75.0000028610231
137,356,13977,5,4,0:3:0:0:
8,116,14177,1,2,0:0:0:0:
21,271,14377,1,6,0:0:0:0:
512,29,14777,6,0,L|335:6,1,150,8|0,0:0|2:0,0:0:0:0:
363,9,14977,2,0,L|374:55,1,37.5000014305115,2|0,0:0|0:0,0:0:0:0:
414,246,15177,5,2,0:0:0:0:
414,246,15377,2,0,P|451:186|429:143,1,100,4|0,0:3|0:0,0:0:0:0:
250,72,15577,5,0,3:0:0:0:
183,143,15677,2,0,B|120:129|120:129|75:149,1,100,0|4,3:0|0:3,0:0:0:0:
355,176,15977,5,2,0:0:0:0:
73,34,16177,1,4,0:3:0:0:
77,310,16377,6,0,L|68:375,1,50,8|0,0:0|2:0,0:0:0:0:
57,338,16577,2,0,L|196:311,1,100,2|0,0:0|0:0,0:0:0:0:
428,278,16777,5,4,0:3:0:0:
500,312,16977,2,0,B|453:323|453:323|420:264,1,100,2|0,0:0|0:0,0:0:0:0:
251,16,17177,5,4,0:3:0:0:
507,139,17377,1,4,0:3:0:0:
363,118,17577,1,6,0:0:0:0:
66,211,17977,6,0,B|87:386,1,150,8|0,0:0|2:0,0:0:0:0:
83,359,18177,2,0,P|127:359|161:313,1,100,2|0,0:0|0:0,0:0:0:0:
320,186,18377,5,2,0:0:0:0:
416,217,18577,2,0,L|314:184,1,100,4|0,0:3|0:0,0:0:0:0:
49,108,18777,6,0,L|64:217,1,100,0|0,3:0|3:0,0:0:0:0:
83,359,18977,2,0,P|127:359|161:313,1,100,4|0,0:3|0:0,0:0:0:0:
320,186,19177,5,2,0:0:0:0:
484,290,19377,2,0,L|360:322,1,100,4|0,0:3|0:0,0:0:0:0:
62,207,19577,6,0,L|72:255,1,50,8|0,0:0|2:0,0:0:0:0:
83,359,19777,2,0,P|127:359|160:317,1,100,2|0,0:0|0:0,0:0:0:0:
256,131,19977,5,4,0:3:0:0:
274,47,20177,2,0,B|246:66|246:66|257:137,1,100,2|0,0:0|0:0,0:0:0:0:
262,384,20377,6,0,P|244:268|182:211,1,200,12|0,0:3|0:0,0:0:0:0:
250,384,20777,2,0,P|268:268|330:211,1,200,8|0,0:3|0:0,0:0:0:0:
482,45,21177,6,0,B|495:97|540:74|546:-42|333:-78|331:104|390:135,1,300,8|0,0:0|0:0,0:0:0:0:
412,197,21577,2,0,B|451:189|451:189|453:137,1,75.0000028610231,2|0,0:0|0:0,0:0:0:0:
244,30,21777,6,0,L|118:13,1,100,4|0,0:3|0:0,0:0:0:0:
13,129,21977,1,0,3:0:0:0:
101,119,22077,2,0,B|96:90|96:90|38:34,1,100,0|4,3:0|0:3,0:0:0:0:
412,197,22377,5,2,0:0:0:0:
144,16,22577,1,4,0:3:0:0:
462,31,22777,6,0,B|468:7|426:-1|365:11|380:90,1,150,8|0,0:0|2:0,0:0:0:0:
380,87,22977,2,0,B|404:114|404:114|437:102,1,62.5
135,105,23177,2,0,L|-3:131,1,125,4|2,0:3|0:0,0:0:0:0:
250,384,23577,6,0,B|229:320|306:271|309:309|378:300|387:219,1,233.333335558573,12|4,0:3|0:3,0:0:0:0:
262,384,23977,2,0,B|282:320|205:271|202:309|133:300|124:219,1,233.333335558573,8|0,0:3|0:0,0:0:0:0:
185,3,24377,6,0,L|6:29,1,174.37499617517,8|0,0:0|2:0,0:0:0:0:
13,29,24577,2,0,L|116:48,1,75.0000028610231,2|0,0:0|0:0,0:0:0:0:
437,123,24777,5,2,0:0:0:0:
437,123,24977,2,0,P|379:115|358:82,1,100,4|0,0:3|0:0,0:0:0:0:
272,15,25177,5,0,3:0:0:0:
284,25,25277,1,0,3:0:0:0:
270,31,25377,2,0,P|257:89|250:162,1,100,4|0,0:3|0:0,0:0:0:0:
98,132,25577,5,2,0:0:0:0:
447,15,25777,1,4,0:3:0:0:
136,49,25977,6,0,L|86:42,1,50,8|0,0:0|2:0,0:0:0:0:
114,33,26177,2,0,L|92:161,1,100,2|0,0:0|0:0,0:0:0:0:
415,142,26377,2,0,L|390:13,1,125,4|2,0:3|0:0,0:0:0:0:
249,383,26777,6,0,B|259:271|346:250|346:250|366:313|449:312,1,275.000002622604,12|0,0:3|0:0,0:0:0:0:
263,384,27177,2,0,B|253:272|166:251|166:251|146:314|63:313,1,275.000002622604,8|0,0:3|0:0,0:0:0:0:
364,28,27577,6,0,L|525:51,1,150,8|0,0:0|2:0,0:0:0:0:
512,49,27777,2,0,L|431:64,1,75.0000028610231,2|0,0:0|0:0,0:0:0:0:
134,94,27977,5,2,0:0:0:0:
134,94,28177,2,0,P|87:49|17:56,1,100,4|0,0:3|0:0,0:0:0:0:
251,26,28377,5,0,3:0:0:0:
225,110,28477,2,0,B|237:128|237:128|314:103,1,100,0|4,3:0|0:3,0:0:0:0:
44,135,28777,5,2,0:0:0:0:
360,24,28977,6,0,B|409:10|409:10|401:59,1,100,4|0,0:3|0:0,0:0:0:0:
225,110,29177,2,0,B|206:124|206:124|83:54,1,150,8|0,0:0|2:0,0:0:0:0:
95,61,29377,1,2,0:0:0:0:
370,154,29577,2,0,L|499:121,1,125,4|2,0:3|0:0,0:0:0:0:
263,384,29977,6,0,B|296:324|258:254|207:243|207:243|166:268|166:268|126:290|92:264,1,300.000011444092,12|4,0:3|0:3,0:0:0:0:
249,384,30377,2,0,B|216:324|253:254|304:243|304:243|345:268|345:268|377:289|420:274,1,300.000011444092,8|0,0:3|0:0,0:0:0:0:
123,79,30777,6,0,P|83:14|14:44,1,150,8|0,0:0|2:0,0:0:0:0:
22,31,30977,2,0,P|60:44|105:24,1,75.0000028610231,2|0,0:0|0:0,0:0:0:0:
299,103,31177,5,2,0:0:0:0:
442,16,31377,2,0,P|497:27|510:76,1,100,4|0,0:3|0:0,0:0:0:0:
252,176,31577,5,0,3:0:0:0:
345,182,31677,2,0,B|325:112|325:112|284:98,1,100,0|4,3:0|0:3,0:0:0:0:
256,23,31877,5,0,0:0:0:0:
194,84,31977,1,2,0:0:0:0:
429,110,32177,1,4,0:3:0:0:
107,38,32377,6,0,L|39:56,1,50,8|0,0:0|2:0,0:0:0:0:
81,32,32577,2,0,L|103:133,1,100,2|0,0:0|0:0,0:0:0:0:
412,155,32777,2,0,L|433:25,1,125,4|0,0:3|0:0,0:0:0:0:
263,384,33177,5,4,0:3:0:0:
249,384,33577,1,6,0:0:0:0:
41,355,33977,6,0,P|34:268|16:183,1,175.00000166893,8|2,0:0|0:0,0:0:0:0:
246,249,34377,5,2,0:0:0:0:
163,264,34577,2,0,B|197:231|197:231|260:254,1,100,4|0,0:3|0:0,0:0:0:0:
362,129,34777,5,0,3:0:0:0:
362,129,34877,2,0,P|375:215|392:275,1,112.500004291535,0|4,3:0|0:3,0:0:0:0:
16,182,35177,6,0,P|30:249|36:316,1,100,2|2,0:0|0:0,0:0:0:0:
16,182,35377,1,4,0:3:0:0:
202,262,35577,6,0,L|187:203,1,50,8|0,0:0|2:0,0:0:0:0:
246,249,35777,2,0,B|196:230|196:230|162:263,1,100,2|0,0:0|0:0,0:0:0:0:
385,352,35977,6,0,P|371:246|362:129,2,225.000008583069,6|2|6,0:3|0:3|0:3,0:0:0:0:
391,358,36777,1,4,0:0:0:0:
335,15,37177,5,8,0:0:0:0:
512,6,37377,2,0,P|460:8|421:48,1,100,2|0,0:0|0:0,0:0:0:0:
295,103,37577,1,2,0:0:0:0:
200,104,37777,2,0,P|235:90|308:114,1,100,4|0,0:3|0:0,0:0:0:0:
395,130,37977,5,0,3:0:0:0:
395,130,38077,2,0,P|425:189|450:226,1,100,0|4,3:0|0:3,0:0:0:0:
469,70,38377,5,2,0:0:0:0:
91,173,38577,1,4,0:3:0:0:
250,16,38777,6,0,L|315:35,1,50,8|0,0:0|2:0,0:0:0:0:
319,17,38977,2,0,L|191:35,1,100,2|0,0:0|0:0,0:0:0:0:
44,56,39177,6,0,P|139:93|265:152,2,225.000008583069,6|2|6,0:3|0:3|0:3,0:0:0:0:
35,50,39977,1,4,0:0:0:0:
158,266,40377,5,8,0:0:0:0:
0,353,40577,2,0,P|56:348|77:300,1,100,2|0,0:0|0:0,0:0:0:0:
367,224,40777,1,2,0:0:0:0:
279,162,40977,2,0,L|259:303,1,100,4|0,0:3|0:0,0:0:0:0:
206,354,41177,5,0,3:0:0:0:
206,354,41277,2,0,P|177:294|151:255,1,100,0|4,3:0|0:3,0:0:0:0:
433,359,41577,5,2,0:0:0:0:
183,178,41777,1,4,0:3:0:0:
493,225,41977,6,0,L|484:284,1,50,8|0,0:0|2:0,0:0:0:0:
512,252,42177,2,0,L|408:240,1,100,2|0,0:0|0:0,0:0:0:0:
311,350,42377,6,0,P|321:242|345:97,2,250,6|2|6,0:3|0:3|0:3,0:0:0:0:
319,360,43177,1,4,0:0:0:0:
260,129,43577,5,8,0:0:0:0:
22,22,43777,2,0,P|66:75|125:54,1,100,2|0,0:0|0:0,0:0:0:0:
282,30,43977,1,2,0:0:0:0:
185,54,44177,2,0,L|304:24,1,100,4|0,0:3|0:0,0:0:0:0:
472,60,44377,5,0,3:0:0:0:
384,100,44477,2,0,B|376:29|376:29|403:5,2,100,0|4|0,3:0|0:3|0:0,0:0:0:0:
444,187,44777,5,2,0:0:0:0:
91,75,44977,1,4,0:3:0:0:
315,267,45177,6,0,L|306:316,1,50,8|0,0:0|2:0,0:0:0:0:
330,293,45377,2,0,L|216:273,1,100,2|0,0:0|0:0,0:0:0:0:
117,375,45577,6,0,P|134:275|180:106,2,250,6|2|2,0:3|0:3|0:3,0:0:0:0:
213,161,49177,6,0,P|208:197|189:233,1,50,4|0,0:3|0:0,0:0:0:0:
292,224,49377,2,0,P|294:191|308:161,1,50,4|0,0:3|0:0,0:0:0:0:
491,10,49577,5,6,0:0:0:0:
491,10,49977,2,0,P|470:69|457:125,1,100,8|0,0:0|0:0,0:0:0:0:
82,346,50377,6,0,P|25:328|30:238,1,150,2|0,0:0|2:0,0:0:0:0:
30,243,50577,2,0,L|123:257,1,75.0000028610231,4|0,0:3|0:0,0:0:0:0:
250,297,50777,5,0,3:0:0:0:
245,281,50877,1,0,3:0:0:0:
261,291,50977,2,0,P|257:333|256:366,1,75.0000028610231,4|0,0:3|0:0,0:0:0:0:
278,7,51177,5,2,0:0:0:0:
265,195,51377,2,0,P|263:145|257:95,1,100,4|0,0:3|0:0,0:0:0:0:
377,29,51577,6,0,B|396:30|427:67|427:67|505:146|365:251|325:93|427:68|427:68|473:49|495:66,2,400,8|4|4,0:0|0:3|0:3,0:0:0:0:
98,308,52577,5,2,0:0:0:0:
113,152,52777,2,0,P|79:100|17:37,1,150,6|0,0:0|2:0,0:0:0:0:
12,43,52977,2,0,P|26:86|51:88,1,75.0000028610231,2|0,0:0|0:0,0:0:0:0:
249,36,53177,6,0,L|241:-1,1,37.5000014305115,8|0,0:0|2:0,0:0:0:0:
161,62,53377,1,2,0:0:0:0:
254,42,53577,1,2,0:0:0:0:
138,240,53777,6,0,P|156:284|175:348,1,100,4|0,0:3|0:0,0:0:0:0:
349,293,53977,2,0,P|338:233|332:172,1,100,0|0,3:0|3:0,0:0:0:0:
262,365,54177,1,4,0:3:0:0:
72,328,54377,5,2,0:0:0:0:
427,233,54577,1,4,0:3:0:0:
266,369,54777,6,0,B|190:300|167:163|271:75|373:173|324:278|247:269,2,400,8|4|4,0:0|0:3|0:3,0:0:0:0:
472,237,55777,6,0,P|472:200|438:137,1,75.0000028610231,4|0,0:3|0:0,0:0:0:0:
254,50,55977,2,0,L|402:29,1,150,6|0,0:0|2:0,0:0:0:0:
408,32,56177,2,0,L|398:121,1,75.0000028610231,2|0,0:0|0:0,0:0:0:0:
381,223,56377,5,8,0:0:0:0:
381,223,56477,1,2,0:0:0:0:
78,97,56777,5,2,0:0:0:0:
12,41,56977,2,0,P|58:52|74:114,1,100,4|0,0:3|0:0,0:0:0:0:
82,242,57177,2,0,B|97:118|97:118|104:59|153:12|263:52|200:183|123:151,2,375,0|2|0,3:0|0:0|0:0,0:0:0:0:
16,301,57977,6,0,L|25:355,1,50,8|0,0:0|2:0,0:0:0:0:
359,237,58377,6,0,P|421:263|404:350,1,150,4|0,0:3|2:0,0:0:0:0:
404,339,58577,2,0,P|420:286|393:250,1,100,2|0,0:0|0:0,0:0:0:0:
246,40,58777,6,0,B|171:29|143:86|160:81|134:143|41:116,1,225.000008583069,12|0,0:3|0:0,0:0:0:0:
431,103,59177,5,8,0:3:0:0:
358,146,59277,2,0,B|326:84|326:84|357:52,1,112.500004291535,2|0,0:0|0:0,0:0:0:0:
231,304,59577,6,0,L|220:376,1,56.2500021457673,8|0,0:0|2:0,0:0:0:0:
222,359,59977,6,0,P|129:354|117:281,1,168.750006437302,2|0,0:0|2:0,0:0:0:0:
81,205,60177,2,0,L|178:218,1,87.500000834465,4|0,0:3|0:0,0:0:0:0:
415,249,60377,5,0,3:0:0:0:
339,288,60477,2,0,B|321:270|321:270|349:168,1,112.500004291535,0|4,3:0|0:3,0:0:0:0:
22,280,60777,5,0,0:0:0:0:
486,171,60977,1,4,0:3:0:0:
285,271,61177,6,0,L|353:292,1,56.2500021457673,8|0,0:0|2:0,0:0:0:0:
415,249,61277,1,2,0:0:0:0:
260,360,61577,6,0,P|197:330|194:292,1,112.500004291535,4|0,0:3|0:0,0:0:0:0:
290,74,61777,2,0,P|343:60|381:98,1,112.500004291535,2|0,0:0|0:0,0:0:0:0:
256,190,61977,6,0,B|180:205|160:127|169:136|143:46|61:75,1,250,12|4,0:3|0:3,0:0:0:0:
12,346,62377,5,8,0:3:0:0:
105,327,62477,2,0,B|62:257|62:257|32:258,1,112.500004291535,2|0,0:0|0:0,0:0:0:0:
381,98,62777,6,0,L|467:80,1,56.2500021457673,8|0,0:0|2:0,0:0:0:0:
436,86,63177,6,0,L|407:257,1,168.750006437302,2|0,0:0|2:0,0:0:0:0:
383,339,63377,2,0,P|332:301|319:249,1,87.500000834465,4|0,0:3|0:0,0:0:0:0:
223,135,63577,5,0,3:0:0:0:
234,149,63677,1,0,3:0:0:0:
238,134,63777,2,0,P|210:184|202:247,1,112.500004291535,4|0,0:3|0:0,0:0:0:0:
388,214,63977,5,2,0:0:0:0:
21,138,64177,1,4,0:3:0:0:
338,74,64377,6,0,L|344:129,1,56.2500021457673,8|0,0:0|2:0,0:0:0:0:
98,346,64577,2,0,L|122:163,1,168.750006437302,2|0,0:0|2:0,0:0:0:0:
119,178,64777,6,0,P|176:193|201:262,1,112.500004291535,4|0,0:3|0:0,0:0:0:0:
338,363,64977,2,0,P|330:306|360:258,1,100,2|0,0:0|0:0,0:0:0:0:
438,249,65177,5,2,0:0:0:0:
40,134,65577,5,2,0:0:0:0:
40,134,65677,1,2,0:0:0:0:
196,93,65977,5,2,0:0:0:0:
196,93,66077,1,2,0:0:0:0:
323,60,66377,5,2,0:0:0:0:
323,60,66477,1,2,0:0:0:0:
428,29,66777,5,2,0:0:0:0:
428,29,66877,1,2,0:0:0:0:
512,1,67177,5,2,0:0:0:0:
512,1,67577,1,2,0:0:0:0:
211,57,68377,6,0,B|191:47|191:47|216:20|216:20|298:2|316:72|304:82|306:143|390:152,1,275.000002622604,2|0,0:1|0:0,0:0:0:0:
414,81,68677,1,2,0:0:0:0:
414,81,68777,2,0,B|426:18|426:18|383:81,1,125,8|2,0:3|0:0,0:0:0:0:
208,264,68977,2,0,B|212:295|212:295|285:320|285:320|307:299,1,125,2|0,0:1|0:0,0:0:0:0:
481,282,69177,6,0,P|497:255|478:282,1,112.500004291535,10|0,0:1|0:0,0:0:0:0:
492,377,69577,2,0,P|443:304|356:225,1,187.5,2|0,0:0|2:0,0:0:0:0:
364,148,69777,2,0,P|297:163|290:221,1,125,4|0,0:3|0:0,0:0:0:0:
164,346,69977,5,2,3:1:0:0:
180,345,70077,1,0,3:0:0:0:
176,355,70177,2,0,P|173:328|146:263,1,75.0000028610231,4|0,0:3|0:0,0:0:0:0:
54,146,70377,6,0,B|24:155|24:155|6:258,1,112.500004291535,2|2,0:0|0:0,0:0:0:0:
267,177,70577,2,0,B|230:38|230:38|198:25,1,168.750006437302,2|0,0:1|2:0,0:0:0:0:
123,21,70777,6,0,L|113:97,1,56.2500021457673,10|0,0:1|2:0,0:0:0:0:
425,304,70977,2,0,L|445:162,1,112.500004291535
243,265,71177,6,0,P|182:232|169:186,1,112.500004291535,4|2,0:3|0:0,0:0:0:0:
353,33,71377,2,0,P|414:66|427:112,1,112.500004291535,2|0,0:0|0:0,0:0:0:0:
266,384,71577,6,0,P|265:287|246:130,1,225.000008583069,12|0,0:3|0:0,0:0:0:0:
275,384,71977,2,0,P|261:271|260:159,1,225.000008583069,8|0,0:3|0:0,0:0:0:0:
25,84,72377,6,0,L|97:66,1,56.2500021457673,8|0,0:0|2:0,0:0:0:0:
126,0,72477,1,2,0:0:0:0:
275,384,72777,6,0,L|75:352,1,187.5,2|0,0:0|2:0,0:0:0:0:
7,343,72977,2,0,P|12:280|93:296,1,125,4|0,0:3|0:0,0:0:0:0:
277,209,73177,5,0,3:0:0:0:
245,291,73277,2,0,B|216:208|216:208|172:194,1,125,0|4,3:0|0:3,0:0:0:0:
439,334,73577,5,2,0:0:0:0:
82,167,73777,1,4,0:3:0:0:
284,146,73977,6,0,L|276:216,1,62.5,8|0,0:0|2:0,0:0:0:0:
245,291,74077,1,2,0:0:0:0:
409,111,74377,6,0,P|407:49|356:15,1,125,4|0,0:3|0:0,0:0:0:0:
162,29,74577,2,0,P|121:77|133:143,1,125,2|0,0:0|0:0,0:0:0:0:
266,384,74777,6,0,B|232:323|274:272|281:289|311:242|275:170,1,225.000008583069,12|4,0:3|0:3,0:0:0:0:
275,381,75177,2,0,B|310:310|281:262|273:280|233:227|267:168,1,225.000008583069,8|0,0:3|0:0,0:0:0:0:
497,310,75577,6,0,L|511:383,1,56.2500021457673,8|0,0:0|2:0,0:0:0:0:
507,365,75977,6,0,P|412:351|413:274,1,187.5,2|0,0:0|2:0,0:0:0:0:
417,194,76177,2,0,P|377:182|350:214,1,87.500000834465,4|0,0:3|0:0,0:0:0:0:
246,358,76377,5,0,3:0:0:0:
258,362,76477,1,0,3:0:0:0:
255,348,76577,2,0,P|261:297|275:251,1,87.500000834465,4|0,0:3|0:0,0:0:0:0:
136,90,76777,5,2,0:0:0:0:
411,275,76977,1,4,0:3:0:0:
97,347,77177,6,0,L|16:329,1,62.5,8|0,0:0|2:0,0:0:0:0:
343,133,77377,2,0,L|523:93,1,168.750006437302,2|0,0:0|2:0,0:0:0:0:
508,97,77577,6,0,P|480:146|470:204,1,112.500004291535,4|0,0:3|0:0,0:0:0:0:
270,262,77777,2,0,P|229:205|176:182,1,112.500004291535,2|0,0:0|0:0,0:0:0:0:
101,209,77977,5,2,0:0:0:0:
410,7,78377,5,2,0:0:0:0:
410,7,78477,1,2,0:0:0:0:
141,99,78777,5,2,0:0:0:0:
141,99,78877,1,2,0:0:0:0:
308,217,79177,5,2,0:0:0:0:
308,217,79277,1,2,0:0:0:0:
209,308,79577,5,2,0:0:0:0:
209,308,79677,1,2,0:0:0:0:
255,384,79977,5,2,0:0:0:0:
255,384,80377,1,2,0:0:0:0:
0,88,81177,6,0,B|69:112|82:55|85:56|105:-3|171:16|171:16|181:67,1,250,2|4,0:1|0:3,0:0:0:0:
229,138,81477,1,2,0:0:0:0:
229,138,81577,2,0,B|234:151|234:151|213:193|213:193|174:165|174:165|181:144,1,125,8|2,0:3|0:0,0:0:0:0:
344,26,81777,2,0,B|373:12|373:12|442:60|442:60|430:107,1,125,2|0,0:1|0:0,0:0:0:0:
447,269,81977,6,0,P|423:238|451:265,1,112.500004291535,10|0,0:1|0:0,0:0:0:0:
482,347,82377,6,0,B|452:365|452:365|293:334,1,187.5,2|0,0:0|2:0,0:0:0:0:
221,345,82577,2,0,P|239:284|292:254,1,125,4|0,0:3|0:0,0:0:0:0:
352,99,82777,5,2,3:1:0:0:
366,100,82877,1,0,3:0:0:0:
364,90,82977,2,0,P|359:116|354:185,1,75.0000028610231,4|0,0:3|0:0,0:0:0:0:
254,22,83177,6,0,B|174:35|174:35|165:65,1,112.500004291535,2|2,0:0|0:0,0:0:0:0:
18,232,83377,2,0,B|159:256|159:256|188:235,1,168.750006437302,2|0,0:1|2:0,0:0:0:0:
179,241,83577,6,0,L|171:185,1,56.2500021457673,10|0,0:1|2:0,0:0:0:0:
28,11,83777,2,0,L|48:153,1,112.500004291535
204,334,83977,2,0,P|152:334|91:265,1,150.000005722046,4|0,0:3|0:0,0:0:0:0:
455,31,84377,6,0,P|453:68|411:109,1,75.0000028610231,4|0,0:3|0:0,0:0:0:0:
396,186,84577,2,0,L|368:27,2,150.000005722046,2|6|2,0:0|0:0|0:0,0:0:0:0:
302,366,85177,5,8,0:0:0:0:
230,148,85377,1,2,0:0:0:0:
288,60,85577,2,0,P|321:76|340:108,1,75.0000028610231,2|0,0:0|0:0,0:0:0:0:
273,278,85777,6,0,P|193:245|61:219,1,200,4|0,0:3|3:0,0:0:0:0:
60,142,86077,1,0,3:0:0:0:
60,142,86177,2,0,P|23:160|6:201,1,75.0000028610231,4|0,0:3|0:0,0:0:0:0:
216,342,86377,6,0,B|293:356|341:274|284:197|284:197|249:247|283:294,1,300,2|0,0:0|0:0,0:0:0:0:
304,361,86777,6,0,P|401:337|467:329,1,131.250001251698,8|0,0:0|2:0,0:0:0:0:
431,332,86977,1,2,0:0:0:0:
278,283,87177,6,0,P|332:263|386:253,1,100,6|0,0:3|0:0,0:0:0:0:
373,254,87377,2,0,P|319:274|265:284,1,100,2|0,0:3|0:0,0:0:0:0:
89,307,87577,5,4,0:3:0:0:
89,307,87777,1,4,0:3:0:0:
24,21,87977,1,6,0:0:0:0:
461,169,88377,6,0,P|496:165|511:150,1,50,8|0,0:0|2:0,0:0:0:0:
263,0,88777,6,0,L|254:169,1,150,2|0,0:0|2:0,0:0:0:0:
255,149,88977,2,0,L|211:123,1,50,4|0,0:3|0:0,0:0:0:0:
22,11,89177,5,0,3:0:0:0:
22,28,89277,1,0,3:0:0:0:
36,21,89377,1,4,0:3:0:0:
50,214,89577,5,2,0:0:0:0:
319,81,89777,2,0,L|422:99,1,75.0000028610231,4|0,0:3|0:0,0:0:0:0:
362,304,89977,6,0,P|353:232|331:163,1,131.250001251698,8|0,0:0|2:0,0:0:0:0:
336,175,90177,1,0,0:0:0:0:
269,310,90377,6,0,P|256:245|236:195,1,100,6|0,0:3|0:0,0:0:0:0:
244,213,90577,2,0,P|257:278|277:328,1,100,2|0,0:3|0:0,0:0:0:0:
448,359,90777,5,4,0:3:0:0:
448,359,90977,1,2,0:0:0:0:
118,295,91177,1,4,0:0:0:0:
467,108,91577,6,0,P|480:70|465:43,1,50,8|0,0:0|2:0,0:0:0:0:
114,32,91977,6,0,P|139:85|159:184,1,150,2|0,0:0|2:0,0:0:0:0:
158,173,92177,1,4,0:3:0:0:
394,37,92377,5,0,3:0:0:0:
320,179,92577,2,0,P|329:143|344:108,1,75.0000028610231,4|0,0:3|0:0,0:0:0:0:
492,300,92777,5,2,0:0:0:0:
403,282,92877,2,0,B|338:272|338:272|304:308,1,100,2|4,0:0|0:3,0:0:0:0:
506,48,93177,6,0,L|495:-5,1,50,8|0,0:0|2:0,0:0:0:0:
486,133,93377,1,2,0:0:0:0:
176,0,93577,1,4,0:3:0:0:
81,321,93977,6,0,B|73:311|38:319|38:319|0:297|-21:233|15:163|110:165|135:215,1,300,4|0,0:3|0:0,0:0:0:0:
178,295,94377,1,4,0:0:0:0:
164,381,94577,2,0,L|178:294,1,87.500000834465,2|0,0:0|0:0,0:0:0:0:
371,45,94777,5,8,0:0:0:0:
371,45,95177,6,0,P|335:96|332:160,1,100,2|0,0:0|0:0,0:0:0:0:
156,147,95377,2,0,P|106:94|76:88,1,100,4|0,0:3|0:0,0:0:0:0:
231,4,95577,5,0,3:0:0:0:
213,5,95677,1,0,3:0:0:0:
225,18,95777,2,0,L|238:108,1,75.0000028610231,4|0,0:3|0:0,0:0:0:0:
247,369,95977,6,0,B|340:244|261:151|187:198|184:296|293:309,1,300,2|0,0:0|0:0,0:0:0:0:
362,337,96377,6,0,L|431:326,1,50,8|0,0:0|2:0,0:0:0:0:
146,179,96577,2,0,L|42:160,1,75.0000028610231
257,0,96777,5,4,0:3:0:0:
191,179,100377,6,0,P|233:205|285:172,1,112.500004291535,12|0,0:3|0:0,0:0:0:0:
455,68,100577,1,0,0:0:0:0:
494,177,100777,6,0,L|364:133,1,112.500004291535,12|0,0:3|0:0,0:0:0:0:
235,93,100977,1,0,0:0:0:0:
489,349,101177,6,0,L|475:276,1,50,8|0,0:0|2:0,0:0:0:0:
499,325,101377,2,0,L|369:343,1,100,2|0,0:0|0:0,0:0:0:0:
113,378,101577,6,0,P|41:350|46:285,1,150,2|0,0:0|2:0,0:0:0:0:
50,290,101777,2,0,L|110:296,1,50,4|0,0:3|0:0,0:0:0:0:
290,324,101977,5,0,3:0:0:0:
257,356,102077,1,0,3:0:0:0:
244,312,102177,1,4,0:3:0:0:
443,375,102377,5,2,0:0:0:0:
162,220,102577,2,0,P|166:175|208:131,1,100
386,255,102777,6,0,L|373:325,1,50,8|0,0:0|2:0,0:0:0:0:
76,243,102977,2,0,P|37:197|-40:196,1,100,2|0,0:0|0:0,0:0:0:0:
88,334,103177,6,0,L|208:299,1,125,4|0,0:3|0:0,0:0:0:0:
512,31,103577,6,0,P|456:31|427:94,1,125,12|0,0:3|0:0,0:0:0:0:
268,163,103777,1,0,0:0:0:0:
399,298,103977,6,0,L|369:176,1,125,12|0,0:3|0:0,0:0:0:0:
316,0,104177,1,0,0:0:0:0:
32,133,104377,6,0,L|25:183,1,50,8|0,0:0|2:0,0:0:0:0:
272,212,104577,1,2,0:0:0:0:
113,369,104777,6,0,P|129:284|222:290,1,150,2|0,0:0|2:0,0:0:0:0:
181,269,104977,2,0,P|202:308|245:314,1,75.0000028610231,4|0,0:3|0:0,0:0:0:0:
453,362,105177,6,0,B|491:332|446:289|397:307|397:307|375:260|312:271|317:314,1,225.000008583069,0|4,3:0|0:3,0:0:0:0:
0,217,105577,5,2,0:0:0:0:
84,263,105677,2,0,B|97:191|97:191|59:147,2,112.500004291535,0|4|0,0:0|0:3|0:0,0:0:0:0:
154,327,105977,6,0,L|165:389,1,56.2500021457673,8|0,0:0|2:0,0:0:0:0:
492,363,106177,2,0,P|494:298|440:280,1,112.500004291535
387,164,106377,2,0,P|361:248|357:303,1,125,4|0,0:3|0:0,0:0:0:0:
8,118,106777,6,0,P|35:64|98:57,1,125,8|0,0:3|0:0,0:0:0:0:
314,84,106977,1,0,0:0:0:0:
192,137,107177,6,0,L|218:-10,1,125,8|0,0:3|0:0,0:0:0:0:
100,152,107377,1,0,0:0:0:0:
260,314,107577,6,0,L|253:391,1,50,8|0,0:0|2:0,0:0:0:0:
72,340,107777,2,0,L|196:317,1,100,2|0,0:0|0:0,0:0:0:0:
494,337,107977,6,0,P|481:275|372:269,1,168.750006437302,2|0,0:0|2:0,0:0:0:0:
388,256,108177,2,0,L|376:341,1,75.0000028610231,4|0,0:3|0:0,0:0:0:0:
171,322,108377,5,0,3:0:0:0:
255,363,108477,2,0,B|277:342|277:342|261:246,1,112.500004291535,0|4,3:0|0:3,0:0:0:0:
190,182,108677,5,0,0:0:0:0:
111,227,108777,1,2,0:0:0:0:
487,240,108977,1,4,0:3:0:0:
162,377,109177,6,0,L|173:308,1,56.2500021457673,8|0,0:0|2:0,0:0:0:0:
436,348,109377,2,0,P|401:297|335:290,1,112.500004291535,2|0,0:0|0:0,0:0:0:0:
69,347,109577,2,0,P|25:328|16:230,1,150.000005722046,4|0,0:3|0:0,0:0:0:0:
381,10,109977,5,2,3:1:0:0:
381,10,110377,6,0,P|363:66|333:95,1,75.0000028610231,4|0,0:0|0:0,0:0:0:0:
354,79,110577,1,2,0:0:0:0:
512,37,110777,6,0,P|492:21|477:1,1,50,8|0,0:0|2:0,0:0:0:0:
405,154,110977,1,2,0:0:0:0:
380,9,111177,6,0,P|429:13|478:2,1,100,2|0,0:0|0:0,0:0:0:0:
500,136,111377,2,0,P|450:134|404:153,1,100,4|0,0:3|0:0,0:0:0:0:
47,373,111577,5,2,3:1:0:0:
47,373,111977,6,0,P|21:325|-9:304,1,75.0000028610231,2|0,0:0|0:0,0:0:0:0:
5,312,112177,1,4,0:3:0:0:
167,346,112377,6,0,P|145:367|135:389,1,50,8|0,0:0|2:0,0:0:0:0:
120,156,112577,1,2,0:0:0:0:
152,262,112777,6,0,P|101:242|50:240,1,100,4|0,0:3|0:0,0:0:0:0:
56,239,112977,2,0,P|107:259|158:261,1,100,2|0,0:0|0:0,0:0:0:0:
508,376,113177,5,2,0:1:0:0:
508,376,113577,6,0,P|507:315|524:274,1,75.0000028610231,4|0,0:0|0:0,0:0:0:0:
380,244,113777,1,2,0:0:0:0:
507,201,113977,6,0,P|475:227|459:236,1,50,8|0,0:0|2:0,0:0:0:0:
419,383,114177,1,2,0:0:0:0:
344,322,114377,6,0,P|387:345|419:383,1,100,2|0,0:0|0:0,0:0:0:0:
510,302,114577,2,0,P|467:275|438:235,1,100,4|0,0:3|0:0,0:0:0:0:
68,0,114777,5,2,3:1:0:0:
68,0,115177,6,0,P|47:31|3:49,1,75.0000028610231,2|0,0:0|0:0,0:0:0:0:
170,98,115377,2,0,P|148:54|150:18,1,75.0000028610231,4|0,0:3|0:0,0:0:0:0:
43,133,115577,6,0,P|86:143|99:158,1,50,8|0,0:0|2:0,0:0:0:0:
234,34,115777,1,2,0:0:0:0:
123,180,115977,6,0,P|105:154|31:134,1,100,4|0,0:3|0:0,0:0:0:0:
14,47,116177,2,0,P|51:10|95:-8,1,100,2|0,0:0|0:0,0:0:0:0:
512,0,116377,5,2,0:1:0:0:
512,0,116777,5,4,0:0:0:0:
311,69,116977,2,0,P|330:124|366:162,1,75.0000028610231,2|0,0:0|0:0,0:0:0:0:
427,19,117177,6,0,P|387:3|359:13,1,50,8|0,0:0|2:0,0:0:0:0:
486,93,117377,1,2,0:0:0:0:
421,166,117577,6,0,P|447:123|494:88,1,100,2|0,0:0|0:0,0:0:0:0:
362,42,117777,2,0,P|361:85|336:141,1,100,4|0,3:3|0:0,0:0:0:0:
112,359,117977,6,0,L|61:346,2,37.5000014305115,2|0|4,3:1|3:0|0:3,0:0:0:0:
111,359,118377,6,0,P|129:325|156:300,1,75.0000028610231,2|0,0:0|0:0,0:0:0:0:
0,267,118577,2,0,P|19:299|25:336,1,75.0000028610231,4|0,0:3|0:0,0:0:0:0:
117,217,118777,6,0,P|71:213|57:200,1,50,8|0,0:0|2:0,0:0:0:0:
193,378,118977,1,2,0:0:0:0:
0,266,119177,6,0,P|-5:315|18:359,1,100,4|0,0:3|0:0,0:0:0:0:
102,378,119377,2,0,P|146:340|155:293,1,100,2|0,0:0|0:0,0:0:0:0:
125,18,119577,5,2,0:1:0:0:
125,18,119977,6,0,P|98:54|91:93,1,75.0000028610231,4|0,0:0|0:0,0:0:0:0:
213,22,120177,1,0,0:0:0:0:
0,129,120377,6,0,P|8:88|5:70,1,50,8|0,0:0|2:0,0:0:0:0:
79,178,120577,1,2,0:0:0:0:
42,0,120777,6,0,P|76:36|90:83,1,100,2|0,0:0|0:0,0:0:0:0:
0,129,120977,2,0,P|43:172|94:177,1,100,4|0,0:3|0:0,0:0:0:0:
506,313,121177,6,0,L|495:273,2,37.5000014305115,2|0|4,3:1|3:0|0:3,0:0:0:0:
506,313,121577,6,0,P|474:338|458:373,1,75.0000028610231,2|0,0:0|0:0,0:0:0:0:
367,208,121777,1,4,0:3:0:0:
373,331,121977,6,0,P|349:295|316:278,1,50,8|0,0:0|2:0,0:0:0:0:
454,230,122177,1,2,0:0:0:0:
344,291,122377,6,0,P|361:337|395:375,1,100,4|0,0:3|0:0,0:0:0:0:
506,313,122577,2,0,P|481:256|453:229,1,100,2|0,0:0|0:0,0:0:0:0:
297,0,122777,5,2,0:1:0:0:
403,13,125977,6,0,P|380:60|371:113,1,100,2|0,0:1|0:0,0:0:0:0:
371,106,126177,1,4,0:3:0:0:
231,149,126377,5,4,0:0:0:0:
512,200,126577,2,0,L|487:89,1,87.500000834465,2|0,0:0|0:0,0:0:0:0:
315,300,126777,6,0,P|362:221|443:262,1,175.00000166893,8|0,0:0|0:0,0:0:0:0:
433,244,127177,2,0,P|379:254|356:203,1,87.500000834465,2|0,0:0|0:0,0:0:0:0:
227,23,127377,1,4,0:3:0:0:
145,100,127577,5,0,3:0:0:0:
156,91,127677,1,0,3:0:0:0:
140,86,127777,1,4,0:3:0:0:
0,23,127977,5,2,0:0:0:0:
299,150,128177,1,4,0:3:0:0:
86,254,128377,6,0,P|71:194|5:96,1,150,8|0,0:0|2:0,0:0:0:0:
26,118,128577,1,0,0:0:0:0:
92,349,128777,2,0,P|175:343|161:250,1,175.00000166893,4|0,0:3|0:0,0:0:0:0:
241,18,129177,6,0,P|226:70|225:115,2,87.500000834465,2|0|0,0:1|0:0|0:0,0:0:0:0:
512,89,129577,6,0,L|354:61,1,150,4|0,0:0|2:0,0:0:0:0:
364,62,129777,2,0,L|393:120,1,50,2|0,0:0|0:0,0:0:0:0:
428,242,129977,5,8,0:0:0:0:
291,225,130177,1,2,0:0:0:0:
224,103,130377,1,2,0:0:0:0:
479,356,130577,1,4,0:3:0:0:
273,323,130777,6,0,P|285:271|291:195,1,100,0|0,3:0|3:0,0:0:0:0:
354,379,130977,1,4,0:3:0:0:
149,343,131177,5,2,0:0:0:0:
408,196,131377,1,4,0:3:0:0:
138,28,131577,6,0,L|155:111,1,50,8|0,0:0|2:0,0:0:0:0:
125,52,131777,2,0,L|234:32,1,100,2|0,0:0|0:0,0:0:0:0:
378,82,131977,6,0,B|395:88|430:66|403:10|301:26|292:143,1,200,4|0,0:3|0:0,0:0:0:0:
279,366,132377,5,2,0:1:0:0:
15,221,132777,6,0,P|110:235|124:277,1,150,4|0,0:0|2:0,0:0:0:0:
123,275,132977,2,0,P|90:267|89:246,1,50,2|0,0:0|0:0,0:0:0:0:
41,112,133177,5,8,0:0:0:0:
322,230,133377,1,2,0:0:0:0:
245,294,133577,1,2,0:0:0:0:
107,43,133777,2,0,P|176:49|229:68,1,100,4|0,0:3|0:0,0:0:0:0:
353,99,133977,5,0,3:0:0:0:
322,138,134077,1,0,3:3:0:0:
369,144,134177,1,0,3:0:0:0:
160,245,134377,6,0,B|143:251|107:229|134:173|237:189|245:306,1,200,2|4,0:0|0:3,0:0:0:0:
440,325,134777,6,0,L|424:392,1,50,8|0,0:0|2:0,0:0:0:0:
382,241,134977,1,0,0:0:0:0:
134,383,135177,6,0,P|72:357|89:270,1,150,4|0,0:3|2:0,0:0:0:0:
74,283,135377,2,0,P|130:274|166:229,1,100,2|0,0:0|0:0,0:0:0:0:
261,0,135577,6,0,P|250:53|236:200,1,200,12|0,0:3|0:0,0:0:0:0:
251,0,135977,6,0,P|256:42|258:63,1,50,8|0,0:3|2:0,0:0:0:0:
266,98,136077,2,0,P|274:162|274:224,1,100,2|0,0:0|0:0,0:0:0:0:
496,371,136377,6,0,L|505:312,1,50,8|0,0:0|2:0,0:0:0:0:
503,321,136777,6,0,L|347:342,1,150,2|0,0:0|2:0,0:0:0:0:
273,376,136977,2,0,P|267:332|296:275,1,100,4|0,0:3|0:0,0:0:0:0:
464,158,137177,5,0,3:0:0:0:
388,206,137277,2,0,B|314:198|314:198|300:174,2,100,0|4|0,3:0|0:3|0:0,0:0:0:0:
512,48,137577,5,0,0:0:0:0:
215,224,137777,1,4,0:3:0:0:
78,21,137977,6,0,L|128:37,1,50,8|0,0:0|2:0,0:0:0:0:
126,125,138077,2,0,L|6:86,1,100,2|0,0:0|0:0,0:0:0:0:
351,341,138377,6,0,P|394:317|409:270,1,100,4|0,0:3|0:0,0:0:0:0:
152,325,138577,2,0,P|110:299|93:254,1,100,2|0,0:0|0:0,0:0:0:0:
249,0,138777,6,0,B|213:51|269:127|268:95|327:149|297:217,1,225.000008583069,12|4,0:3|0:3,0:0:0:0:
263,0,139177,6,0,P|272:43|265:65,1,56.2500021457673,8|0,0:3|2:0,0:0:0:0:
248,105,139277,2,0,P|220:138|213:220,1,112.500004291535,2|0,0:0|0:0,0:0:0:0:
18,369,139577,6,0,L|8:298,1,56.2500021457673,8|0,0:0|2:0,0:0:0:0:
10,313,139977,6,0,L|182:334,1,168.750006437302,2|0,0:0|2:0,0:0:0:0:
263,356,140177,2,0,P|260:297|215:252,1,112.500004291535,4|0,0:3|0:0,0:0:0:0:
146,75,140377,5,0,3:0:0:0:
66,123,140477,2,0,B|50:44|50:44|78:19,2,112.500004291535,0|4|0,3:0|0:3|0:0,0:0:0:0:
95,289,140777,5,2,0:0:0:0:
432,115,140977,1,4,0:3:0:0:
318,363,141177,6,0,L|243:353,1,56.2500021457673,8|0,0:0|2:0,0:0:0:0:
477,305,141377,2,0,P|464:239|417:218,1,112.500004291535,2|0,0:0|0:0,0:0:0:0:
163,245,141577,6,0,L|148:373,1,112.500004291535,4|0,0:3|0:0,0:0:0:0:
96,132,141777,2,0,L|71:12,1,112.500004291535,2|0,0:0|0:0,0:0:0:0:
149,356,141977,5,4,0:3:0:0:
23,192,142377,5,2,0:0:0:0:
23,192,142477,1,2,0:0:0:0:
270,127,142777,5,2,0:0:0:0:
270,127,142877,1,2,0:0:0:0:
425,188,143177,5,2,0:0:0:0:
425,188,143277,1,2,0:0:0:0:
497,290,143577,5,2,0:0:0:0:
497,290,143677,1,2,0:0:0:0:
505,382,143977,5,2,0:0:0:0:
505,382,144377,1,2,0:0:0:0:
62,98,145177,6,0,B|25:108|19:149|19:149|115:160|174:240,1,250,2|0,0:1|0:0,0:0:0:0:
240,293,145477,1,2,0:0:0:0:
240,293,145577,2,0,P|273:252|240:196,1,100
450,127,145777,2,0,B|427:121|417:83|417:83|416:124|434:149,1,125,2|0,0:1|0:0,0:0:0:0:
495,335,145977,6,0,B|482:291|482:291|423:251|385:325|400:314|364:369|298:350,1,250,10|0,0:1|0:0,0:0:0:0:
240,293,146277,1,2,0:0:0:0:
240,293,146377,2,0,B|267:235|267:235|346:286,1,125,2|0,0:0|0:0,0:0:0:0:
166,357,146577,2,0,B|142:374|142:374|36:332,1,125,4|0,0:3|0:0,0:0:0:0:
46,91,146777,5,2,3:1:0:0:
118,151,146877,1,0,3:0:0:0:
30,179,146977,2,0,P|14:237|7:286,1,75.0000028610231,4|0,0:3|0:0,0:0:0:0:
208,118,147177,6,0,L|185:-15,1,112.500004291535,2|2,0:0|0:0,0:0:0:0:
292,158,147377,2,0,B|306:178|306:178|276:355,1,168.750006437302,2|0,0:1|2:0,0:0:0:0:
198,361,147577,6,0,L|143:371,1,56.2500021457673,10|0,0:1|2:0,0:0:0:0:
345,235,147777,2,0,L|469:213,1,112.500004291535
512,150,147977,6,0,P|455:123|407:142,1,112.500004291535,4|2,0:3|0:0,0:0:0:0:
177,273,148177,2,0,P|121:240|104:186,1,112.500004291535,2|0,0:0|0:0,0:0:0:0:
261,0,148377,6,0,B|322:22|254:140|249:71|171:89|164:159|198:200,1,250,12|0,0:3|0:0,0:0:0:0:
251,0,148777,6,0,P|228:32|240:80,1,75.0000028610231,8|0,0:3|2:0,0:0:0:0:
276,93,148877,2,0,B|320:106|346:146|321:191,1,125,2|0,0:0|0:0,0:0:0:0:
100,349,149177,6,0,L|50:358,1,50,8|0,0:0|2:0,0:0:0:0:
9,282,149277,2,0,L|107:263,1,100,2|0,0:0|0:0,0:0:0:0:
502,275,149577,6,0,P|421:287|409:364,1,150,2|0,0:0|2:0,0:0:0:0:
402,344,149777,2,0,P|446:330|441:248,1,100,4|0,0:3|0:0,0:0:0:0:
467,99,149977,5,0,3:0:0:0:
414,171,150077,2,0,B|399:189|399:189|318:176,2,100,0|4|0,3:0|0:3|0:0,0:0:0:0:
480,13,150377,5,2,0:0:0:0:
76,120,150577,1,4,0:3:0:0:
195,355,150777,6,0,L|205:286,1,50,8|0,0:0|2:0,0:0:0:0:
125,269,150877,2,0,L|111:375,1,100,2|0,0:0|0:0,0:0:0:0:
313,281,151177,6,0,P|327:240|297:170,1,100,4|0,0:3|0:0,0:0:0:0:
29,202,151377,2,0,P|40:153|76:120,1,100,2|0,0:0|0:0,0:0:0:0:
261,0,151577,6,0,P|247:76|193:196,1,200,12|4,0:3|0:3,0:0:0:0:
251,0,151977,6,0,P|255:37|266:72,1,50,8|0,0:3|2:0,0:0:0:0:
272,97,152077,2,0,P|298:164|331:209,1,100,2|0,0:0|0:0,0:0:0:0:
512,378,152377,6,0,L|448:369,1,50,8|0,0:0|2:0,0:0:0:0:
462,372,152777,6,0,L|480:197,1,150,2|0,0:0|2:0,0:0:0:0:
481,140,152977,2,0,P|429:151|402:186,1,100,4|0,0:3|0:0,0:0:0:0:
203,316,153177,5,0,3:0:0:0:
243,358,153277,1,0,3:0:0:0:
258,303,153377,2,0,P|255:252|243:206,1,75.0000028610231,4|0,0:3|0:0,0:0:0:0:
76,354,153577,5,2,0:0:0:0:
415,294,153777,1,4,0:3:0:0:
18,219,153977,6,0,L|10:281,1,50,8|0,0:0|2:0,0:0:0:0:
54,60,154177,2,0,P|112:49|150:94,1,100,2|0,0:0|0:0,0:0:0:0:
272,204,154377,6,0,L|255:323,1,100,4|0,0:3|0:0,0:0:0:0:
381,101,154577,2,0,L|353:-21,1,100,2|0,0:0|0:0,0:0:0:0:
421,292,154777,5,12,0:3:0:0:
14,321,155177,5,2,0:0:0:0:
14,321,155277,1,2,0:0:0:0:
491,357,155577,5,2,0:0:0:0:
491,357,155677,1,2,0:0:0:0:
165,366,155977,5,2,0:0:0:0:
165,366,156077,1,2,0:0:0:0:
342,314,156377,5,2,0:0:0:0:
342,314,156477,1,2,0:0:0:0:
254,344,156777,5,2,0:0:0:0:
254,344,157177,1,2,0:0:0:0:
243,4,157977,6,0,P|231:79|375:113,1,250,2|4,0:1|0:3,0:0:0:0:
412,18,158277,1,2,0:0:0:0:
412,18,158377,2,0,B|354:4|354:4|292:78,1,125
189,125,158577,2,0,B|159:134|132:90|132:90|153:115|197:115,1,125,2|0,0:1|0:0,0:0:0:0:
452,93,158777,6,0,B|478:158|423:214|403:191|350:243|377:315,1,250,10|0,0:1|0:0,0:0:0:0:
465,371,159077,1,2,0:0:0:0:
465,371,159177,2,0,B|511:323|511:323|480:266,1,125,2|0,0:0|0:0,0:0:0:0:
341,207,159377,2,0,B|251:215|251:215|217:250,1,125,4|0,0:3|0:0,0:0:0:0:
25,294,159577,5,2,3:1:0:0:
94,354,159677,1,0,3:0:0:0:
94,354,159777,2,0,P|113:315|114:276,1,75.0000028610231,4|0,0:3|0:0,0:0:0:0:
115,24,159977,6,0,L|-7:46,1,112.500004291535,2|2,0:0|0:0,0:0:0:0:
192,158,160177,2,0,B|329:179|329:179|347:224,1,168.750006437302,2|0,0:1|2:0,0:0:0:0:
400,324,160377,6,0,L|384:392,1,56.2500021457673,10|0,0:1|2:0,0:0:0:0:
414,163,160577,2,0,P|377:104|300:111,1,112.500004291535
205,53,160777,6,0,P|238:123|262:269,1,225.000008583069,4|0,0:3|0:0,0:0:0:0:
262,267,161177,1,4,0:3:0:0:
