osu file format v14

[General]
AudioFilename: audio.mp3
AudioLeadIn: 0
PreviewTime: 64799
Countdown: 0
SampleSet: None
StackLeniency: 0.7
Mode: 0
LetterboxInBreaks: 0
EpilepsyWarning: 1
WidescreenStoryboard: 1

[Editor]
DistanceSpacing: 0.1
BeatDivisor: 8
GridSize: 32
TimelineZoom: 1

[Metadata]
Title:HUMBLE.
TitleUnicode:HUMBLE.
Artist:Kendrick Lamar
ArtistUnicode:Kendrick Lamar
Creator:Macanache
Version:Insane
Source:
Tags:rap
BeatmapID:1280809
BeatmapSetID:605777

[Difficulty]
HPDrainRate:6
CircleSize:4
OverallDifficulty:6
ApproachRate:8.7
SliderMultiplier:2.9
SliderTickRate:1

[Events]
//Background and Video events
0,0,"02-kendrick-humble-2017-screenshot-billboard-embed.jpg",0,0
//Break Periods
2,52999,55649
2,72199,74049
2,84999,86849
2,129999,132049
//Storyboard Layer 0 (Background)
//Storyboard Layer 1 (Fail)
//Storyboard Layer 2 (Pass)
//Storyboard Layer 3 (Foreground)
//Storyboard Sound Samples

[TimingPoints]
7999,800,4,3,0,100,1,0
7999,-100,4,3,0,75,0,0
103999,-100,4,3,0,45,0,0
107199,-100,4,3,0,75,0,0
117199,-100,4,3,0,90,0,0
132799,-100,4,3,0,75,0,0

[HitObjects]
128,96,7999,5,0,0:0:0:0:
288,96,8399,1,0,0:0:0:0:
448,96,8799,1,0,0:0:0:0:
448,96,8899,1,0,0:0:0:0:
448,96,8999,1,0,0:0:0:0:
448,96,9099,1,0,0:0:0:0:
448,96,9199,1,0,0:0:0:0:
384,256,9599,5,0,0:0:0:0:
224,224,9999,1,0,0:0:0:0:
384,224,10399,1,0,0:0:0:0:
373,197,10499,1,0,0:0:0:0:
362,170,10599,1,0,0:0:0:0:
351,143,10699,1,0,0:0:0:0:
340,116,10799,1,0,0:0:0:0:
224,64,11199,5,0,0:0:0:0:
224,224,11599,1,0,0:0:0:0:
64,192,11999,2,0,P|192:96|320:96,2,290
32,96,14399,5,0,0:0:0:0:
128,96,14799,1,0,0:0:0:0:
192,192,15199,1,0,0:0:0:0:
256,128,15399,1,0,0:0:0:0:
320,192,15599,5,0,0:0:0:0:
256,256,15799,1,0,0:0:0:0:
192,288,15999,2,0,L|160:224,1,72.5
128,160,16399,1,0,0:0:0:0:
160,96,16599,6,0,L|256:96,1,72.5
352,96,16999,5,0,0:0:0:0:
256,192,17199,1,0,0:0:0:0:
384,224,17399,1,0,0:0:0:0:
288,320,17599,1,0,0:0:0:0:
224,288,17799,2,0,L|160:256,1,72.5
64,128,18399,5,0,0:0:0:0:
128,96,18599,1,0,0:0:0:0:
192,128,18799,1,0,0:0:0:0:
256,96,18999,1,0,0:0:0:0:
320,160,19199,5,0,0:0:0:0:
288,224,19399,1,0,0:0:0:0:
224,192,19599,6,0,L|160:160,1,72.5
96,96,19999,1,0,0:0:0:0:
160,64,20199,1,0,0:0:0:0:
224,128,20399,2,0,L|96:224,1,145
224,320,21199,5,0,0:0:0:0:
96,160,21599,2,0,P|192:160|192:128,1,145
256,160,22199,1,0,0:0:0:0:
320,160,22399,1,0,0:0:0:0:
320,96,22599,2,0,L|160:96,1,145
160,160,23199,5,0,0:0:0:0:
224,224,23399,1,0,0:0:0:0:
288,288,23599,1,0,0:0:0:0:
352,224,23799,1,0,0:0:0:0:
416,224,23999,6,0,L|416:320,1,72.5
352,288,24399,1,0,0:0:0:0:
192,288,24799,2,0,P|96:256|96:224,1,145
96,160,25399,1,0,0:0:0:0:
160,128,25599,5,0,0:0:0:0:
224,160,25799,1,0,0:0:0:0:
256,224,25999,2,0,L|352:192,1,72.5
416,192,26399,5,0,0:0:0:0:
320,128,26799,1,0,0:0:0:0:
320,128,26999,1,0,0:0:0:0:
256,160,27199,2,0,L|160:192,2,72.5
64,128,27999,5,0,0:0:0:0:
160,256,28399,1,0,0:0:0:0:
288,256,28599,1,0,0:0:0:0:
224,192,28799,1,0,0:0:0:0:
352,192,28999,5,0,0:0:0:0:
352,320,29199,2,0,P|288:352|160:288,1,217.5
96,224,29999,1,0,0:0:0:0:
224,128,30199,1,0,0:0:0:0:
288,288,30399,5,0,0:0:0:0:
96,96,30799,2,0,L|256:64,1,145
416,160,31399,1,0,0:0:0:0:
288,192,31599,1,0,0:0:0:0:
416,288,31799,1,0,0:0:0:0:
320,320,31999,6,0,L|224:320,2,72.5
416,320,32599,1,0,0:0:0:0:
416,224,32799,1,0,0:0:0:0:
416,128,32999,1,0,0:0:0:0:
416,32,33199,5,0,0:0:0:0:
320,32,33599,2,0,P|160:32|96:160,1,290
288,96,34599,1,0,0:0:0:0:
192,160,34799,1,0,0:0:0:0:
288,160,34999,1,0,0:0:0:0:
192,224,35199,5,0,0:0:0:0:
288,224,35399,2,0,L|384:224,3,72.5
448,224,36199,1,0,0:0:0:0:
448,320,36399,1,0,0:0:0:0:
352,320,36599,5,0,0:0:0:0:
256,320,36799,1,0,0:0:0:0:
352,320,37199,1,0,0:0:0:0:
224,224,37599,5,0,0:0:0:0:
256,79,37799,1,0,0:0:0:0:
368,192,37999,1,0,0:0:0:0:
255,304,38199,1,0,0:0:0:0:
143,191,38399,1,0,0:0:0:0:
128,192,38599,2,0,L|288:192,2,145
128,288,39599,1,0,0:0:0:0:
224,288,39999,6,0,L|288:256,1,72.5
320,320,40399,2,0,L|256:352,1,72.5
224,288,40799,5,0,0:0:0:0:
160,224,40999,1,0,0:0:0:0:
96,160,41199,1,0,0:0:0:0:
160,192,41399,1,0,0:0:0:0:
160,128,41599,5,0,0:0:0:0:
224,160,41799,1,0,0:0:0:0:
288,224,41999,2,0,L|352:288,2,72.5
288,224,42599,1,0,0:0:0:0:
320,64,42799,5,0,0:0:0:0:
224,32,42999,1,0,0:0:0:0:
128,64,43199,1,0,0:0:0:0:
192,192,43999,5,0,0:0:0:0:
256,256,44199,1,0,0:0:0:0:
352,256,44399,1,0,0:0:0:0:
416,192,44599,1,0,0:0:0:0:
384,128,44799,6,0,P|320:64|256:64,2,145
320,160,45799,1,0,0:0:0:0:
256,192,45999,1,0,0:0:0:0:
192,224,46199,1,0,0:0:0:0:
128,256,46399,1,0,0:0:0:0:
192,96,47199,5,0,0:0:0:0:
320,96,47399,1,0,0:0:0:0:
192,192,47599,2,0,L|288:192,1,72.5
320,192,47999,2,0,P|352:224|320:224,1,72.5
288,256,48399,1,0,0:0:0:0:
224,224,48599,5,0,0:0:0:0:
160,192,48799,1,0,0:0:0:0:
224,128,48999,2,0,L|448:128,1,217.5
288,160,50399,5,0,0:0:0:0:
224,160,50599,1,0,0:0:0:0:
224,224,50799,1,0,0:0:0:0:
288,224,50999,1,0,0:0:0:0:
288,160,51199,1,0,0:0:0:0:
288,96,51399,1,0,0:0:0:0:
224,96,51599,2,0,P|128:96|128:96,1,72.5
160,160,51999,1,0,0:0:0:0:
224,160,52199,2,0,L|224:64,3,72.5
128,96,56399,5,0,0:0:0:0:
288,96,56799,2,0,L|448:96,1,145
480,160,57399,1,0,0:0:0:0:
384,192,57599,1,0,0:0:0:0:
320,192,57799,6,0,L|224:192,1,72.5
192,192,58199,1,0,0:0:0:0:
128,224,58399,1,0,0:0:0:0:
192,288,58599,2,0,L|352:288,1,145
192,320,59399,5,0,0:0:0:0:
256,320,59599,1,0,0:0:0:0:
320,320,59799,2,0,B|352:256|352:160|224:64,1,290
224,64,60799,1,0,0:0:0:0:
160,128,60999,5,0,0:0:0:0:
224,192,61199,1,0,0:0:0:0:
160,256,61399,1,0,0:0:0:0:
224,320,61599,1,0,0:0:0:0:
320,320,61999,2,0,L|416:320,1,72.5
64,32,62599,6,0,L|160:32,2,72.5
0,96,63199,1,0,0:0:0:0:
64,128,63399,1,0,0:0:0:0:
128,160,63599,2,0,L|224:160,2,72.5
192,288,64399,1,0,0:0:0:0:
352,288,64799,6,0,L|384:224,1,72.5
384,128,65199,1,0,0:0:0:0:
320,128,65399,2,0,L|224:128,2,72.5
320,192,65999,5,0,0:0:0:0:
320,192,66099,1,0,0:0:0:0:
448,192,66399,2,0,L|448:288,1,72.5
480,320,66799,2,0,L|512:288,4,36.25
320,320,67599,5,0,0:0:0:0:
224,192,67999,2,0,L|288:192,2,36.25
224,256,68399,1,0,0:0:0:0:
160,256,68599,1,0,0:0:0:0:
96,256,68799,1,0,0:0:0:0:
96,96,69199,6,0,L|32:96,2,36.25
160,96,69599,1,0,0:0:0:0:
288,192,69999,2,0,L|352:256,2,72.5
256,128,70599,1,0,0:0:0:0:
192,128,70799,1,0,0:0:0:0:
128,128,70999,6,0,L|128:32,1,72.5
288,64,71599,1,0,0:0:0:0:
352,64,71799,1,0,0:0:0:0:
416,64,71999,1,0,0:0:0:0:
192,64,74799,5,0,0:0:0:0:
192,64,74999,1,0,0:0:0:0:
192,64,75199,1,0,0:0:0:0:
352,64,75599,1,0,0:0:0:0:
352,64,75699,1,0,0:0:0:0:
224,64,75999,6,0,L|224:160,1,72.5
288,192,76399,1,0,0:0:0:0:
352,224,76599,1,0,0:0:0:0:
288,288,76799,5,0,0:0:0:0:
288,288,76899,1,0,0:0:0:0:
160,288,77199,1,0,0:0:0:0:
160,288,77299,1,0,0:0:0:0:
160,160,77599,1,0,0:0:0:0:
160,160,77699,1,0,0:0:0:0:
288,160,77999,6,0,L|384:160,3,72.5
384,224,78799,1,0,0:0:0:0:
384,224,78899,1,0,0:0:0:0:
288,288,79199,1,0,0:0:0:0:
288,288,79299,1,0,0:0:0:0:
160,288,79599,6,0,L|64:288,1,72.5
96,224,79999,2,0,L|192:224,1,72.5
256,224,80399,5,0,0:0:0:0:
256,224,80499,1,0,0:0:0:0:
128,224,80799,2,0,L|64:224,2,36.25
64,160,81199,5,0,0:0:0:0:
128,160,81399,1,0,0:0:0:0:
192,160,81599,2,0,L|64:256,1,145
224,256,82399,1,0,0:0:0:0:
224,96,82799,1,0,0:0:0:0:
352,128,82999,5,0,0:0:0:0:
352,128,83199,2,0,L|352:32,5,72.5
288,96,84399,1,0,0:0:0:0:
224,160,84599,1,0,0:0:0:0:
160,224,84799,1,0,0:0:0:0:
96,64,87599,6,0,L|192:64,3,72.5
256,64,88399,1,0,0:0:0:0:
256,64,88499,1,0,0:0:0:0:
384,64,88799,1,0,0:0:0:0:
256,160,89199,2,0,L|224:352,1,145
384,320,89999,5,0,0:0:0:0:
384,320,90099,1,0,0:0:0:0:
384,192,90399,1,0,0:0:0:0:
384,192,90499,1,0,0:0:0:0:
384,64,90799,1,0,0:0:0:0:
384,64,90899,1,0,0:0:0:0:
256,96,91199,6,0,L|320:160,1,72.5
384,128,91599,1,0,0:0:0:0:
448,128,91799,1,0,0:0:0:0:
448,192,91999,1,0,0:0:0:0:
384,192,92199,5,0,0:0:0:0:
320,160,92399,2,0,L|224:160,1,72.5
192,96,92799,2,0,L|128:32,1,72.5
96,96,93199,1,0,0:0:0:0:
32,96,93399,6,0,L|32:0,2,72.5
96,96,93999,1,0,0:0:0:0:
160,96,94199,2,0,L|256:96,1,72.5
448,64,94599,5,0,0:0:0:0:
384,128,94799,1,0,0:0:0:0:
320,192,94999,1,0,0:0:0:0:
256,256,95199,2,0,L|96:256,1,145
64,192,95799,1,0,0:0:0:0:
64,192,95999,1,0,0:0:0:0:
128,128,96199,1,0,0:0:0:0:
128,128,96399,1,0,0:0:0:0:
192,192,96599,1,0,0:0:0:0:
256,192,96799,2,0,L|352:192,1,72.5
384,256,97199,2,0,P|352:288|320:256,1,72.5
256,288,97599,5,0,0:0:0:0:
192,256,97799,1,0,0:0:0:0:
128,224,97999,1,0,0:0:0:0:
256,160,98399,2,0,L|160:160,1,72.5
224,96,98799,1,0,0:0:0:0:
384,96,99199,2,0,L|288:96,1,72.5
288,160,99599,5,0,0:0:0:0:
224,160,99799,1,0,0:0:0:0:
160,160,99999,1,0,0:0:0:0:
448,192,100799,2,0,L|416:256,1,72.5
352,288,101199,5,0,0:0:0:0:
320,224,101399,1,0,0:0:0:0:
288,288,101599,1,0,0:0:0:0:
320,224,101799,1,0,0:0:0:0:
352,288,101999,2,0,L|448:288,2,72.5
352,224,102599,5,0,0:0:0:0:
352,160,102799,1,0,0:0:0:0:
288,128,102999,2,0,L|288:224,1,145
480,192,103999,5,0,0:0:0:0:
384,192,104199,1,0,0:0:0:0:
288,192,104399,2,0,L|192:192,1,72.5
128,192,104799,1,0,0:0:0:0:
32,192,104999,1,0,0:0:0:0:
96,96,105199,1,0,0:0:0:0:
96,160,105399,5,0,0:0:0:0:
160,96,105599,1,0,0:0:0:0:
160,160,105799,1,0,0:0:0:0:
224,96,105999,1,0,0:0:0:0:
224,160,106199,1,0,0:0:0:0:
288,96,106399,1,0,0:0:0:0:
288,160,106599,1,0,0:0:0:0:
288,224,106799,2,0,L|384:224,1,72.5
320,160,107199,5,0,0:0:0:0:
256,160,107399,1,0,0:0:0:0:
192,160,107599,1,0,0:0:0:0:
128,128,107799,1,0,0:0:0:0:
160,64,107999,6,0,L|256:64,2,72.5
96,96,108599,1,0,0:0:0:0:
128,160,108799,2,0,P|320:160|352:160,1,217.5
384,224,109599,1,0,0:0:0:0:
448,288,109799,5,0,0:0:0:0:
512,224,109999,1,0,0:0:0:0:
416,96,110399,5,0,0:0:0:0:
352,96,110599,1,0,0:0:0:0:
288,160,110799,1,0,0:0:0:0:
224,224,110999,1,0,0:0:0:0:
160,224,111199,2,0,L|160:320,2,72.5
160,160,111799,5,0,0:0:0:0:
224,160,111999,2,0,L|320:160,1,72.5
384,160,112399,1,0,0:0:0:0:
448,160,112599,1,0,0:0:0:0:
384,160,112799,2,0,L|288:160,1,72.5
384,224,113199,2,0,L|288:224,1,72.5
224,224,113599,5,0,0:0:0:0:
160,224,113799,1,0,0:0:0:0:
96,224,113999,1,0,0:0:0:0:
96,160,114199,2,0,L|192:160,3,72.5
224,128,114999,5,0,0:0:0:0:
320,128,115199,1,0,0:0:0:0:
384,192,115399,1,0,0:0:0:0:
448,256,115599,1,0,0:0:0:0:
384,288,115799,2,0,L|224:288,1,145
160,288,116399,1,0,0:0:0:0:
320,352,116799,5,0,0:0:0:0:
196,283,117199,5,0,0:0:0:0:
147,186,117399,1,0,0:0:0:0:
206,95,117599,1,0,0:0:0:0:
315,100,117799,1,0,0:0:0:0:
364,197,117999,1,0,0:0:0:0:
305,288,118199,1,0,0:0:0:0:
224,288,118399,2,0,L|96:288,1,72.5
320,224,118799,5,0,0:0:0:0:
192,128,118999,1,0,0:0:0:0:
320,128,119199,1,0,0:0:0:0:
192,224,119399,1,0,0:0:0:0:
96,128,119599,1,0,0:0:0:0:
192,224,119799,1,0,0:0:0:0:
256,224,119999,2,0,L|352:224,1,72.5
224,128,120399,5,0,0:0:0:0:
288,128,120599,1,0,0:0:0:0:
192,128,120799,1,0,0:0:0:0:
320,128,120999,1,0,0:0:0:0:
256,192,121199,1,0,0:0:0:0:
256,64,121399,1,0,0:0:0:0:
224,96,121599,2,0,P|160:128|160:128,1,72.5
160,224,121999,5,0,0:0:0:0:
256,128,122199,1,0,0:0:0:0:
352,224,122399,1,0,0:0:0:0:
256,128,122599,1,0,0:0:0:0:
160,224,122799,1,0,0:0:0:0:
256,128,122999,1,0,0:0:0:0:
256,160,123199,2,0,L|256:256,1,72.5
64,64,123599,5,0,0:0:0:0:
160,64,123799,1,0,0:0:0:0:
256,64,123999,1,0,0:0:0:0:
320,128,124199,1,0,0:0:0:0:
256,192,124399,1,0,0:0:0:0:
160,192,124599,1,0,0:0:0:0:
64,192,124799,2,0,L|-32:192,1,72.5
256,256,125199,5,0,0:0:0:0:
256,128,125399,1,0,0:0:0:0:
192,192,125599,1,0,0:0:0:0:
320,192,125799,1,0,0:0:0:0:
256,96,125999,1,0,0:0:0:0:
256,288,126199,1,0,0:0:0:0:
256,256,126399,2,0,L|256:160,1,72.5
256,160,126799,5,0,0:0:0:0:
256,160,126999,1,0,0:0:0:0:
352,160,127199,1,0,0:0:0:0:
352,160,127399,1,0,0:0:0:0:
448,160,127599,1,0,0:0:0:0:
448,160,127799,1,0,0:0:0:0:
416,160,127999,2,0,L|320:160,1,72.5
512,160,128399,5,0,0:0:0:0:
448,160,128599,1,0,0:0:0:0:
384,160,128799,1,0,0:0:0:0:
320,160,128999,1,0,0:0:0:0:
256,160,129199,1,0,0:0:0:0:
192,160,129399,1,0,0:0:0:0:
128,160,129599,2,0,L|32:160,1,72.5
256,192,132799,5,0,0:0:0:0:
96,192,133199,1,0,0:0:0:0:
128,128,133399,1,0,0:0:0:0:
192,96,133599,1,0,0:0:0:0:
256,96,133799,1,0,0:0:0:0:
256,160,133999,2,0,L|160:160,1,72.5
96,128,134399,5,0,0:0:0:0:
0,192,134799,1,0,0:0:0:0:
64,256,134999,1,0,0:0:0:0:
128,320,135199,1,0,0:0:0:0:
288,320,135599,2,0,L|384:320,1,72.5
448,320,135999,1,0,0:0:0:0:
416,160,136399,5,0,0:0:0:0:
352,128,136599,1,0,0:0:0:0:
288,160,136799,1,0,0:0:0:0:
224,128,136999,1,0,0:0:0:0:
160,128,137199,6,0,L|64:128,2,72.5
160,192,137799,1,0,0:0:0:0:
224,192,137999,1,0,0:0:0:0:
288,192,138199,1,0,0:0:0:0:
352,224,138399,5,0,0:0:0:0:
416,256,138599,1,0,0:0:0:0:
352,320,138799,1,0,0:0:0:0:
192,320,139199,2,0,L|96:320,1,72.5
128,192,139599,5,0,0:0:0:0:
192,128,139799,1,0,0:0:0:0:
192,192,139999,1,0,0:0:0:0:
192,256,140199,1,0,0:0:0:0:
192,320,140399,2,0,L|288:320,2,72.5
128,320,140999,1,0,0:0:0:0:
64,320,141199,1,0,0:0:0:0:
96,96,141599,6,0,L|96:192,1,72.5
128,224,141999,1,0,0:0:0:0:
192,192,142199,1,0,0:0:0:0:
256,160,142399,1,0,0:0:0:0:
384,64,142799,5,0,0:0:0:0:
384,64,142899,1,0,0:0:0:0:
384,192,143199,1,0,0:0:0:0:
224,192,143599,2,0,L|128:192,2,72.5
384,192,144399,5,0,0:0:0:0:
224,192,144799,1,0,0:0:0:0:
224,192,144899,1,0,0:0:0:0:
128,128,145199,5,0,0:0:0:0:
192,96,145399,1,0,0:0:0:0:
256,64,145599,1,0,0:0:0:0:
416,64,145999,5,0,0:0:0:0:
416,64,146099,1,0,0:0:0:0:
416,192,146399,1,0,0:0:0:0:
256,192,146799,2,0,L|160:192,2,72.5
288,288,147399,1,0,0:0:0:0:
192,288,147599,1,0,0:0:0:0:
96,288,147999,2,0,L|0:288,2,72.5
160,288,148599,5,0,0:0:0:0:
224,288,148799,1,0,0:0:0:0:
256,192,148999,12,0,151999,0:0:0:0:
