osu file format v14

[General]
AudioFilename: audio.mp3
AudioLeadIn: 0
PreviewTime: 64799
Countdown: 0
SampleSet: None
StackLeniency: 0.7
Mode: 0
LetterboxInBreaks: 0
EpilepsyWarning: 1
WidescreenStoryboard: 0

[Editor]
DistanceSpacing: 1.1
BeatDivisor: 4
GridSize: 32
TimelineZoom: 1

[Metadata]
Title:HUMBLE.
TitleUnicode:HUMBLE.
Artist:Kendrick Lamar
ArtistUnicode:Kendrick Lamar
Creator:Macanache
Version:Hard
Source:
Tags:rap
BeatmapID:1279882
BeatmapSetID:605777

[Difficulty]
HPDrainRate:4
CircleSize:3.4
OverallDifficulty:2
ApproachRate:6
SliderMultiplier:1.4
SliderTickRate:1

[Events]
//Background and Video events
0,0,"02-kendrick-humble-2017-screenshot-billboard-embed.jpg",0,0
//Break Periods
2,56099,61399
2,70999,73599
2,88199,90149
2,103598,106149
2,129799,131649
//Storyboard Layer 0 (Background)
//Storyboard Layer 1 (Fail)
//Storyboard Layer 2 (Pass)
//Storyboard Layer 3 (Foreground)
//Storyboard Sound Samples

[TimingPoints]
7999,800,4,1,0,100,1,0
7999,-100,4,3,0,75,0,0

[HitObjects]
224,192,7999,5,0,0:0:0:0:
320,192,8399,1,0,0:0:0:0:
320,288,8799,2,0,L|160:288,1,140
96,288,9999,1,0,0:0:0:0:
160,128,10399,6,0,L|320:128,1,140
384,128,11599,1,0,0:0:0:0:
352,224,11999,2,0,P|224:320|128:256,1,280
160,192,13999,1,0,0:0:0:0:
224,128,14399,6,0,L|352:192,1,140
384,128,15599,2,0,L|256:64,1,140
192,64,16799,6,0,P|94:63|62:95,1,140
224,160,18399,1,0,0:0:0:0:
160,224,18799,2,0,P|224:256|320:224,1,175
352,224,19999,1,0,0:0:0:0:
416,224,20399,2,0,L|480:96,2,140
320,256,22399,5,0,0:0:0:0:
160,256,23199,2,0,P|96:256|96:192,1,140
160,128,24399,1,0,0:0:0:0:
224,128,24799,1,0,0:0:0:0:
288,128,25199,5,0,0:0:0:0:
352,128,25599,2,0,L|480:192,1,140
352,256,27199,2,0,L|288:224,1,70
224,224,27999,1,0,0:0:0:0:
224,160,28399,5,0,0:0:0:0:
288,160,28799,2,0,L|320:224,1,70
352,288,29599,1,0,0:0:0:0:
288,288,29999,38,0,L|224:256,2,70
352,256,31199,1,0,0:0:0:0:
416,192,31599,2,0,L|448:160,3,35
480,128,32399,1,0,0:0:0:0:
320,128,33199,5,0,0:0:0:0:
224,256,33999,1,0,0:0:0:0:
160,128,34799,1,0,0:0:0:0:
224,64,35199,2,0,L|256:32,2,35
160,96,35999,5,0,0:0:0:0:
224,128,36399,1,0,0:0:0:0:
192,192,36799,5,0,0:0:0:0:
224,256,37199,1,0,0:0:0:0:
288,224,37599,2,0,P|352:256|352:320,2,140
224,160,39599,1,0,0:0:0:0:
160,96,39999,5,0,0:0:0:0:
96,256,40799,1,0,0:0:0:0:
96,192,41199,1,0,0:0:0:0:
128,128,41599,6,0,L|160:96,2,35
192,160,42399,1,0,0:0:0:0:
256,160,42799,1,0,0:0:0:0:
320,160,43199,1,0,0:0:0:0:
384,256,43999,6,0,L|256:320,1,140
224,256,45199,2,0,L|352:192,1,140
352,128,46399,1,0,0:0:0:0:
288,256,47199,2,0,P|224:256|192:192,2,140
320,192,49199,5,0,0:0:0:0:
352,128,49599,1,0,0:0:0:0:
192,96,50399,2,0,L|160:160,1,70
192,224,51199,1,0,0:0:0:0:
224,224,51399,5,0,0:0:0:0:
256,224,51599,1,0,0:0:0:0:
256,288,51999,2,0,L|192:320,1,70
256,192,53199,12,0,55899,0:0:0:0:
96,192,62599,5,0,0:0:0:0:
160,128,62799,1,0,0:0:0:0:
224,192,62999,1,0,0:0:0:0:
288,128,63199,1,0,0:0:0:0:
352,224,63599,2,0,B|288:256|224:288|224:288,1,140
160,288,64799,1,0,0:0:0:0:
128,224,65199,2,0,L|96:160,1,70
64,96,65999,5,0,0:0:0:0:
128,96,66399,1,0,0:0:0:0:
192,128,66799,2,0,L|224:128,2,17.5
64,128,67599,1,0,0:0:0:0:
128,192,67999,1,0,0:0:0:0:
192,128,68399,1,0,0:0:0:0:
128,192,68799,1,0,0:0:0:0:
192,256,69199,2,0,L|224:256,2,17.5
224,256,69599,1,0,0:0:0:0:
160,128,69999,6,0,L|192:128,2,17.5
192,128,70399,1,0,0:0:0:0:
224,128,70599,1,0,0:0:0:0:
256,128,70799,1,0,0:0:0:0:
160,96,74799,6,0,L|192:160,1,70
256,320,75999,1,0,0:0:0:0:
320,256,76399,2,0,L|352:224,1,35
352,192,76799,2,0,L|352:160,1,17.5
352,128,77199,2,0,L|352:96,1,17.5
352,64,77599,2,0,L|352:32,1,17.5
288,32,77999,5,0,0:0:0:0:
256,32,78199,1,0,0:0:0:0:
224,32,78399,1,0,0:0:0:0:
256,96,78799,2,0,L|256:128,1,17.5
256,96,79199,2,0,L|224:96,1,17.5
256,96,79599,2,0,L|288:96,2,17.5
160,128,80399,2,0,L|32:192,1,140
96,256,81599,1,0,0:0:0:0:
160,256,81999,2,0,L|192:256,2,17.5
128,256,82399,5,0,0:0:0:0:
96,256,82799,1,0,0:0:0:0:
96,256,82999,1,0,0:0:0:0:
96,192,83199,2,0,L|64:160,1,35
64,160,83599,1,0,0:0:0:0:
64,128,83999,2,0,L|96:96,1,35
160,96,84399,1,0,0:0:0:0:
224,96,84599,1,0,0:0:0:0:
288,96,84799,1,0,0:0:0:0:
288,160,85199,6,0,L|320:192,2,35
192,160,85999,1,0,0:0:0:0:
96,224,86399,1,0,0:0:0:0:
96,96,87599,5,0,0:0:0:0:
224,192,87799,1,0,0:0:0:0:
352,96,87999,1,0,0:0:0:0:
160,96,91199,5,0,0:0:0:0:
192,96,91399,1,0,0:0:0:0:
160,128,91599,1,0,0:0:0:0:
192,128,91799,1,0,0:0:0:0:
224,160,91999,2,0,L|288:128,1,70
320,160,92599,1,0,0:0:0:0:
352,192,92799,1,0,0:0:0:0:
288,352,93599,2,0,L|320:320,1,35
192,256,94399,5,0,0:0:0:0:
224,256,94599,1,0,0:0:0:0:
192,224,94799,1,0,0:0:0:0:
256,160,95199,2,0,P|320:160|320:224,1,140
416,224,96399,1,0,0:0:0:0:
320,224,96599,1,0,0:0:0:0:
224,256,96799,2,0,L|192:288,1,35
96,192,97599,1,0,0:0:0:0:
160,128,97799,2,0,L|192:96,2,35
96,128,98399,5,0,0:0:0:0:
96,224,98799,1,0,0:0:0:0:
160,224,99199,2,0,L|192:192,1,35
224,128,99599,2,0,L|256:160,2,35
96,32,100799,1,0,0:0:0:0:
128,128,101199,1,0,0:0:0:0:
160,160,101399,1,0,0:0:0:0:
192,192,101599,1,0,0:0:0:0:
256,160,101999,2,0,L|288:192,2,35
224,96,102599,5,0,0:0:0:0:
288,96,102799,2,0,P|352:96|384:128,1,105
64,128,107199,5,0,0:0:0:0:
96,160,107399,1,0,0:0:0:0:
128,128,107599,1,0,0:0:0:0:
160,96,107799,1,0,0:0:0:0:
192,64,107999,1,0,0:0:0:0:
160,192,108399,5,0,0:0:0:0:
224,192,108799,2,0,L|320:128,1,105
352,96,109599,1,0,0:0:0:0:
416,64,109999,1,0,0:0:0:0:
448,128,110399,5,0,0:0:0:0:
416,128,110599,1,0,0:0:0:0:
384,128,110799,1,0,0:0:0:0:
352,128,110999,1,0,0:0:0:0:
352,256,111599,2,0,L|480:192,1,140
448,160,112599,1,0,0:0:0:0:
416,128,112799,2,0,L|384:96,2,35
352,160,113599,5,0,0:0:0:0:
320,128,113799,1,0,0:0:0:0:
352,160,113999,1,0,0:0:0:0:
320,128,114199,1,0,0:0:0:0:
288,128,114399,6,0,P|224:160|160:128,1,140
96,128,115599,2,0,L|32:160,1,70
256,128,116799,1,0,0:0:0:0:
352,128,117199,6,0,L|384:160,1,35
416,224,117599,1,0,0:0:0:0:
320,224,117799,1,0,0:0:0:0:
224,224,117999,2,0,L|192:256,1,35
128,288,118399,1,0,0:0:0:0:
128,224,118799,6,0,L|160:160,1,70
192,160,119399,1,0,0:0:0:0:
224,128,119599,1,0,0:0:0:0:
256,160,119799,1,0,0:0:0:0:
288,128,119999,1,0,0:0:0:0:
320,64,120399,5,0,0:0:0:0:
416,64,120599,1,0,0:0:0:0:
320,64,120799,1,0,0:0:0:0:
320,160,120999,2,0,L|352:192,2,35
288,128,121599,1,0,0:0:0:0:
224,160,121999,6,0,L|256:224,2,70
160,128,123199,1,0,0:0:0:0:
64,224,123599,5,0,0:0:0:0:
128,224,123999,1,0,0:0:0:0:
192,224,124399,1,0,0:0:0:0:
256,224,124799,1,0,0:0:0:0:
224,160,125199,5,0,0:0:0:0:
160,224,125599,2,0,P|192:288|256:288,1,140
320,224,126799,2,0,L|352:192,1,35
352,160,127199,2,0,L|320:128,1,35
288,128,127599,2,0,L|256:160,1,35
256,192,127999,2,0,L|288:224,1,35
320,256,128399,5,0,0:0:0:0:
352,256,128599,2,0,L|384:224,1,35
416,160,129199,1,0,0:0:0:0:
416,96,129599,1,0,0:0:0:0:
256,192,132699,5,0,0:0:0:0:
160,192,133199,1,0,0:0:0:0:
224,192,133599,2,0,P|288:192|320:256,1,140
384,288,134799,1,0,0:0:0:0:
416,320,134999,5,0,0:0:0:0:
448,352,135199,1,0,0:0:0:0:
480,288,135599,1,0,0:0:0:0:
416,224,135999,1,0,0:0:0:0:
352,160,136399,5,0,0:0:0:0:
320,128,136599,2,0,L|288:96,1,35
256,96,136999,1,0,0:0:0:0:
224,96,137199,1,0,0:0:0:0:
256,160,137599,6,0,L|320:128,1,70
384,96,138399,2,0,L|320:0,1,105
288,32,139199,1,0,0:0:0:0:
224,32,139599,2,0,P|160:96|160:192,1,175
160,224,140799,1,0,0:0:0:0:
224,224,141199,1,0,0:0:0:0:
288,192,141599,5,0,0:0:0:0:
320,96,141999,2,0,L|288:64,2,35
320,192,142799,1,0,0:0:0:0:
224,192,143199,1,0,0:0:0:0:
128,192,143599,2,0,L|96:160,2,35
128,224,145199,6,0,L|160:192,2,35
192,256,145999,1,0,0:0:0:0:
256,288,146399,1,0,0:0:0:0:
320,320,146799,2,0,L|288:352,2,35
320,256,147599,5,0,0:0:0:0:
384,192,147999,1,0,0:0:0:0:
384,192,148199,1,0,0:0:0:0:
352,160,148399,2,0,L|320:128,2,35
256,192,148999,12,0,151899,0:0:0:0:
