osu file format v14

[General]
AudioFilename: audio.mp3
AudioLeadIn: 0
PreviewTime: 64799
Countdown: 0
SampleSet: None
StackLeniency: 0.7
Mode: 0
LetterboxInBreaks: 0
EpilepsyWarning: 1
WidescreenStoryboard: 1

[Editor]
DistanceSpacing: 1.1
BeatDivisor: 4
GridSize: 32
TimelineZoom: 1

[Metadata]
Title:HUMBLE.
TitleUnicode:HUMBLE.
Artist:Kendrick Lamar
ArtistUnicode:Kendrick Lamar
Creator:Macanache
Version:Easy
Source:
Tags:rap
BeatmapID:1280847
BeatmapSetID:605777

[Difficulty]
HPDrainRate:1
CircleSize:2
OverallDifficulty:1
ApproachRate:3
SliderMultiplier:1.2
SliderTickRate:1

[Events]
//Background and Video events
0,0,"02-kendrick-humble-2017-screenshot-billboard-embed.jpg",0,0
//Break Periods
2,72199,80159
2,129799,131359
//Storyboard Layer 0 (Background)
//Storyboard Layer 1 (Fail)
//Storyboard Layer 2 (Pass)
//Storyboard Layer 3 (Foreground)
//Storyboard Sound Samples

[TimingPoints]
7999,800,4,1,0,100,1,0
7999,-100,4,3,0,100,0,0

[HitObjects]
192,96,7999,6,0,L|256:96,2,60
320,128,9599,2,0,L|320:192,2,60
256,224,11199,2,0,L|192:224,2,60
128,192,12799,2,0,L|128:128,2,60
64,64,14399,5,0,0:0:0:0:
128,160,15199,2,0,P|160:192|352:256,1,240
320,96,17599,5,0,0:0:0:0:
352,224,18399,1,0,0:0:0:0:
256,128,19199,2,0,L|128:96,2,120
384,192,21599,5,0,0:0:0:0:
384,320,22399,2,0,L|256:288,1,120
128,320,23999,2,0,L|64:288,2,60
224,256,25599,1,0,0:0:0:0:
128,160,26399,5,0,0:0:0:0:
256,160,27199,1,0,0:0:0:0:
352,224,27999,2,0,L|480:224,2,120
224,192,30399,5,0,0:0:0:0:
96,160,31199,1,0,0:0:0:0:
160,256,31999,1,0,0:0:0:0:
288,288,32799,1,0,0:0:0:0:
256,160,33599,6,0,P|288:128|352:160,2,120
288,256,35999,1,0,0:0:0:0:
384,256,36799,1,0,0:0:0:0:
416,160,37599,2,0,P|320:160|64:64,1,360
64,192,40799,5,0,0:0:0:0:
128,192,41199,1,0,0:0:0:0:
192,192,41599,1,0,0:0:0:0:
288,96,42399,2,0,P|384:64|512:128,1,240
448,224,44799,5,0,0:0:0:0:
320,288,45599,1,0,0:0:0:0:
192,320,46399,1,0,0:0:0:0:
288,224,47199,2,0,P|320:160|288:128,1,120
160,128,48799,1,0,0:0:0:0:
96,256,49599,6,0,L|224:288,1,120
352,256,51199,1,0,0:0:0:0:
480,256,51999,1,0,0:0:0:0:
480,128,52799,1,0,0:0:0:0:
352,128,53599,2,0,P|256:128|96:320,1,360
224,352,56799,5,0,0:0:0:0:
96,288,57599,2,0,L|192:64,1,240
320,64,59999,1,0,0:0:0:0:
448,64,60799,1,0,0:0:0:0:
448,192,61599,1,8,0:0:0:0:
320,192,62399,6,0,L|192:224,2,120
448,192,64799,1,0,0:0:0:0:
416,64,65599,2,0,L|288:96,1,120
160,128,67199,2,0,L|32:160,2,120
288,128,69599,5,0,0:0:0:0:
416,128,70399,1,0,0:0:0:0:
416,256,71199,1,0,0:0:0:0:
288,256,71999,1,0,0:0:0:0:
192,128,81599,5,0,0:0:0:0:
288,224,82399,1,0,0:0:0:0:
384,128,83199,1,0,0:0:0:0:
288,32,83999,1,0,0:0:0:0:
160,32,84799,6,0,P|64:160|96:352,1,360
192,288,87999,1,0,0:0:0:0:
320,224,88799,1,0,0:0:0:0:
448,160,89599,1,0,0:0:0:0:
320,128,90399,5,0,0:0:0:0:
192,128,91199,1,0,0:0:0:0:
64,128,91999,6,0,L|32:256,1,120
160,256,93599,1,0,0:0:0:0:
288,256,94399,1,0,0:0:0:0:
384,160,95199,1,0,0:0:0:0:
288,64,95999,6,0,L|64:160,1,240
96,288,98399,1,0,0:0:0:0:
160,160,99199,2,0,L|192:288,1,120
256,384,100799,5,0,0:0:0:0:
288,256,101599,1,0,0:0:0:0:
416,256,102399,1,0,0:0:0:0:
384,128,103199,1,0,0:0:0:0:
256,128,103999,6,0,L|128:160,4,120
384,96,107999,1,0,0:0:0:0:
384,224,108799,1,0,0:0:0:0:
256,288,109599,1,0,0:0:0:0:
128,288,110399,5,0,0:0:0:0:
0,256,111199,2,0,L|96:32,1,240
224,64,113599,5,0,0:0:0:0:
384,64,114399,1,0,0:0:0:0:
448,192,115199,1,0,0:0:0:0:
320,224,115999,2,0,P|320:320|192:352,1,240
128,256,118399,5,0,0:0:0:0:
96,128,119199,2,0,L|224:96,1,120
352,96,120799,1,0,0:0:0:0:
448,192,121599,1,0,0:0:0:0:
320,128,122399,2,0,L|192:160,1,120
224,288,123999,5,0,0:0:0:0:
320,192,124799,2,0,L|448:160,1,120
352,64,126399,1,0,0:0:0:0:
224,64,127199,1,0,0:0:0:0:
128,160,127999,6,0,L|96:288,1,120
224,320,129599,1,0,0:0:0:0:
128,96,132799,5,0,0:0:0:0:
256,96,133599,1,0,0:0:0:0:
384,96,134399,1,0,0:0:0:0:
480,192,135199,2,0,L|448:320,1,120
352,224,136799,1,0,0:0:0:0:
224,224,137599,5,0,0:0:0:0:
96,224,138399,2,0,P|0:192|64:96,1,240
192,96,140799,1,0,0:0:0:0:
320,96,141599,1,0,0:0:0:0:
448,96,142399,2,0,L|416:224,2,120
320,64,144799,5,0,0:0:0:0:
192,64,145599,1,0,0:0:0:0:
64,128,146399,1,0,0:0:0:0:
64,256,147199,2,0,L|192:288,1,120
256,192,148799,12,0,151999,0:0:0:0:
