osu file format v14

[General]
AudioFilename: audio.mp3
AudioLeadIn: 0
PreviewTime: 84050
Countdown: 0
SampleSet: Normal
StackLeniency: 0.7
Mode: 1
LetterboxInBreaks: 0
WidescreenStoryboard: 1

[Editor]
Bookmarks: 19694,37148,41512,63330,72058,89512,106967,124421,141876,159330,176785
DistanceSpacing: 1.7
BeatDivisor: 4
GridSize: 32
TimelineZoom: 1.3

[Metadata]
Title:Alright
TitleUnicode:Alright
Artist:Kendrick Lamar
ArtistUnicode:Kendrick Lamar
Creator:Kqrth
Version:Muzukashii
Source:
Tags:english hiphop hip-hop west coast rap to pimp a butterfly
BeatmapID:2280559
BeatmapSetID:1090912

[Difficulty]
HPDrainRate:8
CircleSize:5
OverallDifficulty:4.5
ApproachRate:5
SliderMultiplier:1.4
SliderTickRate:1

[Events]
//Background and Video events
0,0,"bg.jpg",0,-50
//Break Periods
2,71712,86130
2,141939,156767
//Storyboard Layer 0 (Background)
//Storyboard Layer 1 (Fail)
//Storyboard Layer 2 (Pass)
//Storyboard Layer 3 (Foreground)
//Storyboard Layer 4 (Overlay)
//Storyboard Sound Samples

[TimingPoints]
58,545.454545454546,4,1,0,5,1,0
58,-200,4,1,0,5,0,0
18194,-133.333333333333,4,1,0,50,0,0
19558,-133.333333333333,4,1,0,75,0,0
37012,-133.333333333333,4,1,0,40,0,0
41376,-133.333333333333,4,1,0,75,0,0
62376,-133.333333333333,4,1,0,5,0,0
63194,-133.333333333333,4,1,0,75,0,0
71967,-133.333333333333,4,1,0,5,0,0
72194,-200,4,1,0,5,0,0
87194,-133.333333333333,4,1,0,50,0,0
89376,-133.333333333333,4,1,0,75,0,0
106830,-142.857142857143,4,1,0,50,0,0
113376,-166.666666666667,4,1,0,50,0,0
113648,-166.666666666667,4,1,0,5,0,0
115558,-142.857142857143,4,1,0,50,0,0
122103,-142.857142857143,4,1,0,60,0,0
124285,-133.333333333334,4,1,0,75,0,0
127762,-133.333333333334,4,1,0,5,0,0
128717,-133.333333333334,4,1,0,75,0,0
137444,-133.333333333333,4,1,0,5,0,0
139558,-153.846153846154,4,1,0,50,0,0
141808,-153.846153846154,4,1,0,5,0,0
142012,-200,4,1,0,5,0,0
157830,-133.333333333333,4,1,0,50,0,0
159194,-133.333333333333,4,1,0,80,0,0
159330,-133.333333333333,4,1,0,80,0,1
176648,-133.333333333333,4,1,0,75,0,1
176785,-133.333333333333,4,1,0,75,0,0
191921,-153.846153846154,4,1,0,30,0,0

[HitObjects]
153,243,18330,5,8,0:0:0:0:
153,243,18603,1,8,0:0:0:0:
153,150,18876,1,0,0:0:0:0:
153,150,19148,1,0,0:0:0:0:
153,150,19285,1,0,0:0:0:0:
153,243,19694,1,0,0:0:0:0:
233,228,19967,1,8,0:0:0:0:
233,228,20103,1,8,0:0:0:0:
233,228,20512,1,0,0:0:0:0:
233,228,20785,1,8,0:0:0:0:
233,228,21058,1,0,0:0:0:0:
233,228,21330,1,0,0:0:0:0:
233,228,21876,1,8,0:0:0:0:
233,228,22421,1,0,0:0:0:0:
233,228,22694,1,8,0:0:0:0:
233,228,22967,1,8,0:0:0:0:
233,228,23239,1,0,0:0:0:0:
233,228,23512,1,0,0:0:0:0:
233,228,24058,1,0,0:0:0:0:
233,228,24330,1,8,0:0:0:0:
233,228,24467,1,8,0:0:0:0:
177,187,24876,1,0,0:0:0:0:
177,187,25148,1,8,0:0:0:0:
149,212,25421,1,0,0:0:0:0:
149,212,25694,1,0,0:0:0:0:
149,212,26239,1,8,0:0:0:0:
178,112,26512,1,0,0:0:0:0:
178,112,26648,1,0,0:0:0:0:
178,112,26785,1,0,0:0:0:0:
142,223,27058,1,8,0:0:0:0:
142,223,27330,1,8,0:0:0:0:
178,112,27603,1,0,0:0:0:0:
178,112,27876,1,0,0:0:0:0:
142,223,28148,1,8,0:0:0:0:
147,111,28421,1,0,0:0:0:0:
109,248,29239,1,8,0:0:0:0:
109,248,29376,1,8,0:0:0:0:
109,248,29512,1,8,0:0:0:0:
109,248,29785,1,0,0:0:0:0:
109,248,30058,1,0,0:0:0:0:
109,248,30603,1,0,0:0:0:0:
109,248,30876,1,8,0:0:0:0:
109,248,31012,1,8,0:0:0:0:
109,248,31421,1,8,0:0:0:0:
109,248,31967,1,0,0:0:0:0:
109,248,32239,1,0,0:0:0:0:
109,248,32785,1,0,0:0:0:0:
109,248,33058,1,8,0:0:0:0:
109,248,33194,1,8,0:0:0:0:
109,248,33603,1,0,0:0:0:0:
109,248,33876,1,8,0:0:0:0:
109,248,34148,1,0,0:0:0:0:
109,248,34421,1,0,0:0:0:0:
109,248,34967,1,8,0:0:0:0:
243,192,35239,1,0,0:0:0:0:
243,192,35376,1,0,0:0:0:0:
243,192,35512,1,0,0:0:0:0:
243,192,35785,1,8,0:0:0:0:
243,192,36058,1,8,0:0:0:0:
109,248,36330,1,0,0:0:0:0:
109,248,36603,1,0,0:0:0:0:
109,248,37421,1,8,0:0:0:0:
109,248,37830,1,0,0:0:0:0:
109,248,37967,1,0,0:0:0:0:
109,248,38239,1,8,0:0:0:0:
109,248,38512,1,8,0:0:0:0:
109,248,39058,1,0,0:0:0:0:
109,248,39330,1,8,0:0:0:0:
109,248,39739,1,8,0:0:0:0:
109,248,40012,1,0,0:0:0:0:
109,248,40148,1,0,0:0:0:0:
109,248,40421,1,8,0:0:0:0:
109,248,40694,1,8,0:0:0:0:
204,235,41512,1,0,0:0:0:0:
204,235,41785,1,8,0:0:0:0:
204,235,41921,1,8,0:0:0:0:
204,235,42330,1,8,0:0:0:0:
204,235,42603,1,8,0:0:0:0:
204,235,42876,1,0,0:0:0:0:
204,235,43148,1,0,0:0:0:0:
140,97,43694,1,0,0:0:0:0:
204,235,43967,1,8,0:0:0:0:
204,235,44103,1,8,0:0:0:0:
204,235,44512,1,8,0:0:0:0:
204,235,44785,1,8,0:0:0:0:
204,235,45058,1,0,0:0:0:0:
204,235,45194,1,0,0:0:0:0:
204,235,45330,1,0,0:0:0:0:
204,235,45876,1,0,0:0:0:0:
204,235,46421,1,0,0:0:0:0:
204,235,46694,1,8,0:0:0:0:
204,235,46830,1,8,0:0:0:0:
204,235,46967,1,8,0:0:0:0:
204,235,47239,1,0,0:0:0:0:
204,235,47512,1,0,0:0:0:0:
155,162,48058,1,0,0:0:0:0:
204,235,48330,1,8,0:0:0:0:
204,235,48467,1,8,0:0:0:0:
94,257,48876,1,8,0:0:0:0:
94,257,49148,1,8,0:0:0:0:
371,99,49421,1,0,0:0:0:0:
49,76,49694,1,0,0:0:0:0:
142,83,50239,1,0,0:0:0:0:
194,190,50512,1,8,0:0:0:0:
194,190,50648,1,8,0:0:0:0:
142,83,50921,1,0,0:0:0:0:
433,214,51058,1,0,0:0:0:0:
336,83,51330,1,8,0:0:0:0:
96,204,51603,1,0,0:0:0:0:
96,204,51876,1,0,0:0:0:0:
142,83,52421,1,0,0:0:0:0:
119,211,52694,1,8,0:0:0:0:
119,211,52830,1,8,0:0:0:0:
150,227,53239,1,8,0:0:0:0:
150,227,53376,1,8,0:0:0:0:
150,227,53512,1,8,0:0:0:0:
150,227,53785,1,0,0:0:0:0:
150,227,54058,1,0,0:0:0:0:
150,227,54467,1,0,0:0:0:0:
150,227,54603,1,0,0:0:0:0:
150,227,55421,1,0,0:0:0:0:
150,227,55694,1,8,0:0:0:0:
34,119,55967,1,0,0:0:0:0:
17,224,56239,1,0,0:0:0:0:
17,224,56785,1,8,0:0:0:0:
183,225,57330,1,0,0:0:0:0:
448,75,57603,1,8,0:0:0:0:
80,216,57876,1,8,0:0:0:0:
250,277,58148,1,0,0:0:0:0:
28,81,58421,1,0,0:0:0:0:
226,240,58967,1,0,0:0:0:0:
194,160,59239,1,8,0:0:0:0:
194,160,59376,1,8,0:0:0:0:
194,160,59785,1,8,0:0:0:0:
194,160,60058,1,8,0:0:0:0:
194,160,60330,1,0,0:0:0:0:
194,160,60603,1,0,0:0:0:0:
113,221,61148,1,8,0:0:0:0:
279,161,61421,1,0,0:0:0:0:
279,161,61558,1,0,0:0:0:0:
279,161,61694,1,0,0:0:0:0:
279,161,61967,1,0,0:0:0:0:
279,161,62239,5,8,0:0:0:0:
118,211,63330,5,0,0:0:0:0:
206,257,63876,1,0,0:0:0:0:
235,185,64148,1,8,0:0:0:0:
235,185,64285,1,8,0:0:0:0:
235,185,64421,1,8,0:0:0:0:
139,216,64694,1,0,0:0:0:0:
139,216,64967,1,0,0:0:0:0:
206,257,65512,1,0,0:0:0:0:
139,216,65785,1,8,0:0:0:0:
139,216,65921,1,8,0:0:0:0:
206,257,66330,1,8,0:0:0:0:
206,257,66603,1,8,0:0:0:0:
206,257,66876,1,0,0:0:0:0:
206,257,67148,1,0,0:0:0:0:
206,257,67694,1,0,0:0:0:0:
206,257,67967,1,8,0:0:0:0:
206,257,68103,1,8,0:0:0:0:
206,257,68376,1,0,0:0:0:0:
236,184,68512,1,0,0:0:0:0:
206,257,68785,1,8,0:0:0:0:
206,257,69058,1,0,0:0:0:0:
206,257,69330,1,0,0:0:0:0:
206,257,69876,1,8,0:0:0:0:
199,252,70148,1,0,0:0:0:0:
206,257,70285,1,0,0:0:0:0:
206,257,70421,1,0,0:0:0:0:
185,251,70694,5,8,0:0:0:0:
206,257,70830,1,8,0:0:0:0:
185,251,70967,1,8,0:0:0:0:
185,251,71239,1,0,0:0:0:0:
132,161,71512,1,0,0:0:0:0:
139,182,87330,5,0,0:0:0:0:
139,182,87467,5,0,0:0:0:0:
139,182,87603,1,0,0:0:0:0:
386,176,87876,1,0,0:0:0:0:
153,243,88148,5,8,0:0:0:0:
153,243,88421,1,8,0:0:0:0:
153,150,88694,1,0,0:0:0:0:
153,150,88966,1,0,0:0:0:0:
153,150,89103,1,0,0:0:0:0:
153,243,89512,1,0,0:0:0:0:
233,228,89785,1,8,0:0:0:0:
233,228,89921,1,8,0:0:0:0:
233,228,90330,1,0,0:0:0:0:
233,228,90603,1,8,0:0:0:0:
233,228,90876,1,0,0:0:0:0:
233,228,91148,1,0,0:0:0:0:
233,228,91694,1,8,0:0:0:0:
233,228,92239,1,0,0:0:0:0:
233,228,92512,1,8,0:0:0:0:
233,228,92785,1,8,0:0:0:0:
233,228,93057,1,0,0:0:0:0:
233,228,93330,1,0,0:0:0:0:
233,228,93876,1,0,0:0:0:0:
233,228,94148,1,8,0:0:0:0:
233,228,94285,1,8,0:0:0:0:
177,187,94694,1,0,0:0:0:0:
177,187,94966,1,8,0:0:0:0:
149,212,95239,1,0,0:0:0:0:
149,212,95512,1,0,0:0:0:0:
149,212,96057,1,8,0:0:0:0:
178,112,96330,1,0,0:0:0:0:
178,112,96466,1,0,0:0:0:0:
178,112,96603,1,0,0:0:0:0:
142,223,96876,1,8,0:0:0:0:
142,223,97148,1,8,0:0:0:0:
178,112,97421,1,0,0:0:0:0:
178,112,97694,1,0,0:0:0:0:
142,223,97966,1,8,0:0:0:0:
147,111,98239,1,0,0:0:0:0:
109,248,99057,1,8,0:0:0:0:
109,248,99194,1,8,0:0:0:0:
109,248,99330,1,8,0:0:0:0:
109,248,99603,1,0,0:0:0:0:
109,248,99876,1,0,0:0:0:0:
109,248,100421,1,0,0:0:0:0:
109,248,100694,1,8,0:0:0:0:
109,248,100830,1,8,0:0:0:0:
109,248,101239,1,8,0:0:0:0:
109,248,101785,1,0,0:0:0:0:
109,248,102057,1,0,0:0:0:0:
109,248,102603,1,0,0:0:0:0:
109,248,102876,1,8,0:0:0:0:
109,248,103012,1,8,0:0:0:0:
109,248,103421,1,0,0:0:0:0:
109,248,103694,1,8,0:0:0:0:
109,248,103966,1,0,0:0:0:0:
109,248,104239,1,0,0:0:0:0:
109,248,104785,1,8,0:0:0:0:
243,192,105057,1,0,0:0:0:0:
243,192,105194,1,0,0:0:0:0:
243,192,105330,1,0,0:0:0:0:
243,192,105603,1,8,0:0:0:0:
243,192,105876,5,8,0:0:0:0:
109,248,106148,1,0,0:0:0:0:
109,248,106421,1,0,0:0:0:0:
109,248,106967,1,0,0:0:0:0:
222,231,107239,1,0,0:0:0:0:
222,231,107376,1,0,0:0:0:0:
222,231,107512,1,0,0:0:0:0:
232,239,107785,1,8,0:0:0:0:
232,239,107921,1,8,0:0:0:0:
232,239,108058,1,8,0:0:0:0:
232,239,108330,1,0,0:0:0:0:
232,239,108603,1,0,0:0:0:0:
232,239,109148,1,8,0:0:0:0:
232,239,109694,1,0,0:0:0:0:
232,239,109967,1,8,0:0:0:0:
232,239,110103,1,8,0:0:0:0:
232,239,110239,1,8,0:0:0:0:
232,239,110512,1,0,0:0:0:0:
232,239,110785,1,0,0:0:0:0:
232,239,111330,1,0,0:0:0:0:
232,239,111603,1,8,0:0:0:0:
232,239,111739,1,8,0:0:0:0:
232,239,111876,1,8,0:0:0:0:
232,239,112148,1,0,0:0:0:0:
232,239,112421,1,8,0:0:0:0:
232,239,112694,1,0,0:0:0:0:
232,239,112967,1,0,0:0:0:0:
160,243,115694,5,0,0:0:0:0:
160,243,115967,1,0,0:0:0:0:
160,243,116103,1,0,0:0:0:0:
160,243,116239,1,0,0:0:0:0:
160,243,116512,1,8,0:0:0:0:
160,243,116785,1,8,0:0:0:0:
160,243,117058,1,0,0:0:0:0:
160,243,117330,1,0,0:0:0:0:
160,243,117876,1,8,0:0:0:0:
160,243,118421,1,0,0:0:0:0:
160,243,118694,1,8,0:0:0:0:
160,243,118830,1,8,0:0:0:0:
160,243,118967,1,8,0:0:0:0:
160,243,119239,1,0,0:0:0:0:
160,243,119512,1,0,0:0:0:0:
160,243,120058,1,0,0:0:0:0:
160,243,120330,1,0,0:0:0:0:
160,243,120467,1,0,0:0:0:0:
160,243,120603,1,0,0:0:0:0:
160,243,120876,1,8,0:0:0:0:
160,243,121148,1,8,0:0:0:0:
160,243,121421,1,0,0:0:0:0:
160,243,121694,1,0,0:0:0:0:
160,243,122239,1,0,0:0:0:0:
160,243,122376,1,0,0:0:0:0:
160,243,122512,1,0,0:0:0:0:
160,243,122785,1,0,0:0:0:0:
160,243,123058,1,8,0:0:0:0:
160,243,123330,1,8,0:0:0:0:
160,243,123603,1,0,0:0:0:0:
160,243,123876,1,0,0:0:0:0:
224,231,124421,1,8,0:0:0:0:
224,231,124694,1,0,0:0:0:0:
224,231,124830,1,0,0:0:0:0:
224,231,125239,1,8,0:0:0:0:
224,231,125512,1,8,0:0:0:0:
224,231,125785,1,0,0:0:0:0:
224,231,126058,1,0,0:0:0:0:
224,231,126603,1,0,0:0:0:0:
224,231,126876,1,8,0:0:0:0:
224,231,127012,1,8,0:0:0:0:
224,231,127285,1,0,0:0:0:0:
224,231,127421,1,0,0:0:0:0:
224,231,127694,1,8,0:0:0:0:
224,231,128785,5,8,0:0:0:0:
224,231,129058,1,0,0:0:0:0:
224,231,129194,1,0,0:0:0:0:
224,231,129603,1,8,0:0:0:0:
224,231,129876,1,8,0:0:0:0:
224,231,130148,1,0,0:0:0:0:
224,231,130421,1,0,0:0:0:0:
224,231,130967,1,0,0:0:0:0:
224,231,131239,1,8,0:0:0:0:
224,231,131376,1,8,0:0:0:0:
224,231,131785,1,0,0:0:0:0:
224,231,132058,1,8,0:0:0:0:
224,231,132330,1,0,0:0:0:0:
224,231,132467,1,0,0:0:0:0:
224,231,132603,1,0,0:0:0:0:
224,231,132876,1,8,0:0:0:0:
224,231,133148,1,0,0:0:0:0:
224,231,133694,1,0,0:0:0:0:
224,231,133967,1,8,0:0:0:0:
224,231,134103,1,8,0:0:0:0:
224,231,134239,1,8,0:0:0:0:
224,231,134512,1,0,0:0:0:0:
224,231,134785,1,0,0:0:0:0:
224,231,135330,1,0,0:0:0:0:
224,231,135603,1,8,0:0:0:0:
224,231,135739,1,8,0:0:0:0:
224,231,136148,1,0,0:0:0:0:
224,231,136421,1,8,0:0:0:0:
224,231,136694,1,0,0:0:0:0:
224,231,136967,1,0,0:0:0:0:
224,231,139694,1,0,0:0:0:0:
224,231,139830,1,0,0:0:0:0:
224,231,139967,1,0,0:0:0:0:
224,231,140239,1,0,0:0:0:0:
224,231,140512,1,8,0:0:0:0:
224,231,140785,1,8,0:0:0:0:
224,231,141058,1,0,0:0:0:0:
224,231,141194,1,0,0:0:0:0:
224,231,141330,1,0,0:0:0:0:
224,231,141603,1,0,0:0:0:0:
224,231,141739,1,0,0:0:0:0:
153,243,157967,5,8,0:0:0:0:
153,243,158240,1,8,0:0:0:0:
153,150,158513,1,0,0:0:0:0:
153,150,158785,1,0,0:0:0:0:
153,150,158922,1,0,0:0:0:0:
153,243,159331,1,0,0:0:0:0:
233,228,159604,1,8,0:0:0:0:
233,228,159740,1,8,0:0:0:0:
233,228,160149,1,8,0:0:0:0:
233,228,160422,1,0,0:0:0:0:
233,228,160695,1,0,0:0:0:0:
233,228,160967,1,8,0:0:0:0:
233,228,161513,1,0,0:0:0:0:
233,228,162058,1,0,0:0:0:0:
233,228,162331,1,8,0:0:0:0:
233,228,162604,1,0,0:0:0:0:
233,228,162876,1,0,0:0:0:0:
233,228,163149,1,8,0:0:0:0:
233,228,163695,1,0,0:0:0:0:
233,228,163967,1,8,0:0:0:0:
233,228,164104,1,8,0:0:0:0:
177,187,164513,1,8,0:0:0:0:
177,187,164785,1,0,0:0:0:0:
149,212,165058,1,0,0:0:0:0:
149,212,165331,1,8,0:0:0:0:
149,212,165876,1,0,0:0:0:0:
178,112,166149,1,0,0:0:0:0:
178,112,166285,1,0,0:0:0:0:
178,112,166422,1,0,0:0:0:0:
142,223,166695,1,8,0:0:0:0:
142,223,166967,1,8,0:0:0:0:
178,112,167240,1,0,0:0:0:0:
178,112,167513,1,0,0:0:0:0:
142,223,167785,1,8,0:0:0:0:
147,111,168058,1,0,0:0:0:0:
109,248,168876,1,8,0:0:0:0:
109,248,169013,1,8,0:0:0:0:
109,248,169149,1,8,0:0:0:0:
109,248,169422,1,0,0:0:0:0:
109,248,169695,1,0,0:0:0:0:
109,248,170240,1,0,0:0:0:0:
109,248,170513,1,8,0:0:0:0:
109,248,170649,1,8,0:0:0:0:
109,248,171058,1,8,0:0:0:0:
109,248,171604,1,0,0:0:0:0:
109,248,171876,1,0,0:0:0:0:
109,248,172012,1,0,0:0:0:0:
109,248,172422,1,0,0:0:0:0:
109,248,172695,1,8,0:0:0:0:
109,248,172831,1,8,0:0:0:0:
109,248,173240,1,8,0:0:0:0:
109,248,173513,1,0,0:0:0:0:
109,248,173785,1,0,0:0:0:0:
109,248,174058,1,8,0:0:0:0:
109,248,174604,1,0,0:0:0:0:
243,192,174876,1,0,0:0:0:0:
243,192,175013,1,0,0:0:0:0:
243,192,175149,1,0,0:0:0:0:
243,192,175422,1,8,0:0:0:0:
243,192,175695,5,8,0:0:0:0:
109,248,175967,1,0,0:0:0:0:
109,248,176240,1,0,0:0:0:0:
109,248,176785,5,0,0:0:0:0:
213,213,177058,1,8,0:0:0:0:
213,213,177194,1,8,0:0:0:0:
213,213,177603,1,8,0:0:0:0:
213,213,177876,1,8,0:0:0:0:
109,248,178148,5,0,0:0:0:0:
213,213,178421,1,0,0:0:0:0:
213,213,178967,1,0,0:0:0:0:
213,213,179512,1,0,0:0:0:0:
213,213,179785,1,8,0:0:0:0:
213,213,180058,1,8,0:0:0:0:
213,213,180330,1,0,0:0:0:0:
213,213,180603,1,0,0:0:0:0:
213,213,181148,1,0,0:0:0:0:
213,213,181421,1,8,0:0:0:0:
213,213,181558,1,8,0:0:0:0:
213,213,181967,1,8,0:0:0:0:
213,213,182239,1,8,0:0:0:0:
213,213,182512,1,0,0:0:0:0:
213,213,182785,1,0,0:0:0:0:
213,213,183330,1,0,0:0:0:0:
213,213,183603,1,8,0:0:0:0:
213,213,184148,1,8,0:0:0:0:
213,213,184421,1,8,0:0:0:0:
213,213,184694,1,8,0:0:0:0:
213,213,184830,1,8,0:0:0:0:
213,213,185239,1,8,0:0:0:0:
213,213,185512,1,0,0:0:0:0:
163,147,186058,1,0,0:0:0:0:
213,213,186330,1,8,0:0:0:0:
213,213,186467,1,8,0:0:0:0:
213,213,186603,1,8,0:0:0:0:
213,213,186876,1,0,0:0:0:0:
213,213,187148,1,0,0:0:0:0:
163,147,187694,1,0,0:0:0:0:
213,213,187967,1,8,0:0:0:0:
213,213,188103,1,8,0:0:0:0:
213,213,188512,1,8,0:0:0:0:
213,213,188785,1,8,0:0:0:0:
213,213,189330,1,0,0:0:0:0:
213,213,189876,1,0,0:0:0:0:
213,213,190148,1,8,0:0:0:0:
213,213,190285,1,8,0:0:0:0:
213,213,190694,1,8,0:0:0:0:
213,213,190967,1,8,0:0:0:0:
213,213,191239,1,0,0:0:0:0:
213,213,191512,1,0,0:0:0:0:
