osu file format v14

[General]
AudioFilename: audio.mp3
AudioLeadIn: 0
PreviewTime: 84050
Countdown: 0
SampleSet: Normal
StackLeniency: 0.7
Mode: 1
LetterboxInBreaks: 0
WidescreenStoryboard: 0

[Editor]
Bookmarks: 19694,37148,41512,63330,72058,89512,106967,124421,141876,159330,176785
DistanceSpacing: 1.7
BeatDivisor: 12
GridSize: 32
TimelineZoom: 1.5

[Metadata]
Title:Alright
TitleUnicode:Alright
Artist:Kendrick Lamar
ArtistUnicode:Kendrick Lamar
Creator:Kqrth
Version:Inner Oni
Source:
Tags:english hiphop hip-hop west coast rap to pimp a butterfly
BeatmapID:2280558
BeatmapSetID:1090912

[Difficulty]
HPDrainRate:6
CircleSize:5
OverallDifficulty:5.5
ApproachRate:5
SliderMultiplier:1.4
SliderTickRate:1

[Events]
//Background and Video events
0,0,"bg.jpg",0,-50
//Break Periods
2,72076,86130
2,141939,156766
//Storyboard Layer 0 (Background)
//Storyboard Layer 1 (Fail)
//Storyboard Layer 2 (Pass)
//Storyboard Layer 3 (Foreground)
//Storyboard Layer 4 (Overlay)
//Storyboard Sound Samples

[TimingPoints]
58,545.454545454546,4,1,0,5,1,0
58,-200,4,1,0,5,0,0
18194,-133.333333333333,4,1,0,50,0,0
19626,-133.333333333333,4,1,0,75,0,0
37012,-142.857142857143,4,1,0,40,0,0
41376,-125,4,1,0,75,0,0
62376,-125,4,1,0,5,0,0
63194,-142.857142857143,4,1,0,75,0,0
71967,-142.857142857143,4,1,0,5,0,0
72194,-200,4,1,0,5,0,0
87194,-133.333333333333,4,1,0,50,0,0
89444,-133.333333333333,4,1,0,75,0,0
106830,-153.846153846154,4,1,0,50,0,0
113376,-181.818181818182,4,1,0,50,0,0
113648,-181.818181818182,4,1,0,5,0,0
115558,-153.846153846154,4,1,0,50,0,0
122103,-148.148148148148,4,1,0,60,0,0
124353,-133.333333333334,4,1,0,75,0,0
127762,-133.333333333334,4,1,0,5,0,0
128717,-133.333333333334,4,1,0,75,0,0
133285,-142.857142857143,4,1,0,75,0,0
137444,-142.857142857143,4,1,0,5,0,0
139558,-166.666666666667,4,1,0,50,0,0
141808,-166.666666666667,4,1,0,5,0,0
142012,-200,4,1,0,5,0,0
157830,-133.333333333333,4,1,0,50,0,0
159262,-133.333333333333,4,1,0,80,0,0
159330,-133.333333333333,4,1,0,80,0,1
176694,-133.333333333333,4,1,0,75,0,1
176785,-133.333333333333,4,1,0,75,0,0
191921,-153.846153846154,4,1,0,30,0,0

[HitObjects]
153,243,18330,5,8,0:0:0:0:
153,243,18603,1,8,0:0:0:0:
153,243,18876,5,8,0:0:0:0:
153,243,19012,1,0,0:0:0:0:
153,243,19148,1,8,0:0:0:0:
153,243,19285,1,8,0:0:0:0:
153,243,19421,1,0,0:0:0:0:
153,243,19558,1,0,0:0:0:0:
153,243,19694,1,0,0:0:0:0:
233,228,19967,1,8,0:0:0:0:
233,228,20103,1,8,0:0:0:0:
233,228,20512,1,0,0:0:0:0:
233,228,20648,1,0,0:0:0:0:
233,228,20785,1,8,0:0:0:0:
233,228,21058,1,0,0:0:0:0:
233,228,21330,1,8,0:0:0:0:
233,228,21467,1,0,0:0:0:0:
233,228,21876,1,8,0:0:0:0:
233,228,22148,1,8,0:0:0:0:
233,228,22285,1,8,0:0:0:0:
233,228,22421,1,0,0:0:0:0:
233,228,22694,1,8,0:0:0:0:
233,228,22830,1,0,0:0:0:0:
233,228,22967,1,8,0:0:0:0:
233,228,23239,1,0,0:0:0:0:
233,228,23512,1,8,0:0:0:0:
233,228,23648,1,0,0:0:0:0:
233,228,24058,1,8,0:0:0:0:
233,228,24330,1,8,0:0:0:0:
233,228,24467,1,8,0:0:0:0:
177,187,24876,1,0,0:0:0:0:
177,187,25148,1,8,0:0:0:0:
149,212,25421,1,0,0:0:0:0:
149,212,25694,1,8,0:0:0:0:
149,212,25830,1,0,0:0:0:0:
149,212,26239,1,8,0:0:0:0:
149,212,26512,1,0,0:0:0:0:
142,223,26648,1,8,0:0:0:0:
142,223,26785,1,0,0:0:0:0:
142,223,26921,1,0,0:0:0:0:
142,223,27058,1,8,0:0:0:0:
142,223,27194,1,0,0:0:0:0:
142,223,27330,1,8,0:0:0:0:
142,223,27467,1,8,0:0:0:0:
142,223,27603,1,0,0:0:0:0:
142,223,27739,1,8,0:0:0:0:
142,223,27876,1,0,0:0:0:0:
142,223,28012,1,0,0:0:0:0:
142,223,28148,1,8,0:0:0:0:
147,111,28421,1,0,0:0:0:0:
217,186,28694,1,8,0:0:0:0:
109,248,29239,1,0,0:0:0:0:
109,248,29376,1,0,0:0:0:0:
109,248,29512,1,8,0:0:0:0:
109,248,29785,1,0,0:0:0:0:
109,248,30058,1,8,0:0:0:0:
109,248,30194,1,0,0:0:0:0:
109,248,30603,1,8,0:0:0:0:
109,248,30876,1,8,0:0:0:0:
109,248,31012,1,8,0:0:0:0:
109,248,31148,1,0,0:0:0:0:
109,248,31421,1,8,0:0:0:0:
109,248,31694,1,8,0:0:0:0:
109,248,31967,1,0,0:0:0:0:
109,248,32239,1,8,0:0:0:0:
109,248,32376,1,0,0:0:0:0:
109,248,32785,1,8,0:0:0:0:
109,248,33058,1,8,0:0:0:0:
109,248,33194,1,8,0:0:0:0:
109,248,33603,1,0,0:0:0:0:
109,248,33739,1,0,0:0:0:0:
109,248,33876,1,8,0:0:0:0:
109,248,34148,1,0,0:0:0:0:
109,248,34421,1,8,0:0:0:0:
109,248,34558,1,0,0:0:0:0:
109,248,34967,1,8,0:0:0:0:
109,248,35239,1,0,0:0:0:0:
109,248,35376,1,8,0:0:0:0:
109,248,35512,1,0,0:0:0:0:
109,248,35648,1,0,0:0:0:0:
109,248,35785,1,8,0:0:0:0:
109,248,35921,1,0,0:0:0:0:
109,248,36058,1,8,0:0:0:0:
109,248,36194,1,8,0:0:0:0:
109,248,36330,1,0,0:0:0:0:
109,248,36467,1,0,0:0:0:0:
109,248,36603,1,8,0:0:0:0:
109,248,36739,1,0,0:0:0:0:
109,248,37421,1,8,0:0:0:0:
109,248,37830,1,8,0:0:0:0:
109,248,37967,1,0,0:0:0:0:
109,248,38103,1,0,0:0:0:0:
109,248,38239,1,8,0:0:0:0:
109,248,38512,1,8,0:0:0:0:
109,248,38921,1,0,0:0:0:0:
109,248,39058,1,8,0:0:0:0:
109,248,39194,1,0,0:0:0:0:
109,248,39330,1,8,0:0:0:0:
109,248,39467,1,8,0:0:0:0:
109,248,39603,1,0,0:0:0:0:
109,248,39739,1,8,0:0:0:0:
109,248,39876,1,0,0:0:0:0:
109,248,40012,1,0,0:0:0:0:
109,248,40148,1,8,0:0:0:0:
109,248,40285,1,0,0:0:0:0:
109,248,40421,1,8,0:0:0:0:
109,248,40694,1,8,0:0:0:0:
109,248,41103,1,0,0:0:0:0:
109,248,41239,1,8,0:0:0:0:
227,251,41512,1,0,0:0:0:0:
227,251,41648,1,0,0:0:0:0:
227,251,41785,1,8,0:0:0:0:
227,251,41921,1,8,0:0:0:0:
227,251,42058,1,0,0:0:0:0:
227,251,42194,1,8,0:0:0:0:
227,251,42330,1,0,0:0:0:0:
227,251,42467,1,0,0:0:0:0:
227,251,42603,1,8,0:0:0:0:
227,251,42876,1,0,0:0:0:0:
227,251,43148,1,0,0:0:0:0:
227,251,43285,1,0,0:0:0:0:
227,251,43421,1,8,0:0:0:0:
227,251,43558,1,0,0:0:0:0:
227,251,43694,1,8,0:0:0:0:
227,251,43830,1,8,0:0:0:0:
227,251,43967,1,0,0:0:0:0:
227,251,44103,1,8,0:0:0:0:
227,251,44239,1,0,0:0:0:0:
227,251,44512,1,0,0:0:0:0:
227,251,44648,1,0,0:0:0:0:
227,251,44785,1,8,0:0:0:0:
227,251,45058,1,8,0:0:0:0:
227,251,45194,1,8,0:0:0:0:
227,251,45330,1,0,0:0:0:0:
227,251,45603,1,8,0:0:0:0:
227,251,45739,1,8,0:0:0:0:
140,248,46012,1,0,0:0:0:0:
140,248,46148,1,0,0:0:0:0:
140,248,46285,1,0,0:0:0:0:
140,248,46421,1,8,0:0:0:0:
140,248,46558,1,8,0:0:0:0:
140,248,46694,1,0,0:0:0:0:
140,248,46830,1,0,0:0:0:0:
140,248,46967,1,8,0:0:0:0:
140,248,47239,1,8,0:0:0:0:
140,248,47512,1,0,0:0:0:0:
140,248,47648,1,0,0:0:0:0:
140,248,47785,1,8,0:0:0:0:
140,248,48058,1,8,0:0:0:0:
140,248,48194,1,8,0:0:0:0:
140,248,48330,1,0,0:0:0:0:
140,248,48467,1,0,0:0:0:0:
140,248,48603,1,8,0:0:0:0:
140,248,48739,1,0,0:0:0:0:
140,248,48876,1,8,0:0:0:0:
140,248,49012,1,8,0:0:0:0:
140,248,49148,1,0,0:0:0:0:
140,248,49421,1,8,0:0:0:0:
140,248,49694,1,0,0:0:0:0:
140,248,49830,1,0,0:0:0:0:
140,248,49967,1,0,0:0:0:0:
140,248,50103,1,8,0:0:0:0:
140,248,50239,1,0,0:0:0:0:
140,248,50376,1,0,0:0:0:0:
140,248,50512,1,8,0:0:0:0:
140,248,50648,1,8,0:0:0:0:
140,248,50785,1,0,0:0:0:0:
140,248,50921,1,0,0:0:0:0:
140,248,51058,1,8,0:0:0:0:
140,248,51194,1,0,0:0:0:0:
140,248,51330,1,8,0:0:0:0:
140,248,51603,1,8,0:0:0:0:
140,248,51876,1,0,0:0:0:0:
140,248,52012,1,8,0:0:0:0:
140,248,52148,1,8,0:0:0:0:
140,248,52285,1,0,0:0:0:0:
140,248,52421,1,8,0:0:0:0:
140,248,52558,1,8,0:0:0:0:
140,248,52694,1,0,0:0:0:0:
140,248,52830,1,8,0:0:0:0:
140,248,52967,1,0,0:0:0:0:
140,248,53103,1,0,0:0:0:0:
140,248,53239,1,8,0:0:0:0:
140,248,53376,1,8,0:0:0:0:
140,248,53512,1,0,0:0:0:0:
140,248,53785,1,8,0:0:0:0:
140,248,54058,1,0,0:0:0:0:
140,248,54467,1,0,0:0:0:0:
140,248,54603,1,0,0:0:0:0:
181,209,54876,1,8,0:0:0:0:
181,209,55148,1,0,0:0:0:0:
181,209,55285,1,8,0:0:0:0:
181,209,55421,1,0,0:0:0:0:
181,209,55694,1,8,0:0:0:0:
140,248,55967,1,0,0:0:0:0:
187,116,56103,1,8,0:0:0:0:
140,248,56239,1,0,0:0:0:0:
187,116,56376,1,0,0:0:0:0:
140,248,56512,1,8,0:0:0:0:
140,248,56648,1,0,0:0:0:0:
140,248,56785,1,8,0:0:0:0:
181,209,56921,1,8,0:0:0:0:
181,209,57058,1,0,0:0:0:0:
181,209,57194,1,8,0:0:0:0:
181,209,57330,1,0,0:0:0:0:
140,248,57467,1,0,0:0:0:0:
140,248,57603,1,8,0:0:0:0:
140,248,57739,1,8,0:0:0:0:
140,248,57876,1,0,0:0:0:0:
140,248,58148,1,8,0:0:0:0:
140,248,58285,1,8,0:0:0:0:
213,233,58421,1,0,0:0:0:0:
213,233,58558,1,8,0:0:0:0:
213,233,58694,1,0,0:0:0:0:
213,233,58830,1,8,0:0:0:0:
213,233,58967,1,0,0:0:0:0:
213,233,59103,1,0,0:0:0:0:
213,233,59239,1,8,0:0:0:0:
213,233,59376,1,8,0:0:0:0:
213,233,59512,1,0,0:0:0:0:
213,233,59648,1,0,0:0:0:0:
213,233,59785,1,8,0:0:0:0:
213,233,59921,1,0,0:0:0:0:
213,233,60058,1,8,0:0:0:0:
213,233,60194,1,8,0:0:0:0:
213,233,60330,1,0,0:0:0:0:
213,233,60467,1,8,0:0:0:0:
213,233,60603,1,0,0:0:0:0:
213,233,60739,1,0,0:0:0:0:
213,233,60876,1,8,0:0:0:0:
213,233,61012,1,8,0:0:0:0:
213,233,61148,1,8,0:0:0:0:
213,233,61285,1,0,0:0:0:0:
213,233,61421,1,8,0:0:0:0:
213,233,61558,1,8,0:0:0:0:
213,233,61694,1,0,0:0:0:0:
213,233,61967,1,0,0:0:0:0:
213,233,62239,1,8,0:0:0:0:
118,211,63330,1,0,0:0:0:0:
118,211,63603,1,8,0:0:0:0:
118,211,63739,1,0,0:0:0:0:
206,257,63876,1,8,0:0:0:0:
206,257,64012,1,8,0:0:0:0:
235,185,64148,1,0,0:0:0:0:
235,185,64285,1,0,0:0:0:0:
235,185,64421,1,8,0:0:0:0:
139,216,64694,1,0,0:0:0:0:
139,216,64967,1,0,0:0:0:0:
206,257,65512,1,0,0:0:0:0:
139,216,65785,1,8,0:0:0:0:
139,216,65921,1,8,0:0:0:0:
139,216,66058,1,0,0:0:0:0:
139,216,66194,1,0,0:0:0:0:
206,257,66330,1,8,0:0:0:0:
206,257,66603,1,8,0:0:0:0:
206,257,66876,1,0,0:0:0:0:
206,257,67148,1,0,0:0:0:0:
206,257,67694,1,0,0:0:0:0:
206,257,67967,1,8,0:0:0:0:
206,257,68103,1,8,0:0:0:0:
206,257,68239,1,0,0:0:0:0:
236,184,68512,1,8,0:0:0:0:
206,257,68785,1,8,0:0:0:0:
206,257,69058,1,0,0:0:0:0:
206,257,69330,1,0,0:0:0:0:
206,257,69876,1,8,0:0:0:0:
199,252,70148,1,0,0:0:0:0:
206,257,70285,1,8,0:0:0:0:
206,257,70421,1,0,0:0:0:0:
185,251,70694,5,0,0:0:0:0:
185,251,70830,1,0,0:0:0:0:
185,251,70967,1,8,0:0:0:0:
185,251,71239,1,0,0:0:0:0:
185,251,71512,1,0,0:0:0:0:
240,181,71694,1,0,0:0:0:0:
240,181,71876,1,0,0:0:0:0:
115,208,87330,5,8,0:0:0:0:
115,208,87467,1,8,0:0:0:0:
209,223,87603,1,0,0:0:0:0:
115,208,87876,1,0,0:0:0:0:
123,287,88148,1,8,0:0:0:0:
123,287,88421,1,8,0:0:0:0:
123,287,88694,1,8,0:0:0:0:
123,287,88830,1,0,0:0:0:0:
123,287,88967,1,8,0:0:0:0:
123,287,89103,1,8,0:0:0:0:
123,287,89239,1,0,0:0:0:0:
123,287,89376,1,0,0:0:0:0:
153,243,89512,1,0,0:0:0:0:
233,228,89785,1,8,0:0:0:0:
233,228,89921,1,8,0:0:0:0:
233,228,90330,1,0,0:0:0:0:
233,228,90466,1,0,0:0:0:0:
233,228,90603,1,8,0:0:0:0:
233,228,90876,1,0,0:0:0:0:
233,228,91148,1,8,0:0:0:0:
233,228,91285,1,0,0:0:0:0:
233,228,91694,1,8,0:0:0:0:
233,228,91966,1,8,0:0:0:0:
233,228,92103,1,8,0:0:0:0:
233,228,92239,1,0,0:0:0:0:
233,228,92512,1,8,0:0:0:0:
233,228,92648,1,0,0:0:0:0:
233,228,92785,1,8,0:0:0:0:
233,228,93057,1,0,0:0:0:0:
233,228,93330,1,8,0:0:0:0:
233,228,93466,1,0,0:0:0:0:
233,228,93876,1,8,0:0:0:0:
233,228,94148,1,8,0:0:0:0:
233,228,94285,1,8,0:0:0:0:
177,187,94694,1,0,0:0:0:0:
177,187,94966,1,8,0:0:0:0:
149,212,95239,1,0,0:0:0:0:
149,212,95512,1,8,0:0:0:0:
149,212,95648,1,0,0:0:0:0:
149,212,96057,1,8,0:0:0:0:
149,212,96330,1,0,0:0:0:0:
142,223,96466,1,8,0:0:0:0:
142,223,96603,1,0,0:0:0:0:
142,223,96739,1,0,0:0:0:0:
142,223,96876,1,8,0:0:0:0:
142,223,97012,1,0,0:0:0:0:
142,223,97148,1,8,0:0:0:0:
142,223,97285,1,8,0:0:0:0:
142,223,97421,1,0,0:0:0:0:
142,223,97557,1,8,0:0:0:0:
142,223,97694,1,0,0:0:0:0:
142,223,97830,1,0,0:0:0:0:
142,223,97966,1,8,0:0:0:0:
147,111,98239,1,0,0:0:0:0:
217,186,98512,1,8,0:0:0:0:
109,248,99057,1,0,0:0:0:0:
109,248,99194,1,0,0:0:0:0:
109,248,99330,1,8,0:0:0:0:
109,248,99603,1,0,0:0:0:0:
109,248,99876,1,8,0:0:0:0:
109,248,100012,1,0,0:0:0:0:
109,248,100421,1,8,0:0:0:0:
109,248,100694,1,8,0:0:0:0:
109,248,100830,1,8,0:0:0:0:
109,248,100966,1,0,0:0:0:0:
109,248,101239,1,8,0:0:0:0:
109,248,101512,1,8,0:0:0:0:
109,248,101785,1,0,0:0:0:0:
109,248,102057,1,8,0:0:0:0:
109,248,102194,1,0,0:0:0:0:
109,248,102603,1,8,0:0:0:0:
109,248,102876,1,8,0:0:0:0:
109,248,103012,1,8,0:0:0:0:
109,248,103421,1,0,0:0:0:0:
109,248,103557,1,0,0:0:0:0:
109,248,103694,1,8,0:0:0:0:
109,248,103966,1,0,0:0:0:0:
109,248,104239,1,8,0:0:0:0:
109,248,104376,1,0,0:0:0:0:
109,248,104785,1,8,0:0:0:0:
109,248,105057,1,0,0:0:0:0:
109,248,105194,1,8,0:0:0:0:
109,248,105330,1,0,0:0:0:0:
109,248,105466,1,0,0:0:0:0:
109,248,105603,1,8,0:0:0:0:
109,248,105739,1,0,0:0:0:0:
109,248,105876,1,8,0:0:0:0:
109,248,106012,1,8,0:0:0:0:
109,248,106148,1,0,0:0:0:0:
109,248,106285,1,0,0:0:0:0:
109,248,106421,1,8,0:0:0:0:
109,248,106557,1,0,0:0:0:0:
109,248,106967,1,0,0:0:0:0:
222,231,107239,1,8,0:0:0:0:
222,231,107376,1,0,0:0:0:0:
222,231,107512,1,8,0:0:0:0:
232,239,107785,1,0,0:0:0:0:
232,239,107921,1,8,0:0:0:0:
232,239,108058,1,0,0:0:0:0:
232,239,108330,1,0,0:0:0:0:
232,239,108467,1,0,0:0:0:0:
232,239,108603,1,8,0:0:0:0:
232,239,108876,1,0,0:0:0:0:
232,239,109012,1,0,0:0:0:0:
232,239,109148,1,8,0:0:0:0:
232,239,109285,1,0,0:0:0:0:
232,239,109421,1,8,0:0:0:0:
232,239,109558,1,8,0:0:0:0:
232,239,109694,1,0,0:0:0:0:
232,239,109967,1,8,0:0:0:0:
232,239,110103,1,8,0:0:0:0:
232,239,110239,1,0,0:0:0:0:
232,239,110376,1,8,0:0:0:0:
232,239,110512,1,0,0:0:0:0:
232,239,110648,1,0,0:0:0:0:
232,239,110785,1,8,0:0:0:0:
232,239,111058,1,8,0:0:0:0:
232,239,111194,1,8,0:0:0:0:
232,239,111330,1,0,0:0:0:0:
232,239,111603,1,0,0:0:0:0:
232,239,111739,1,8,0:0:0:0:
232,239,111876,1,8,0:0:0:0:
232,239,112012,1,8,0:0:0:0:
232,239,112148,1,0,0:0:0:0:
232,239,112421,1,8,0:0:0:0:
232,239,112694,1,0,0:0:0:0:
232,239,112830,1,8,0:0:0:0:
232,239,112967,1,0,0:0:0:0:
160,243,115694,5,0,0:0:0:0:
160,243,115830,1,0,0:0:0:0:
160,243,115967,1,8,0:0:0:0:
160,243,116103,1,0,0:0:0:0:
160,243,116239,1,8,0:0:0:0:
160,243,116376,1,8,0:0:0:0:
160,243,116512,1,0,0:0:0:0:
160,243,116648,1,8,0:0:0:0:
160,243,116785,1,0,0:0:0:0:
160,243,116921,1,0,0:0:0:0:
160,243,117058,1,0,0:0:0:0:
160,243,117194,1,8,0:0:0:0:
160,243,117330,1,0,0:0:0:0:
160,243,117467,1,8,0:0:0:0:
160,243,117603,1,8,0:0:0:0:
160,243,117739,1,0,0:0:0:0:
160,243,117876,1,8,0:0:0:0:
160,243,118012,1,0,0:0:0:0:
160,243,118148,1,0,0:0:0:0:
160,243,118285,1,8,0:0:0:0:
160,243,118421,1,0,0:0:0:0:
160,243,118558,1,8,0:0:0:0:
160,243,118694,1,8,0:0:0:0:
160,243,118830,1,0,0:0:0:0:
160,243,118967,1,8,0:0:0:0:
160,243,119103,1,0,0:0:0:0:
160,243,119239,1,0,0:0:0:0:
160,243,119376,1,8,0:0:0:0:
160,243,119512,1,0,0:0:0:0:
160,243,119648,1,0,0:0:0:0:
160,243,119785,1,0,0:0:0:0:
160,243,119921,1,8,0:0:0:0:
160,243,120058,1,0,0:0:0:0:
160,243,120194,1,8,0:0:0:0:
160,243,120330,1,8,0:0:0:0:
160,243,120467,1,8,0:0:0:0:
160,243,120603,1,0,0:0:0:0:
160,243,120739,1,0,0:0:0:0:
160,243,120876,1,8,0:0:0:0:
160,243,121012,1,0,0:0:0:0:
160,243,121148,1,8,0:0:0:0:
160,243,121285,1,8,0:0:0:0:
160,243,121421,1,0,0:0:0:0:
160,243,121558,1,8,0:0:0:0:
160,243,121694,1,0,0:0:0:0:
160,243,121830,1,0,0:0:0:0:
160,243,121967,1,0,0:0:0:0:
160,243,122239,1,8,0:0:0:0:
160,243,122376,1,8,0:0:0:0:
160,243,122512,1,0,0:0:0:0:
160,243,122785,1,0,0:0:0:0:
160,243,122921,1,0,0:0:0:0:
160,243,123058,1,8,0:0:0:0:
160,243,123330,1,8,0:0:0:0:
160,243,123603,1,8,0:0:0:0:
160,243,123739,1,0,0:0:0:0:
160,243,123876,1,8,0:0:0:0:
160,243,124012,1,8,0:0:0:0:
160,243,124148,1,0,0:0:0:0:
160,243,124285,1,0,0:0:0:0:
224,231,124421,1,8,0:0:0:0:
160,243,124558,1,0,0:0:0:0:
224,231,124694,1,8,0:0:0:0:
224,231,124830,1,8,0:0:0:0:
224,231,124967,1,0,0:0:0:0:
224,231,125103,1,0,0:0:0:0:
224,231,125239,1,8,0:0:0:0:
224,231,125376,1,0,0:0:0:0:
224,231,125512,1,8,0:0:0:0:
224,231,125648,1,8,0:0:0:0:
224,231,125785,1,0,0:0:0:0:
224,231,125921,1,8,0:0:0:0:
224,231,126058,1,0,0:0:0:0:
224,231,126194,1,0,0:0:0:0:
224,231,126330,1,0,0:0:0:0:
224,231,126467,1,8,0:0:0:0:
224,231,126603,1,0,0:0:0:0:
224,231,126739,1,0,0:0:0:0:
224,231,126876,1,8,0:0:0:0:
224,231,127012,1,8,0:0:0:0:
224,231,127148,1,0,0:0:0:0:
224,231,127285,1,0,0:0:0:0:
224,231,127421,1,8,0:0:0:0:
224,231,127558,1,0,0:0:0:0:
224,231,127694,1,8,0:0:0:0:
224,231,128785,5,0,0:0:0:0:
224,231,128921,1,0,0:0:0:0:
224,231,129058,1,8,0:0:0:0:
224,231,129194,1,8,0:0:0:0:
224,231,129330,1,0,0:0:0:0:
224,231,129467,1,0,0:0:0:0:
224,231,129603,1,8,0:0:0:0:
224,231,129739,1,0,0:0:0:0:
224,231,129876,1,8,0:0:0:0:
224,231,130012,1,8,0:0:0:0:
224,231,130148,1,0,0:0:0:0:
224,231,130285,1,8,0:0:0:0:
224,231,130421,1,0,0:0:0:0:
224,231,130558,1,0,0:0:0:0:
224,231,130694,1,0,0:0:0:0:
224,231,130830,1,8,0:0:0:0:
224,231,130967,1,0,0:0:0:0:
224,231,131103,1,0,0:0:0:0:
224,231,131239,1,8,0:0:0:0:
224,231,131376,1,8,0:0:0:0:
224,231,131512,1,0,0:0:0:0:
224,231,131648,1,0,0:0:0:0:
224,231,131785,1,8,0:0:0:0:
224,231,131921,1,0,0:0:0:0:
224,231,132058,1,8,0:0:0:0:
224,231,132194,1,0,0:0:0:0:
224,231,132330,1,8,0:0:0:0:
224,231,132467,1,8,0:0:0:0:
224,231,132603,1,0,0:0:0:0:
224,231,132739,1,0,0:0:0:0:
224,231,132876,1,8,0:0:0:0:
224,231,133012,1,0,0:0:0:0:
224,231,133421,1,0,0:0:0:0:
224,231,133558,1,8,0:0:0:0:
224,231,133830,1,8,0:0:0:0:
224,231,133967,1,8,0:0:0:0:
224,231,134103,1,0,0:0:0:0:
224,231,134239,1,8,0:0:0:0:
224,231,134512,1,0,0:0:0:0:
224,231,134648,1,8,0:0:0:0:
224,231,134785,1,0,0:0:0:0:
224,231,135058,1,8,0:0:0:0:
224,231,135194,1,0,0:0:0:0:
224,231,135603,1,8,0:0:0:0:
224,231,135739,1,8,0:0:0:0:
224,231,136012,1,0,0:0:0:0:
224,231,136148,1,8,0:0:0:0:
224,231,136421,1,8,0:0:0:0:
224,231,136558,1,0,0:0:0:0:
224,231,136830,1,8,0:0:0:0:
224,231,136967,1,8,0:0:0:0:
224,231,137239,1,8,0:0:0:0:
224,231,137376,1,0,0:0:0:0:
224,231,139694,1,8,0:0:0:0:
224,231,139830,1,8,0:0:0:0:
224,231,139967,1,0,0:0:0:0:
224,231,140239,1,0,0:0:0:0:
224,231,140512,1,8,0:0:0:0:
224,231,140785,1,8,0:0:0:0:
224,231,141058,1,8,0:0:0:0:
224,231,141194,1,0,0:0:0:0:
224,231,141330,1,0,0:0:0:0:
224,231,141467,1,8,0:0:0:0:
224,231,141603,1,0,0:0:0:0:
224,231,141739,1,0,0:0:0:0:
123,287,157966,5,8,0:0:0:0:
123,287,158239,1,8,0:0:0:0:
123,287,158512,1,8,0:0:0:0:
123,287,158648,1,0,0:0:0:0:
123,287,158785,1,8,0:0:0:0:
123,287,158921,1,8,0:0:0:0:
123,287,159057,1,0,0:0:0:0:
123,287,159194,1,0,0:0:0:0:
153,243,159330,1,0,0:0:0:0:
233,228,159603,1,8,0:0:0:0:
233,228,159739,1,8,0:0:0:0:
233,228,160012,1,0,0:0:0:0:
233,228,160148,1,8,0:0:0:0:
233,228,160284,1,8,0:0:0:0:
233,228,160421,1,0,0:0:0:0:
233,228,160694,1,0,0:0:0:0:
233,228,160966,1,8,0:0:0:0:
233,228,161103,1,0,0:0:0:0:
233,228,161512,1,8,0:0:0:0:
233,228,161784,1,8,0:0:0:0:
233,228,161921,1,8,0:0:0:0:
233,228,162057,1,0,0:0:0:0:
233,228,162330,1,8,0:0:0:0:
233,228,162466,1,0,0:0:0:0:
233,228,162603,1,0,0:0:0:0:
233,228,162875,1,0,0:0:0:0:
233,228,163148,1,8,0:0:0:0:
233,228,163284,1,0,0:0:0:0:
233,228,163694,1,8,0:0:0:0:
233,228,163966,1,8,0:0:0:0:
233,228,164103,1,8,0:0:0:0:
177,187,164376,1,0,0:0:0:0:
177,187,164512,1,8,0:0:0:0:
177,187,164648,1,8,0:0:0:0:
177,187,164784,1,0,0:0:0:0:
149,212,165057,1,0,0:0:0:0:
149,212,165330,1,8,0:0:0:0:
149,212,165466,1,0,0:0:0:0:
149,212,165875,1,8,0:0:0:0:
149,212,166148,1,0,0:0:0:0:
142,223,166284,1,8,0:0:0:0:
142,223,166421,1,0,0:0:0:0:
142,223,166557,1,0,0:0:0:0:
142,223,166694,1,8,0:0:0:0:
142,223,166830,1,0,0:0:0:0:
142,223,166966,1,8,0:0:0:0:
142,223,167103,1,8,0:0:0:0:
142,223,167239,1,0,0:0:0:0:
142,223,167375,1,8,0:0:0:0:
142,223,167512,1,0,0:0:0:0:
142,223,167648,1,0,0:0:0:0:
142,223,167784,1,8,0:0:0:0:
147,111,168057,1,0,0:0:0:0:
217,186,168330,1,8,0:0:0:0:
109,248,168875,1,0,0:0:0:0:
109,248,169012,1,0,0:0:0:0:
109,248,169148,1,8,0:0:0:0:
109,248,169421,1,0,0:0:0:0:
109,248,169694,1,8,0:0:0:0:
109,248,169830,1,0,0:0:0:0:
109,248,170239,1,8,0:0:0:0:
109,248,170512,1,8,0:0:0:0:
109,248,170648,1,8,0:0:0:0:
109,248,170784,1,0,0:0:0:0:
109,248,171057,1,8,0:0:0:0:
109,248,171330,1,0,0:0:0:0:
109,248,171603,1,0,0:0:0:0:
109,248,171739,1,0,0:0:0:0:
109,248,171875,1,8,0:0:0:0:
109,248,172012,1,0,0:0:0:0:
109,248,172421,1,8,0:0:0:0:
109,248,172694,1,8,0:0:0:0:
109,248,172830,1,8,0:0:0:0:
109,248,173103,1,0,0:0:0:0:
109,248,173239,1,8,0:0:0:0:
109,248,173375,1,8,0:0:0:0:
109,248,173512,1,0,0:0:0:0:
109,248,173784,1,0,0:0:0:0:
109,248,174057,1,8,0:0:0:0:
109,248,174194,1,0,0:0:0:0:
109,248,174603,1,8,0:0:0:0:
109,248,174875,1,0,0:0:0:0:
109,248,175012,1,8,0:0:0:0:
109,248,175148,1,0,0:0:0:0:
109,248,175284,1,0,0:0:0:0:
109,248,175421,1,8,0:0:0:0:
109,248,175557,1,0,0:0:0:0:
109,248,175694,1,8,0:0:0:0:
109,248,175830,1,8,0:0:0:0:
109,248,175966,1,0,0:0:0:0:
109,248,176103,1,8,0:0:0:0:
109,248,176239,1,0,0:0:0:0:
109,248,176421,1,0,0:0:0:0:
109,248,176603,1,0,0:0:0:0:
109,248,176785,1,0,0:0:0:0:
213,213,177058,1,8,0:0:0:0:
213,213,177194,1,8,0:0:0:0:
213,213,177330,1,0,0:0:0:0:
213,213,177603,1,8,0:0:0:0:
213,213,177876,1,8,0:0:0:0:
213,213,178148,1,0,0:0:0:0:
213,213,178421,1,8,0:0:0:0:
213,213,178967,1,0,0:0:0:0:
213,213,179239,1,8,0:0:0:0:
213,213,179376,1,8,0:0:0:0:
213,213,179512,1,0,0:0:0:0:
213,213,179785,1,8,0:0:0:0:
213,213,180058,1,8,0:0:0:0:
213,213,180330,1,0,0:0:0:0:
213,213,180603,1,0,0:0:0:0:
213,213,180876,1,8,0:0:0:0:
213,213,181148,1,0,0:0:0:0:
213,213,181421,1,8,0:0:0:0:
213,213,181558,1,8,0:0:0:0:
213,213,181694,1,0,0:0:0:0:
213,213,181967,1,8,0:0:0:0:
213,213,182239,1,8,0:0:0:0:
213,213,182512,1,0,0:0:0:0:
213,213,182785,1,8,0:0:0:0:
213,213,183330,1,0,0:0:0:0:
213,213,183603,1,8,0:0:0:0:
213,213,183739,1,8,0:0:0:0:
213,213,183876,1,0,0:0:0:0:
213,213,184148,1,8,0:0:0:0:
213,213,184421,1,8,0:0:0:0:
213,213,184694,1,8,0:0:0:0:
213,213,184830,1,8,0:0:0:0:
213,213,184967,1,8,0:0:0:0:
213,213,185239,1,8,0:0:0:0:
213,213,185512,1,0,0:0:0:0:
213,213,185785,1,0,0:0:0:0:
213,213,185921,1,8,0:0:0:0:
213,213,186194,1,0,0:0:0:0:
213,213,186330,1,8,0:0:0:0:
213,213,186467,1,8,0:0:0:0:
213,213,186603,1,8,0:0:0:0:
213,213,186876,1,8,0:0:0:0:
213,213,187148,1,0,0:0:0:0:
213,213,187285,1,0,0:0:0:0:
213,213,187694,1,8,0:0:0:0:
213,213,187967,1,8,0:0:0:0:
213,213,188103,1,8,0:0:0:0:
213,213,188376,1,0,0:0:0:0:
213,213,188512,1,8,0:0:0:0:
213,213,188785,1,8,0:0:0:0:
213,213,189058,1,0,0:0:0:0:
213,213,189194,1,0,0:0:0:0:
213,213,189330,1,8,0:0:0:0:
213,213,189467,1,0,0:0:0:0:
213,213,189876,1,0,0:0:0:0:
213,213,190148,1,8,0:0:0:0:
213,213,190285,1,8,0:0:0:0:
213,213,190558,1,0,0:0:0:0:
213,213,190694,1,8,0:0:0:0:
213,213,190967,1,8,0:0:0:0:
213,213,191239,1,0,0:0:0:0:
213,213,191512,1,0,0:0:0:0:
