osu file format v14

[General]
AudioFilename: audio5.mp3
AudioLeadIn: 2000
PreviewTime: 61475
Countdown: 0
SampleSet: Soft
StackLeniency: 0.3
Mode: 0
LetterboxInBreaks: 0
WidescreenStoryboard: 1

[Editor]
DistanceSpacing: 1.2
BeatDivisor: 8
GridSize: 16
TimelineZoom: 2.5

[Metadata]
Title:Welcome to the Workshop!
TitleUnicode:工房にいらっしゃい!
Artist:Ken Nakagawa
ArtistUnicode:中河健
Creator:Lazer
Version:Welcome!
Source:イリスのアトリエ~グランファンタズム~
Tags:阿知波大輔 Koubou ni irasshai! Atelier Iris 3: Grand Phantasm Gust NIS Daisuke Achiwa Avishay Nardoxyribonucleic schwarzvgrune ikin5050 Lanturn
BeatmapID:1571402
BeatmapSetID:652228

[Difficulty]
HPDrainRate:7
CircleSize:5
OverallDifficulty:8
ApproachRate:9
SliderMultiplier:1.99999990463257
SliderTickRate:1

[Events]
//Background and Video events
0,0,"Atelier_Iris_3__Grand_Phantasm_by_Lunatia.jpg",0,0
//Break Periods
2,59275,62375
//Storyboard Layer 0 (Background)
//Storyboard Layer 1 (Fail)
//Storyboard Layer 2 (Pass)
//Storyboard Layer 3 (Foreground)
//Storyboard Sound Samples

[TimingPoints]
275,600,4,2,1,40,1,0
1475,600,4,2,1,40,1,0
2675,-133.333333333333,4,2,1,40,0,0
3875,-100,4,2,1,40,0,0
11975,-133.333333333333,4,2,1,40,0,0
13475,-100,4,2,1,40,0,0
15875,-83.3333333333333,4,2,2,70,0,0
33875,-66.6666666666667,4,2,2,70,0,0
35075,-83.3333333333333,4,2,2,70,0,0
37475,-66.6666666666667,4,2,2,70,0,0
39875,-83.3333333333333,4,2,2,70,0,0
50675,-66.6666666666667,4,2,2,70,0,0
62975,-55.5555555555556,4,2,2,70,0,0
63875,-55.5555555555556,4,2,2,70,0,1
80675,-76.9230769230769,4,2,2,70,0,1
82175,-55.5555555555556,4,2,2,70,0,1
83075,-100,4,2,1,40,0,0
90275,-83.3333333333333,4,2,2,70,0,0
96275,-66.6666666666667,4,2,2,70,0,0
97475,-83.3333333333333,4,2,2,70,0,0
102275,-55.5555555555556,4,2,2,70,0,0
109475,-50,4,2,2,70,0,0

[Colours]
Combo1 : 62,189,55
Combo2 : 200,10,4
Combo3 : 30,111,208

[HitObjects]
80,304,275,5,0,0:0:0:0:
103,234,425,1,0,0:0:0:0:
165,194,575,1,0,0:0:0:0:
238,202,725,1,0,0:0:0:0:
289,254,875,2,0,B|322:263|322:263|399:227,1,99.9999952316285
282,45,1475,6,0,P|294:95|422:83,1,199.999990463257,6|0,0:0|0:0,0:0:0:0:
372,204,2375,2,0,P|361:226|362:250,1,49.9999976158143
308,312,2675,2,0,P|357:335|412:321,1,112.499998927116,6|0,0:0|0:0,0:0:0:0:
475,214,3275,2,0,P|425:190|371:205,1,112.499998927116,2|0,0:0|0:0,0:0:0:0:
272,171,3875,6,0,L|282:219,1,49.9999976158143,0|0,0:0|0:0,0:0:0:0:
313,105,4175,1,0,0:0:0:0:
236,103,4325,2,0,P|188:89|141:103,1,99.9999952316285
48,106,4775,2,0,L|89:209,1,99.9999952316285,4|6,0:0|0:0,0:0:0:0:
16,359,5375,6,0,L|34:312,1,49.9999976158143
85,199,5675,1,4,0:0:0:0:
236,103,5975,1,4,0:0:0:0:
243,281,6275,5,6,0:0:0:0:
280,338,6425,1,0,0:0:0:0:
346,353,6575,1,0,0:0:0:0:
405,319,6725,2,0,P|452:307|496:329,1,99.9999952316285,0|0,0:0|0:0,0:0:0:0:
346,284,7175,1,0,0:0:0:0:
416,158,7475,2,0,P|427:205|405:249,1,99.9999952316285,6|0,0:0|0:0,0:0:0:0:
455,30,7925,2,0,L|342:48,1,99.9999952316285,0|0,0:0|0:0,0:0:0:0:
206,91,8375,2,0,L|255:98,1,49.9999976158143
376,141,8675,5,0,0:0:0:0:
411,200,8825,1,0,0:0:0:0:
412,268,8975,1,0,0:0:0:0:
375,327,9125,2,0,P|423:337|467:311,1,99.9999952316285,4|0,0:0|0:0,0:0:0:0:
468,147,9575,2,0,P|413:195|412:268,1,149.999992847443
465,312,10175,1,0,0:0:0:0:
344,190,10475,1,0,0:0:0:0:
290,350,10775,5,2,0:0:0:0:
361,320,10925,1,2,0:0:0:0:
290,243,11075,2,0,P|245:222|197:232,1,99.9999952316285,6|0,0:0|0:0,0:0:0:0:
181,348,11525,2,0,P|225:368|273:358,1,99.9999952316285,6|0,0:0|0:0,0:0:0:0:
382,314,11975,1,2,0:0:0:0:
382,314,13175,5,2,0:0:0:0:
441,271,13325,1,2,0:0:0:0:
484,365,13475,2,0,B|437:263|522:257|472:160,1,199.999990463257,6|0,0:0|0:0,0:0:0:0:
402,217,14675,6,0,B|350:227|322:272|322:272|321:210|287:177,1,199.999990463257,6|0,0:0|0:0,0:0:0:0:
379,101,15575,1,0,0:0:0:0:
212,44,15875,6,0,P|155:31|106:63,1,119.999990615845,4|0,0:0|0:0,0:0:0:0:
51,114,16325,1,0,0:0:0:0:
150,162,16475,2,0,L|169:105,1,59.9999953079226,8|0,0:0|0:0,0:0:0:0:
290,52,16775,2,0,L|233:230,1,179.999985923768,0|0,0:0|0:0,0:0:0:0:
212,44,17375,1,8,0:0:0:0:
300,277,17675,2,0,L|339:151,1,119.999990615845,8|0,0:0|0:0,0:0:0:0:
105,285,18275,6,0,P|136:334|193:345,1,119.999990615845,4|0,0:0|0:0,0:0:0:0:
268,349,18725,1,0,0:0:0:0:
231,244,18875,2,0,L|177:271,1,59.9999953079226,8|0,0:0|0:0,0:0:0:0:
55,224,19175,2,0,L|221:137,1,179.999985923768,12|0,0:0|0:0,0:0:0:0:
105,285,19775,1,0,0:0:0:0:
100,113,20075,5,8,0:0:0:0:
170,173,20225,1,0,0:0:0:0:
195,82,20375,1,0,0:0:0:0:
90,116,20525,1,0,0:0:0:0:
334,52,20675,6,0,P|364:60|393:60,1,59.9999953079226,0|0,0:0|0:0,0:0:0:0:
427,129,20975,1,8,0:0:0:0:
512,65,21125,1,0,0:0:0:0:
480,183,21275,2,0,P|472:212|472:241,1,59.9999953079226
329,192,21575,2,0,P|336:162|336:133,1,59.9999953079226,8|0,0:0|0:0,0:0:0:0:
279,336,21875,2,0,P|311:290|366:303,1,119.999990615845,0|8,0:0|0:0,0:0:0:0:
356,212,22325,1,0,0:0:0:0:
424,259,22475,2,0,P|450:272|479:271,1,59.9999953079226
335,132,22775,2,0,P|306:140|286:162,1,59.9999953079226,8|0,0:0|0:0,0:0:0:0:
145,148,23075,6,0,L|237:251,1,119.999990615845,0|8,0:0|0:0,0:0:0:0:
227,307,23525,1,0,0:0:0:0:
138,279,23675,1,0,0:0:0:0:
290,261,23825,1,0,0:0:0:0:
152,357,23975,1,8,0:0:0:0:
60,288,24125,1,0,0:0:0:0:
283,191,24275,6,0,P|312:194|337:209,1,59.9999953079226
416,293,24575,2,0,P|386:290|361:275,1,59.9999953079226,8|0,0:0|0:0,0:0:0:0:
334,145,24875,2,0,P|357:171|365:206,1,59.9999953079226,0|0,0:0|0:0,0:0:0:0:
363,340,25175,2,0,P|340:314|332:279,1,59.9999953079226,8|0,0:0|0:0,0:0:0:0:
308,136,25475,6,0,B|369:109|375:163|450:119,1,119.999990615845,4|0,0:0|0:0,0:0:0:0:
395,67,25925,1,0,0:0:0:0:
342,209,26075,1,0,0:0:0:0:
490,98,26225,1,0,0:0:0:0:
295,36,26375,2,0,L|230:41,1,59.9999953079226,8|0,0:0|0:0,0:0:0:0:
435,194,26675,6,0,B|443:161|429:135|429:135|415:103|423:73,1,119.999990615845,0|8,0:0|0:0,0:0:0:0:
456,13,27125,1,0,0:0:0:0:
290,91,27275,2,0,P|302:120|300:164,1,59.9999953079226,0|0,0:0|0:0,0:0:0:0:
263,232,27575,1,8,0:0:0:0:
310,310,27725,1,0,0:0:0:0:
230,36,27875,6,0,P|282:10|339:27,1,119.999990615845,6|8,0:0|0:0,0:0:0:0:
422,74,28325,1,0,0:0:0:0:
290,91,28475,1,0,0:0:0:0:
490,151,28625,1,0,0:0:0:0:
337,26,28775,6,0,P|327:53|331:82,1,59.9999953079226,8|0,0:0|0:0,0:0:0:0:
460,250,29075,2,0,P|406:225|348:211,1,119.999990615845,0|8,0:0|0:0,0:0:0:0:
256,128,29525,1,0,0:0:0:0:
165,213,29675,2,0,P|136:226|108:231,1,59.9999953079226,0|0,0:0|0:0,0:0:0:0:
251,304,29975,2,0,P|280:291|308:286,1,59.9999953079226,8|0,0:0|0:0,0:0:0:0:
128,99,30275,6,0,L|166:219,1,119.999990615845,12|8,0:0|0:0,0:0:0:0:
63,184,30725,1,0,0:0:0:0:
218,132,30875,1,2,0:0:0:0:
185,291,31025,1,0,0:0:0:0:
26,131,31175,2,0,P|56:120|99:131,1,59.9999953079226,10|0,0:0|0:0,0:0:0:0:
144,350,31475,6,0,P|205:358|256:302,1,119.999990615845,2|8,0:0|0:0,0:0:0:0:
420,122,31925,2,0,P|359:114|308:170,1,119.999990615845,2|8,0:0|0:0,0:0:0:0:
462,365,32375,2,0,L|474:306,1,59.9999953079226,8|0,0:0|0:0,0:0:0:0:
381,192,32675,6,0,L|356:310,1,119.999990615845,2|8,0:0|0:0,0:0:0:0:
308,355,33125,1,0,0:0:0:0:
228,267,33275,1,0,0:0:0:0:
438,254,33425,1,0,0:0:0:0:
394,347,33575,1,8,0:0:0:0:
229,266,33725,5,0,0:0:0:0:
283,222,33875,2,0,P|292:192|279:146,1,74.9999992847443
445,39,34175,2,0,P|412:38|371:62,1,74.9999992847443,8|0,0:0|0:0,0:0:0:0:
149,204,34475,2,0,P|186:204|219:187,1,74.9999992847443
166,126,34775,5,8,0:0:0:0:
257,274,34925,1,0,0:0:0:0:
299,141,35075,2,0,B|286:112|252:98|252:98|247:71|265:43,1,119.999990615845,6|0,0:0|0:0,0:0:0:0:
25,242,35525,2,0,P|80:243|119:181,1,119.999990615845,0|0,0:0|0:0,0:0:0:0:
41,161,35975,1,8,0:0:0:0:
41,161,36125,1,0,0:0:0:0:
31,333,36275,6,0,B|66:323|66:323|103:344|103:344|150:336,1,119.999990615845,0|8,0:0|0:0,0:0:0:0:
225,267,36725,2,0,B|268:284|268:284|352:272,1,119.999990615845,0|0,0:0|0:0,0:0:0:0:
460,257,37175,1,10,0:0:0:0:
460,257,37325,1,0,0:0:0:0:
241,50,37475,6,0,B|272:74|267:116|267:116|297:80|343:92,1,149.999998569489,8|0,0:0|0:0,0:0:0:0:
363,306,37925,2,0,P|361:232|323:169,1,149.999998569489,4|0,0:0|0:0,0:0:0:0:
267,115,38375,1,8,0:0:0:0:
370,17,38525,1,0,0:0:0:0:
253,45,38675,2,0,B|331:41|312:98|402:84,1,149.999998569489,12|8,0:0|0:0,0:0:0:0:
474,72,39125,1,0,0:0:0:0:
264,126,39275,2,0,P|223:140|186:166,1,74.9999992847443,4|0,0:0|0:0,0:0:0:0:
409,218,39575,2,0,P|450:204|487:178,1,74.9999992847443,8|2,0:0|0:0,0:0:0:0:
128,267,39875,6,0,P|185:269|226:322,1,119.999990615845,2|8,0:0|0:0,0:0:0:0:
148,349,40325,1,0,0:0:0:0:
282,249,40475,1,0,0:0:0:0:
351,294,40625,1,0,0:0:0:0:
314,178,40775,1,8,0:0:0:0:
325,368,40925,1,0,0:0:0:0:
482,204,41075,6,0,P|431:231|364:219,1,119.999990615845,0|8,0:0|0:0,0:0:0:0:
378,49,41525,2,0,P|430:21|488:30,1,119.999990615845,0|0,0:0|0:0,0:0:0:0:
371,222,41975,1,8,0:0:0:0:
445,114,42125,1,0,0:0:0:0:
292,180,42275,6,0,P|268:162|251:136,1,59.9999953079226,2|0,0:0|0:0,0:0:0:0:
287,29,42575,1,8,0:0:0:0:
327,107,42725,1,0,0:0:0:0:
147,26,42875,1,0,0:0:0:0:
391,40,43025,1,0,0:0:0:0:
212,54,43175,1,8,0:0:0:0:
212,54,43325,1,0,0:0:0:0:
315,206,43475,6,0,P|323:177|325:147,1,59.9999953079226
135,274,43775,2,0,P|149:301|168:323,1,59.9999953079226,8|0,0:0|0:0,0:0:0:0:
190,150,44075,2,0,P|162:141|132:139,1,59.9999953079226,8|0,0:0|0:0,0:0:0:0:
259,330,44375,2,8,P|285:316|308:296,1,59.9999953079226
429,133,44675,6,0,B|416:89|416:89|382:66|382:66|372:35,1,119.999990615845,6|8,0:0|0:0,0:0:0:0:
461,218,45125,1,0,0:0:0:0:
307,63,45275,2,0,P|274:63|248:75,1,59.9999953079226,0|0,0:0|0:0,0:0:0:0:
446,287,45575,2,0,P|479:287|504:274,1,59.9999953079226,8|2,0:0|0:0,0:0:0:0:
268,142,45875,6,0,B|211:155|211:112|149:126,1,119.999990615845,0|8,0:0|0:0,0:0:0:0:
62,137,46325,1,0,0:0:0:0:
314,209,46475,2,0,P|346:159|338:101,1,119.999990615845,0|8,0:0|0:0,0:0:0:0:
256,32,46925,1,0,0:0:0:0:
237,283,47075,6,0,B|275:270|275:270|314:283|314:283|353:270,1,119.999990615845,0|8,0:0|0:0,0:0:0:0:
438,250,47525,1,0,0:0:0:0:
408,334,47675,1,0,0:0:0:0:
508,198,47825,1,0,0:0:0:0:
354,251,47975,1,8,0:0:0:0:
354,251,48125,1,0,0:0:0:0:
458,123,48275,6,0,B|444:162|444:162|465:203|465:203|453:236,1,119.999990615845
406,42,48725,1,0,0:0:0:0:
305,305,48875,2,0,P|298:275|282:251,1,59.9999953079226,8|0,0:0|0:0,0:0:0:0:
256,29,49175,2,0,P|263:59|279:83,1,59.9999953079226,8|0,0:0|0:0,0:0:0:0:
203,337,49475,6,0,P|204:290|232:332,1,119.999990615845,4|8,0:0|0:0,0:0:0:0:
65,311,49925,1,0,0:0:0:0:
124,347,50075,1,0,0:0:0:0:
124,216,50225,1,0,0:0:0:0:
31,376,50375,1,8,0:0:0:0:
22,154,50675,6,0,B|66:178|66:178|97:167|97:167|160:202,1,149.999998569489,8|0,0:0|0:0,0:0:0:0:
222,232,51125,1,2,0:0:0:0:
116,41,51275,2,0,P|100:74|70:97,1,74.9999992847443,0|0,0:0|0:0,0:0:0:0:
48,297,51575,2,0,P|63:263|93:240,1,74.9999992847443,8|0,0:0|0:0,0:0:0:0:
230,122,51875,6,0,B|315:124|289:169|389:164,1,149.999998569489,0|8,0:0|0:0,0:0:0:0:
446,169,52325,1,0,0:0:0:0:
315,63,52475,1,0,0:0:0:0:
351,245,52625,1,0,0:0:0:0:
460,61,52775,1,8,0:0:0:0:
376,173,52925,1,0,0:0:0:0:
470,314,53075,1,0,0:0:0:0:
470,314,53375,2,0,P|464:272|479:239,1,74.9999992847443,8|0,0:0|0:0,0:0:0:0:
512,179,53675,1,0,0:0:0:0:
309,23,53975,6,0,P|294:65|256:100,1,74.9999992847443,8|0,0:0|0:0,0:0:0:0:
283,275,54275,2,0,B|317:262|317:262|382:278|382:278|445:258,1,149.999998569489,2|8,0:0|0:0,0:0:0:0:
368,163,54725,1,0,0:0:0:0:
511,161,54875,2,0,L|420:193,1,74.9999992847443,0|0,0:0|0:0,0:0:0:0:
255,122,55175,2,0,L|346:90,1,74.9999992847443,8|0,0:0|0:0,0:0:0:0:
398,74,55475,1,0,0:0:0:0:
398,74,55775,5,8,0:0:0:0:
209,75,55925,1,0,0:0:0:0:
305,239,56075,1,0,0:0:0:0:
309,364,56375,5,0,0:0:0:0:
305,239,56525,1,8,0:0:0:0:
228,288,56675,2,8,P|217:212|267:157,1,149.999998569489,6|8,0:0|0:0,0:0:0:0:
404,16,57125,2,0,B|428:68|428:68|411:111|411:111|433:151,1,149.999998569489,0|0,0:0|0:0,0:0:0:0:
476,212,57575,1,2,0:0:0:0:
476,212,57725,1,0,0:0:0:0:
265,83,57875,6,0,L|161:75,1,74.9999992847443,10|0,0:0|0:0,0:0:0:0:
374,250,58175,2,0,L|472:215,1,74.9999992847443,8|0,0:0|0:0,0:0:0:0:
251,163,58475,1,2,0:0:0:0:
279,232,58625,1,0,0:0:0:0:
327,172,58775,1,8,0:0:0:0:
202,222,58925,1,0,0:0:0:0:
317,327,59075,1,12,0:0:0:0:
19,215,62975,6,0,P|63:205|101:230,1,89.9999929618838,8|0,0:0|0:0,0:0:0:0:
252,169,63275,2,0,P|214:146|204:104,1,89.9999929618838,4|0,0:0|0:0,0:0:0:0:
289,87,63575,1,10,0:0:0:0:
25,139,63725,1,8,0:0:0:0:
509,206,63875,6,0,B|372:254|260:244|220:166|170:15|391:-19|447:110|340:217|268:154,1,539.999957771303,6|8,0:0|0:0,0:0:0:0:
161,235,65075,6,0,B|128:322|65:262|33:366,1,179.999985923768,0|8,0:0|0:0,0:0:0:0:
117,373,65525,1,0,0:0:0:0:
81,212,65675,2,0,P|53:178|13:158,1,89.9999929618838,0|0,0:0|0:0,0:0:0:0:
218,303,65975,2,0,P|266:307|306:288,1,89.9999929618838,8|0,0:0|0:0,0:0:0:0:
463,49,66275,6,0,B|337:8|292:159|295:205|438:346|584:149|512:14|373:79|319:132|475:226|475:226|470:264|431:285|431:285|450:319|445:359,1,719.999943695071,6|2,0:0|0:0,0:0:0:0:
210,177,67775,5,8,0:0:0:0:
173,84,67925,1,0,0:0:0:0:
258,31,68075,2,0,P|272:64|266:130,1,89.9999929618838,6|0,0:0|0:0,0:0:0:0:
137,357,68375,2,0,P|150:323|201:281,1,89.9999929618838,0|0,0:0|0:0,0:0:0:0:
173,84,68675,6,0,B|98:119|141:174|53:211,1,179.999985923768,8|0,0:0|0:0,0:0:0:0:
27,122,69125,1,0,0:0:0:0:
207,172,69275,1,0,0:0:0:0:
207,172,69425,1,0,0:0:0:0:
126,211,69575,1,8,0:0:0:0:
306,261,69725,1,0,0:0:0:0:
301,41,69875,6,0,B|307:113|372:115|399:69|358:14,1,179.999985923768,12|0,0:0|0:0,0:0:0:0:
397,224,70325,2,0,B|403:152|468:150|495:196|454:251,1,179.999985923768,12|0,0:0|0:0,0:0:0:0:
389,311,70775,1,8,0:0:0:0:
389,311,70925,1,0,0:0:0:0:
393,112,71075,6,0,P|436:103|480:111,1,89.9999929618838,14|0,0:0|0:0,0:0:0:0:
328,183,71375,2,0,P|284:192|240:184,1,89.9999929618838,0|0,0:0|0:0,0:0:0:0:
169,128,71675,1,8,0:0:0:0:
256,107,71825,1,0,0:0:0:0:
227,178,71975,1,8,0:0:0:0:
197,56,72125,1,0,0:0:0:0:
415,160,72275,6,8,L|306:188,1,89.9999929618838,4|0,0:0|0:0,0:0:0:0:
380,335,72575,2,0,L|410:226,1,89.9999929618838
245,217,72875,2,0,L|323:297,1,89.9999929618838,14|0,0:0|0:0,0:0:0:0:
380,335,73175,1,8,0:0:0:0:
415,160,73325,1,0,0:0:0:0:
258,384,73475,6,0,B|248:340|248:340|179:270|179:270|166:218,1,179.999985923768,2|8,0:0|0:0,0:0:0:0:
156,144,73925,1,0,0:0:0:0:
88,203,74075,1,0,0:0:0:0:
254,220,74225,1,0,0:0:0:0:
81,128,74375,1,8,0:0:0:0:
72,314,74525,1,0,0:0:0:0:
236,145,74675,1,0,0:0:0:0:
25,65,74975,6,0,L|47:168,1,89.9999929618838,8|0,0:0|0:0,0:0:0:0:
143,286,75275,2,0,L|165:183,1,89.9999929618838,0|0,0:0|0:0,0:0:0:0:
198,41,75575,1,8,0:0:0:0:
280,361,75875,6,0,P|235:338|184:358,1,89.9999929618838,4|0,0:0|0:0,0:0:0:0:
119,306,76175,1,8,0:0:0:0:
198,266,76325,1,0,0:0:0:0:
34,208,76475,1,0,0:0:0:0:
14,334,76625,1,0,0:0:0:0:
132,233,76775,1,8,0:0:0:0:
152,107,76925,1,0,0:0:0:0:
14,334,77075,1,2,0:0:0:0:
307,178,77375,6,0,L|200:188,1,89.9999929618838,8|0,0:0|0:0,0:0:0:0:
78,63,77675,2,0,B|125:73|125:73|166:124,1,89.9999929618838,14|0,0:0|0:0,0:0:0:0:
79,149,77975,1,8,0:0:0:0:
284,67,78125,1,8,0:0:0:0:
4,121,78275,6,0,B|-10:155|1:206|48:223|48:223|-5:247|-19:293|8:364|92:358|116:296,1,359.999971847535,6|0,0:0|0:0,0:0:0:0:
144,208,79025,1,0,0:0:0:0:
144,208,79175,1,8,0:0:0:0:
471,68,79475,6,0,B|443:84|418:81|418:81|339:70|305:115|317:186|401:185|433:126,1,269.999978885652,2|0,0:0|0:0,0:0:0:0:
277,69,80075,2,0,B|251:137|281:190|281:190|316:258|269:334,1,269.999978885652,10|2,0:0|0:0,0:0:0:0:
439,244,80675,2,0,B|502:201|552:300|479:330|434:310|434:310|392:293|352:333|352:333|388:240|352:168|352:168|329:125|351:95,1,519.99995140076,14|0,0:0|0:0,0:0:0:0:
52,87,82175,6,0,P|60:136|48:186,1,89.9999929618838,8|0,0:0|0:0,0:0:0:0:
20,234,82475,1,14,0:0:0:0:
184,160,82775,1,8,0:0:0:0:
345,352,83075,6,0,P|357:302|485:314,1,199.999990463257,6|0,0:0|0:0,0:0:0:0:
371,205,83975,2,0,P|360:227|361:251,1,49.9999976158143,0|0,0:0|0:0,0:0:0:0:
314,147,84275,2,0,P|358:124|407:131,1,99.9999952316285
444,37,84875,2,0,P|442:91|454:188,1,149.999992847443,0|0,0:0|0:0,0:0:0:0:
214,82,85475,6,0,L|262:68,1,49.9999976158143,4|0,0:0|0:0,0:0:0:0:
338,101,85775,1,2,0:0:0:0:
151,131,85925,2,0,P|137:83|151:36,1,99.9999952316285,2|0,0:0|0:0,0:0:0:0:
331,227,86375,2,0,L|220:214,1,99.9999952316285,2|4,0:0|0:0,0:0:0:0:
35,178,86975,6,0,L|53:131,1,49.9999976158143
115,181,87275,1,6,0:0:0:0:
8,367,87575,1,2,0:0:0:0:
315,280,87875,5,2,0:0:0:0:
278,223,88025,1,0,0:0:0:0:
212,208,88175,1,0,0:0:0:0:
153,242,88325,2,0,P|106:254|62:232,1,99.9999952316285,0|0,0:0|0:0,0:0:0:0:
256,48,88775,1,0,0:0:0:0:
416,158,89075,6,0,P|427:205|405:249,1,99.9999952316285,0|2,0:0|0:0,0:0:0:0:
356,45,89525,2,0,L|455:30,1,99.9999952316285,2|0,0:0|0:0,0:0:0:0:
206,91,89975,2,0,L|255:98,1,49.9999976158143,2|0,0:0|0:0,0:0:0:0:
376,141,90275,5,2,0:0:0:0:
476,111,90425,1,0,0:0:0:0:
411,267,90575,1,8,0:0:0:0:
311,237,90725,1,0,0:0:0:0:
468,174,90875,2,0,P|417:218|416:285,1,119.999990615845,2|8,0:0|0:0,0:0:0:0:
501,258,91325,1,0,0:0:0:0:
381,149,91475,6,0,P|352:158|322:156,1,59.9999953079226,0|0,0:0|0:0,0:0:0:0:
405,337,91775,2,0,P|375:335|346:343,1,59.9999953079226,8|0,0:0|0:0,0:0:0:0:
264,124,92075,1,0,0:0:0:0:
346,90,92225,1,0,0:0:0:0:
256,250,92375,1,8,0:0:0:0:
291,45,92525,1,0,0:0:0:0:
440,175,92675,6,0,P|387:164|314:190,1,119.999990615845,2|8,0:0|0:0,0:0:0:0:
149,131,93125,2,0,P|202:142|274:115,1,119.999990615845,0|0,0:0|0:0,0:0:0:0:
291,45,93575,1,8,0:0:0:0:
291,45,93725,1,0,0:0:0:0:
79,87,93875,2,0,B|58:131|79:172|79:172|121:206|105:273,2,179.999985923768
191,384,95075,6,0,P|196:328|160:261,1,119.999990615845,6|8,0:0|0:0,0:0:0:0:
194,189,95525,2,0,P|239:221|316:223,1,119.999990615845,0|0,0:0|0:0,0:0:0:0:
361,289,95975,2,0,P|335:300|315:333,1,59.9999953079226,8|0,0:0|0:0,0:0:0:0:
422,241,96275,2,0,P|400:175|463:149,1,149.999998569489,2|8,0:0|0:0,0:0:0:0:
490,215,96725,1,0,0:0:0:0:
294,77,96875,2,0,L|371:88,1,74.9999992847443,10|0,0:0|0:0,0:0:0:0:
480,315,97175,2,0,L|405:325,1,74.9999992847443,8|2,0:0|0:0,0:0:0:0:
216,249,97475,6,0,P|268:292|263:361,1,119.999990615845,12|0,0:0|0:0,0:0:0:0:
194,325,97925,1,0,0:0:0:0:
327,261,98075,1,10,0:0:0:0:
130,248,98225,1,8,0:0:0:0:
349,360,98375,1,8,0:0:0:0:
128,37,98675,6,0,P|137:90|203:104,1,119.999990615845,0|8,0:0|0:0,0:0:0:0:
317,107,99125,2,0,P|372:92|384:37,1,119.999990615845,0|0,0:0|0:0,0:0:0:0:
256,32,99575,1,8,0:0:0:0:
256,32,99725,1,0,0:0:0:0:
128,208,99875,6,0,P|160:192|208:192,1,59.9999953079226,0|0,0:0|0:0,0:0:0:0:
192,320,100175,2,0,P|160:336|112:336,1,59.9999953079226,8|0,0:0|0:0,0:0:0:0:
328,188,100475,2,0,P|357:193|384:208,1,59.9999953079226,2|0,0:0|0:0,0:0:0:0:
375,339,100775,2,0,P|346:334|320:320,1,59.9999953079226,8|0,0:0|0:0,0:0:0:0:
490,211,101075,5,8,0:0:0:0:
444,296,101225,1,0,0:0:0:0:
480,200,101375,1,10,0:0:0:0:
454,307,101525,1,8,0:0:0:0:
496,128,101675,5,8,0:0:0:0:
388,192,101825,1,0,0:0:0:0:
490,108,101975,1,14,0:0:0:0:
394,211,102125,1,12,0:0:0:0:
160,48,102275,6,0,B|99:63|25:50|25:50|100:63|137:139,1,269.999978885652,12|2,0:0|0:0,0:0:0:0:
206,106,102875,1,8,0:0:0:0:
17,168,103025,1,0,0:0:0:0:
154,328,103175,2,0,B|174:253|186:208|141:196|96:183|84:228|64:304,1,269.999978885652,10|0,0:0|0:0,0:0:0:0:
226,365,103775,2,0,L|252:245,1,89.9999929618838,8|0,0:0|0:0,0:0:0:0:
160,48,104075,2,0,L|186:168,1,89.9999929618838,2|0,0:0|0:0,0:0:0:0:
256,192,104375,1,8,0:0:0:0:
96,144,104525,1,8,0:0:0:0:
352,48,104675,6,0,B|413:63|487:50|487:50|412:63|375:139,1,269.999978885652,12|2,0:0|0:0,0:0:0:0:
306,106,105275,1,8,0:0:0:0:
495,168,105425,1,0,0:0:0:0:
357,328,105575,2,0,B|337:253|325:208|370:196|415:183|427:228|448:304,1,269.999978885652,10|0,0:0|0:0,0:0:0:0:
286,365,106175,2,0,L|260:245,1,89.9999929618838,8|0,0:0|0:0,0:0:0:0:
352,48,106475,2,0,L|326:168,1,89.9999929618838,2|0,0:0|0:0,0:0:0:0:
256,192,106775,1,8,0:0:0:0:
416,144,106925,1,8,0:0:0:0:
144,288,107075,6,0,B|105:218|26:220|-7:278|30:348|110:346,1,269.999978885652,12|2,0:0|0:0,0:0:0:0:
152,183,107675,2,0,P|110:165|65:162,1,89.9999929618838,8|0,0:0|0:0,0:0:0:0:
212,364,107975,2,0,B|201:291|237:227|237:227|272:163|219:100,1,269.999978885652,2|0,0:0|0:0,0:0:0:0:
214,7,108575,5,8,0:0:0:0:
235,95,108725,1,0,0:0:0:0:
408,68,108875,2,0,P|387:102|385:156,1,89.9999929618838,10|0,0:0|0:0,0:0:0:0:
104,68,109175,2,0,P|125:102|127:156,1,89.9999929618838,8|0,0:0|0:0,0:0:0:0:
320,240,109475,6,0,B|364:284|382:266|391:257|400:248|409:240|400:231|391:222|382:213|373:222|364:231|355:240|346:248|355:257|364:266|373:275|328:374|445:257|445:347,1,299.999985694885,6|0,0:0|0:0,0:0:0:0:
464,176,110075,2,0,P|416:144|336:144,1,99.9999952316285,0|0,0:0|0:0,0:0:0:0:
192,32,110375,2,0,B|0:32|0:352|112:352|112:352|64:192|192:128|336:160|336:384|128:384|199:246,1,899.999957084657,4|0,0:0|0:0,0:0:0:0:
420,344,111875,5,6,0:0:0:0:
