osu file format v14

[General]
AudioFilename: audio5.mp3
AudioLeadIn: 2000
PreviewTime: 61475
Countdown: 0
SampleSet: Normal
StackLeniency: 0.7
Mode: 0
LetterboxInBreaks: 0
WidescreenStoryboard: 0

[Editor]
DistanceSpacing: 1
BeatDivisor: 8
GridSize: 8
TimelineZoom: 1.5

[Metadata]
Title:Welcome to the Workshop!
TitleUnicode:工房にいらっしゃい!
Artist:Ken Nakagawa
ArtistUnicode:中河健
Creator:Lazer
Version:Normal
Source:イリスのアトリエ~グランファンタズム~
Tags:阿知波大輔 Koubou ni irasshai! Atelier Iris 3: Grand Phantasm Gust NIS Daisuke Achiwa Avishay Nardoxyribonucleic schwarzvgrune ikin5050 Lanturn
BeatmapID:1383031
BeatmapSetID:652228

[Difficulty]
HPDrainRate:4
CircleSize:3.3
OverallDifficulty:3
ApproachRate:5
SliderMultiplier:1.6
SliderTickRate:2

[Events]
//Background and Video events
0,0,"Atelier_Iris_3__Grand_Phantasm_by_Lunatia.jpg",0,0
//Break Periods
2,59275,61775
//Storyboard Layer 0 (Background)
//Storyboard Layer 1 (Fail)
//Storyboard Layer 2 (Pass)
//Storyboard Layer 3 (Foreground)
//Storyboard Sound Samples

[TimingPoints]
275,600,4,2,1,50,1,0
1475,600,4,2,1,50,1,0
15875,-100,4,2,2,65,0,0
63875,-100,4,1,1,75,0,1
83075,-100,4,2,1,55,0,0
83975,-100,4,2,1,55,0,0
90275,-100,4,1,1,65,0,0

[Colours]
Combo1 : 160,80,100
Combo2 : 80,70,190
Combo3 : 180,100,90
Combo4 : 90,160,120
Combo5 : 130,90,120

[HitObjects]
96,51,1475,6,0,P|80:131|96:211,1,160,6|0,0:0|0:0,0:0:0:0:
163,247,2375,2,0,L|236:209,1,80,0|6,0:0|0:0,0:0:0:0:
256,51,3275,1,2,0:0:0:0:
416,51,3875,6,0,P|432:131|416:211,1,160,0|0,0:0|0:0,0:0:0:0:
349,247,4775,2,0,L|276:209,1,80,0|6,0:0|0:0,0:0:0:0:
256,51,5675,1,0,0:0:0:0:
177,65,5975,1,0,0:0:0:0:
98,79,6275,6,0,P|119:139|91:195,2,120,6|0|0,0:0|0:0|0:0,0:0:0:0:
39,133,7475,1,6,0:0:0:0:
38,252,7925,2,0,P|96:276|155:254,1,120,0|0,0:0|0:0,0:0:0:0:
184,187,8675,6,0,P|222:200|274:200,1,80,0|0,0:0|0:0,0:0:0:0:
341,207,9275,2,0,P|367:236|385:272,1,80,0|0,0:0|0:0,0:0:0:0:
83,165,10775,5,2,0:0:0:0:
134,103,11075,2,0,L|124:232,2,120,6|6|2,0:0|0:0|0:0,0:0:0:0:
461,47,13175,6,0,P|421:50|383:39,1,80,2|6,0:0|0:0,0:0:0:0:
96,136,14675,6,0,P|168:104|240:156,1,160,6|0,0:0|0:0,0:0:0:0:
287,201,15575,1,0,0:0:0:0:
296,280,15875,2,0,P|352:312|411:285,2,120,4|0|0,0:0|0:0|0:0,0:0:0:0:
144,328,17375,5,8,0:0:0:0:
112,256,17675,1,8,0:0:0:0:
57,105,18275,6,0,P|59:46|121:13,2,120,4|0|8,0:0|0:0|0:0,0:0:0:0:
31,263,19775,5,0,0:0:0:0:
64,335,20075,1,8,0:0:0:0:
144,328,20375,1,0,0:0:0:0:
177,256,20675,2,0,L|160:173,1,80,0|8,0:0|0:0,0:0:0:0:
200,107,21275,2,0,L|217:24,1,80,0|8,0:0|0:0,0:0:0:0:
295,28,21875,2,0,L|312:107,1,80,0|8,0:0|0:0,0:0:0:0:
351,177,22475,5,0,0:0:0:0:
335,256,22775,1,8,0:0:0:0:
411,231,23075,2,0,L|499:208,1,80,0|8,0:0|0:0,0:0:0:0:
511,134,23675,1,0,0:0:0:0:
474,62,23975,1,8,0:0:0:0:
430,130,24275,2,0,L|342:153,1,80,0|8,0:0|0:0,0:0:0:0:
277,121,24875,1,0,0:0:0:0:
176,243,25475,6,0,B|184:197|184:197|143:148|161:77,1,160,4|0,0:0|0:0,0:0:0:0:
210,29,26375,1,8,0:0:0:0:
252,96,26675,2,0,P|258:137|302:158,1,80,0|8,0:0|0:0,0:0:0:0:
366,175,27275,2,0,P|406:169|428:125,1,80,0|8,0:0|0:0,0:0:0:0:
473,73,27875,6,0,L|487:250,1,160,6|0,0:0|0:0,0:0:0:0:
428,288,28775,1,8,0:0:0:0:
368,235,29075,2,0,B|317:223|317:223|273:257|205:253,1,160,0|0,0:0|0:0,0:0:0:0:
153,303,29975,1,8,0:0:0:0:
123,228,30275,6,0,B|144:175|194:161|194:161|160:144|149:103,1,160,12|2,0:0|0:0,0:0:0:0:
227,85,31175,1,10,0:0:0:0:
293,40,31475,2,0,P|304:105|266:155,2,120,2|2|8,0:0|0:0|0:0,0:0:0:0:
369,14,32675,6,0,P|382:51|385:102,1,80,2|8,0:0|0:0,0:0:0:0:
362,167,33275,1,0,0:0:0:0:
441,154,33575,1,8,0:0:0:0:
413,230,33875,2,0,P|457:235|495:214,2,80,0|8|0,0:0|0:0|0:0,0:0:0:0:
334,243,34775,5,8,0:0:0:0:
334,243,35075,2,0,P|280:237|249:302,2,120,6|0|8,0:0|0:0|0:0,0:0:0:0:
447,129,36575,5,8,0:0:0:0:
375,93,36875,1,2,0:0:0:0:
303,129,37175,1,10,0:0:0:0:
231,93,37475,2,0,L|145:136,1,80
79,129,38075,2,0,P|85:167|116:199,1,80,0|8,0:0|0:0,0:0:0:0:
191,206,38675,2,0,B|211:241|211:241|183:332,2,120,4|0|8,0:0|0:0|0:0,0:0:0:0:
256,159,39875,6,0,L|306:242,1,80,2|8,0:0|0:0,0:0:0:0:
275,304,40475,2,0,L|250:380,1,80,0|8,0:0|0:0,0:0:0:0:
330,380,41075,6,0,B|383:351|383:351|437:374,2,120,0|0|8,0:0|0:0|0:0,0:0:0:0:
250,380,42275,2,0,L|159:372,1,80,2|8,0:0|0:0,0:0:0:0:
110,319,42875,2,0,L|19:311,1,80,0|8,0:0|0:0,0:0:0:0:
50,234,43475,5,8,0:0:0:0:
129,243,43775,1,0,0:0:0:0:
98,172,44075,1,0,0:0:0:0:
174,180,44375,5,8,0:0:0:0:
174,180,44675,2,0,B|203:218|260:222|260:222|233:254|245:297,1,160,6|0,0:0|0:0,0:0:0:0:
322,279,45575,1,8,0:0:0:0:
352,205,45875,2,0,B|326:135|255:129|255:129|274:91,1,160,0|0,0:0|0:0,0:0:0:0:
261,23,46775,1,8,0:0:0:0:
195,69,47075,6,0,L|117:224,1,160,0|0,0:0|0:0,0:0:0:0:
49,180,47975,1,8,0:0:0:0:
55,259,48275,2,0,P|120:295|197:251,1,160,0|0,0:0|0:0,0:0:0:0:
254,210,49175,1,8,0:0:0:0:
314,263,49475,6,0,P|333:191|272:131,1,160
229,69,50375,1,0,0:0:0:0:
200,140,50675,2,0,P|149:162|85:148,2,120,8|2|0,0:0|0:0|0:0,0:0:0:0:
279,158,51875,6,0,B|325:166|325:166|285:113|323:57,1,160,0|0,0:0|0:0,0:0:0:0:
384,110,52775,1,8,0:0:0:0:
461,94,53075,2,0,P|455:146|429:176,1,80,0|8,0:0|0:0,0:0:0:0:
382,224,53675,2,0,P|374:264|394:313,1,80,0|8,0:0|0:0,0:0:0:0:
436,362,54275,6,0,P|367:342|271:368,1,160,2|0,0:0|0:0,0:0:0:0:
245,289,55175,2,0,L|163:301,2,80,8|0|8,0:0|0:0|0:0,0:0:0:0:
277,215,56075,2,0,L|367:227,1,80,0|8,0:0|0:0,0:0:0:0:
436,231,56675,6,0,P|420:175|354:149,2,120,2|0|2,0:0|0:0|0:0,0:0:0:0:
512,243,57875,2,0,P|458:307|383:289,2,160,2|2|0,0:0|0:0|0:0,0:0:0:0:
117,195,62975,6,0,P|113:147|134:106,2,80,8|4|10,0:0|0:0|0:0,0:0:0:0:
192,164,63875,2,0,B|245:135|308:159|308:159|293:232|222:251,1,240,6|8,0:0|0:0,0:0:0:0:
157,269,65075,1,0,0:0:0:0:
24,178,65675,6,0,L|97:145,1,80,0|8,0:0|0:0,0:0:0:0:
158,89,66275,2,0,B|184:123|175:166|175:166|229:129|229:129|280:156|333:121,1,240,2|0,0:0|0:0,0:0:0:0:
318,129,67475,1,0,0:0:0:0:
464,57,68075,6,0,L|458:147,1,80,2|0,0:0|0:0,0:0:0:0:
409,200,68675,2,0,B|436:226|483:216|483:216|439:243|431:293,1,160,8|0,0:0|0:0,0:0:0:0:
438,358,69575,1,8,0:0:0:0:
364,325,69875,2,0,B|348:289|355:262|355:262|294:243,2,120,12|8|8,0:0|0:0|0:0,0:0:0:0:
290,358,71075,6,0,L|121:343,1,160,6|0,0:0|0:0,0:0:0:0:
47,206,72275,2,0,L|216:221,1,160,0|14,0:0|0:0,0:0:0:0:
277,182,73175,1,8,0:0:0:0:
278,261,73475,6,0,B|321:261|344:227|344:227|386:250|386:250|442:227|508:252,1,240,2|8,0:0|0:0,0:0:0:0:
498,248,74975,5,8,0:0:0:0:
477,326,75275,2,0,P|438:319|389:342,1,80,0|8,0:0|0:0,0:0:0:0:
320,331,75875,2,0,B|319:297|346:272|346:272|319:247|319:247|354:171|309:119,1,240,4|8,0:0|0:0,0:0:0:0:
242,266,77375,1,8,0:0:0:0:
242,187,77675,2,0,P|199:199|166:238,1,80,14|8,0:0|0:0,0:0:0:0:
94,212,78275,6,0,B|80:262|109:336|109:336|141:302,1,160,6|0,0:0|0:0,0:0:0:0:
193,363,79175,1,8,0:0:0:0:
272,371,79475,2,0,P|268:339|234:295,1,80,2|0,0:0|0:0,0:0:0:0:
180,249,80075,2,0,P|211:225|251:221,1,80,2|0,0:0|0:0,0:0:0:0:
318,263,80675,6,0,P|330:125|288:152,1,320,12|0,0:0|0:0,0:0:0:0:
250,220,82175,1,0,0:0:0:0:
209,151,82475,2,0,P|172:139|115:152,1,80,14|8,0:0|0:0,0:0:0:0:
68,193,83075,6,0,P|60:271|97:347,1,160,6|0,0:0|0:0,0:0:0:0:
156,292,83975,2,0,L|232:322,1,80,0|0,0:0|0:0,0:0:0:0:
256,163,84875,1,0,0:0:0:0:
409,118,85475,6,0,P|417:196|380:272,1,160,0|0,0:0|0:0,0:0:0:0:
321,217,86375,2,0,P|285:241|245:247,1,80,2|4,0:0|0:0,0:0:0:0:
266,87,87275,5,6,0:0:0:0:
344,71,87575,1,2,0:0:0:0:
409,118,87875,2,0,P|417:196|380:272,1,160,2|0,0:0|0:0,0:0:0:0:
304,281,88775,1,0,0:0:0:0:
354,343,89075,2,0,P|276:335|224:359,2,120,0|2|2,0:0|0:0|0:0,0:0:0:0:
433,334,90275,6,0,L|423:247,1,80,2|8,0:0|0:0,0:0:0:0:
368,196,90875,2,0,L|377:116,1,80,2|8,0:0|0:0,0:0:0:0:
297,118,91475,2,0,L|217:127,1,80,0|8,0:0|0:0,0:0:0:0:
158,72,92075,1,0,0:0:0:0:
140,150,92375,1,8,0:0:0:0:
81,95,92675,2,0,P|60:150|91:215,2,120,2|0|0,0:0|0:0|0:0,0:0:0:0:
239,70,94175,5,8,0:0:0:0:
287,133,94475,1,0,0:0:0:0:
318,60,94775,1,8,0:0:0:0:
366,122,95075,2,0,P|397:149|466:122,2,120,6|0|0,0:0|0:0|0:0,0:0:0:0:
318,60,96275,2,0,B|303:44|284:39|284:39|167:67,2,160,2|2|12,0:0|0:0|0:0,0:0:0:0:
434,170,98075,6,0,L|426:266,1,80,2|0,0:0|0:0,0:0:0:0:
359,291,98675,2,0,P|413:330|477:313,2,120,0|0|8,0:0|0:0|0:0,0:0:0:0:
284,262,99875,2,0,B|275:301|287:326|287:326|242:305|180:331,1,160,0|2,0:0|0:0,0:0:0:0:
130,373,100775,1,8,0:0:0:0:
121,293,101075,2,0,P|140:217|108:134,1,160,8|8,0:0|0:0,0:0:0:0:
249,56,102275,6,0,B|296:69|296:69|377:56,2,120,12|2|2,0:0|0:0|0:0,0:0:0:0:
89,69,103775,1,8,0:0:0:0:
132,135,104075,1,2,0:0:0:0:
284,184,104675,6,0,B|297:231|297:231|284:312,2,120,12|2|2,0:0|0:0|0:0,0:0:0:0:
132,135,106175,1,8,0:0:0:0:
113,212,106475,1,2,0:0:0:0:
75,55,107075,6,0,P|131:37|188:53,2,120,12|2|2,0:0|0:0|0:0,0:0:0:0:
113,212,108575,1,8,0:0:0:0:
189,190,108875,1,2,0:0:0:0:
256,192,109475,12,6,111875,0:0:0:0:
