osu file format v14

[General]
AudioFilename: audio5.mp3
AudioLeadIn: 2000
PreviewTime: 61475
Countdown: 0
SampleSet: Normal
StackLeniency: 0.7
Mode: 0
LetterboxInBreaks: 0
WidescreenStoryboard: 0

[Editor]
DistanceSpacing: 1
BeatDivisor: 4
GridSize: 8
TimelineZoom: 1.5

[Metadata]
Title:Welcome to the Workshop!
TitleUnicode:工房にいらっしゃい!
Artist:Ken Nakagawa
ArtistUnicode:中河健
Creator:Lazer
Version:Hard
Source:イリスのアトリエ~グランファンタズム~
Tags:阿知波大輔 Koubou ni irasshai! Atelier Iris 3: Grand Phantasm Gust NIS Daisuke Achiwa Avishay Nardoxyribonucleic schwarzvgrune ikin5050 Lanturn
BeatmapID:1383872
BeatmapSetID:652228

[Difficulty]
HPDrainRate:5
CircleSize:4
OverallDifficulty:5
ApproachRate:7
SliderMultiplier:1.6
SliderTickRate:1

[Events]
//Background and Video events
0,0,"Atelier_Iris_3__Grand_Phantasm_by_Lunatia.jpg",0,0
//Break Periods
//Storyboard Layer 0 (Background)
//Storyboard Layer 1 (Fail)
//Storyboard Layer 2 (Pass)
//Storyboard Layer 3 (Foreground)
//Storyboard Sound Samples

[TimingPoints]
275,600,4,2,1,40,1,0
1475,600,4,2,1,40,1,0
1475,-125,4,2,1,40,0,0
6725,-125,4,2,1,5,0,0
7025,-125,4,2,1,45,0,0
15875,-71.4285714285714,4,2,2,45,0,0
63875,-83.3333333333333,4,1,1,50,0,1
71525,-83.3333333333333,4,1,1,5,0,1
71825,-83.3333333333333,4,1,1,45,0,1
83075,-90.9090909090909,4,2,1,40,0,0
83975,-100,4,2,1,40,0,0
90275,-71.4285714285714,4,1,1,45,0,0
102275,-83.3333333333333,4,1,1,45,0,0
119075,-100,4,1,1,35,0,0
121475,-100,4,1,1,25,0,0

[Colours]
Combo1 : 160,80,100
Combo2 : 80,70,190
Combo3 : 180,100,90
Combo4 : 90,160,120
Combo5 : 130,90,120

[HitObjects]
464,304,1475,6,0,P|384:328|336:304,1,128,6|0,0:0|0:0,0:0:0:0:
400,232,2375,1,0,0:0:0:0:
400,232,2525,1,0,0:0:0:0:
400,232,2675,1,6,0:0:0:0:
470,97,3275,6,0,P|453:57|433:38,1,64,2|6,0:0|0:0,0:0:0:0:
380,114,3875,1,0,0:0:0:0:
351,110,4025,1,0,0:0:0:0:
324,121,4175,1,0,0:0:0:0:
305,143,4325,1,0,0:0:0:0:
288,340,4775,5,0,0:0:0:0:
373,326,5075,2,0,P|349:278|280:254,1,128,6|0,0:0|0:0,0:0:0:0:
204,299,5975,1,0,0:0:0:0:
127,345,6275,2,0,B|106:302|125:256|125:256|116:254|116:254|143:210|127:157,1,192,6|0,0:0|0:0,0:0:0:0:
95,93,7475,2,0,P|128:86|163:93,1,64,6|0,0:0|0:0,0:0:0:0:
206,154,7925,2,0,P|238:159|269:152,1,64
330,99,8375,1,0,0:0:0:0:
457,155,8675,6,0,L|446:195,2,32
500,82,9125,2,0,P|457:71|407:87,1,96
256,192,10175,1,0,0:0:0:0:
256,192,10475,1,0,0:0:0:0:
116,276,10775,5,2,0:0:0:0:
116,276,10925,1,2,0:0:0:0:
61,224,11075,2,0,P|100:202|148:206,1,64,6|0,0:0|0:0,0:0:0:0:
180,239,11525,2,0,P|211:232|237:214,1,64,6|0,0:0|0:0,0:0:0:0:
256,122,11975,1,2,0:0:0:0:
413,227,13175,5,2,0:0:0:0:
413,227,13325,1,2,0:0:0:0:
353,174,13475,2,0,P|333:229|368:293,1,128,6|0,0:0|0:0,0:0:0:0:
256,352,14375,1,2,0:0:0:0:
150,288,14675,2,0,P|178:233|159:174,1,128,6|0,0:0|0:0,0:0:0:0:
64,192,15575,1,0,0:0:0:0:
208,337,15875,6,0,P|248:277|248:177,1,167.999994873047,4|0,0:0|0:0,0:0:0:0:
250,182,16475,1,8,0:0:0:0:
323,31,16775,2,0,P|227:87|251:183,1,223.999993164063,0|8,0:0|0:0,0:0:0:0:
380,269,17675,2,0,P|435:283|497:260,1,111.999996582031,8|0,0:0|0:0,0:0:0:0:
470,122,18275,6,0,P|392:97|311:121,1,167.999994873047,4|0,0:0|0:0,0:0:0:0:
311,120,18875,1,8,0:0:0:0:
170,234,19175,2,0,P|247:258|328:234,1,167.999994873047,4|0,0:0|0:0,0:0:0:0:
328,235,19775,1,0,0:0:0:0:
250,142,20075,2,0,B|235:98|255:57|255:57|276:72,1,111.999996582031,8|0,0:0|0:0,0:0:0:0:
475,72,20675,6,0,P|457:93|434:109,1,55.9999982910157
359,99,20975,2,0,P|372:153|425:185,1,111.999996582031,8|0,0:0|0:0,0:0:0:0:
475,72,21575,1,8,0:0:0:0:
324,30,21875,6,0,P|299:51|282:87,1,55.9999982910157
209,66,22175,2,0,P|206:98|219:136,1,55.9999982910157,8|0,0:0|0:0,0:0:0:0:
152,174,22475,2,0,P|173:198|209:215,2,55.9999982910157,0|0|8,0:0|0:0|0:0,0:0:0:0:
71,38,23075,6,0,L|64:187,1,111.999996582031,0|8,0:0|0:0,0:0:0:0:
43,149,23525,1,0,0:0:0:0:
43,149,23675,1,0,0:0:0:0:
76,339,23975,5,8,0:0:0:0:
153,316,24275,2,0,P|208:320|296:336,2,111.999996582031,0|8|0,0:0|0:0|0:0,0:0:0:0:
104,377,25025,1,0,0:0:0:0:
56,315,25175,2,0,P|52:288|55:260,1,55.9999982910157,8|0,0:0|0:0,0:0:0:0:
18,164,25475,6,0,B|125:138|111:215|245:179,1,223.999993164063,4|0,0:0|0:0,0:0:0:0:
268,82,26375,1,8,0:0:0:0:
268,82,26525,1,0,0:0:0:0:
268,82,26675,2,0,P|230:47|171:53,1,111.999996582031,0|8,0:0|0:0,0:0:0:0:
236,181,27275,2,0,P|274:216|333:210,1,111.999996582031,0|8,0:0|0:0,0:0:0:0:
470,77,27875,6,0,B|342:117,1,111.999996582031,6|8,0:0|0:0,0:0:0:0:
363,110,28325,1,0,0:0:0:0:
363,110,28475,1,0,0:0:0:0:
460,166,28775,1,8,0:0:0:0:
363,222,29075,1,0,0:0:0:0:
363,222,29675,5,0,0:0:0:0:
460,279,29975,1,8,0:0:0:0:
362,334,30275,1,12,0:0:0:0:
321,255,30575,2,0,P|347:247|383:246,1,55.9999982910157,8|0,0:0|0:0,0:0:0:0:
460,279,30875,2,0,P|466:246|465:222,1,55.9999982910157,2|0,0:0|0:0,0:0:0:0:
404,168,31175,1,10,0:0:0:0:
336,78,31475,6,0,L|473:93,1,111.999996582031,2|8,0:0|0:0,0:0:0:0:
512,45,31925,2,0,P|525:101|498:157,1,111.999996582031,2|8,0:0|0:0,0:0:0:0:
427,170,32375,1,8,0:0:0:0:
350,251,32675,6,0,B|376:287|376:287|371:377,2,111.999996582031,2|8|0,0:0|0:0|0:0,0:0:0:0:
350,251,33425,1,0,0:0:0:0:
350,251,33575,1,8,0:0:0:0:
405,185,33875,2,0,P|455:161|510:162,1,111.999996582031,0|8,0:0|0:0,0:0:0:0:
278,347,34475,2,0,P|228:371|172:370,1,111.999996582031,0|8,0:0|0:0,0:0:0:0:
136,298,34925,5,0,0:0:0:0:
204,254,35075,2,0,B|223:207|223:207|202:70,2,167.999994873047,6|0|8,0:0|0:0|0:0,0:0:0:0:
93,235,36275,2,0,L|75:124,1,111.999996582031,0|8,0:0|0:0,0:0:0:0:
96,133,36725,1,0,0:0:0:0:
249,58,37175,5,10,0:0:0:0:
173,139,37475,2,0,P|252:169|332:132,2,167.999994873047,0|0|8,0:0|0:0|0:0,0:0:0:0:
186,27,38675,2,0,L|60:40,1,111.999996582031,4|8,0:0|0:0,0:0:0:0:
16,219,39275,2,0,L|142:206,1,111.999996582031,4|8,0:0|0:0,0:0:0:0:
127,207,39725,1,2,0:0:0:0:
127,207,39875,1,2,0:0:0:0:
237,223,40175,6,0,P|259:173|246:95,1,111.999996582031,8|0,0:0|0:0,0:0:0:0:
146,89,40775,1,8,0:0:0:0:
255,116,41075,2,0,B|309:125|309:125|441:92,2,167.999994873047,0|0|8,0:0|0:0|0:0,0:0:0:0:
171,190,42275,6,0,P|158:238|178:299,1,111.999996582031,2|8,0:0|0:0,0:0:0:0:
175,296,42725,1,0,0:0:0:0:
175,296,42875,2,0,L|230:290,2,55.9999982910157,0|0|8,0:0|0:0|0:0,0:0:0:0:
299,335,43475,2,0,P|313:283|290:233,1,111.999996582031,8|0,0:0|0:0,0:0:0:0:
290,233,43925,1,0,0:0:0:0:
290,233,44075,1,0,0:0:0:0:
389,375,44375,1,8,0:0:0:0:
485,277,44675,6,0,L|472:139,1,111.999996582031,6|8,0:0|0:0,0:0:0:0:
474,165,45125,1,0,0:0:0:0:
474,165,45275,1,0,0:0:0:0:
460,54,45575,2,0,L|375:80,1,55.9999982910157,8|2,0:0|0:0,0:0:0:0:
332,47,45875,2,0,P|342:114|385:148,1,111.999996582031,0|8,0:0|0:0,0:0:0:0:
252,174,46475,2,0,B|270:149|270:149|251:112|252:71,1,111.999996582031,0|8,0:0|0:0,0:0:0:0:
172,254,47075,6,0,P|155:309|193:385,1,111.999996582031,0|8,0:0|0:0,0:0:0:0:
170,360,47525,1,0,0:0:0:0:
170,360,47675,1,0,0:0:0:0:
238,308,47975,1,8,0:0:0:0:
57,345,48275,1,0,0:0:0:0:
238,308,48875,5,0,0:0:0:0:
57,345,49175,1,8,0:0:0:0:
115,169,49475,2,8,L|238:182,1,111.999996582031,0|8,0:0|0:0,0:0:0:0:
226,180,49925,1,0,0:0:0:0:
226,180,50075,1,0,0:0:0:0:
276,83,50375,1,0,0:0:0:0:
276,83,50675,2,0,P|322:134|314:243,2,167.999994873047,8|2|0,0:0|0:0|0:0,0:0:0:0:
277,305,51875,6,0,P|330:315|380:292,1,111.999996582031,0|8,0:0|0:0,0:0:0:0:
455,343,52475,1,0,0:0:0:0:
455,343,52625,1,0,0:0:0:0:
455,343,52775,1,8,0:0:0:0:
465,231,53075,2,0,L|473:111,2,111.999996582031,0|8|0,0:0|0:0|0:0,0:0:0:0:
363,277,53975,5,8,0:0:0:0:
363,277,54125,1,0,0:0:0:0:
363,277,54275,2,0,P|301:313|198:287,2,167.999994873047,2|0|8,0:0|0:0|0:0,0:0:0:0:
275,197,55475,2,0,P|262:155|288:80,1,111.999996582031,0|8,0:0|0:0,0:0:0:0:
425,68,56075,2,0,P|401:118|354:147,1,111.999996582031,0|8,0:0|0:0,0:0:0:0:
197,44,56675,6,0,B|144:55|144:55|16:37,2,167.999994873047,2|0|2,0:0|0:0|0:0,0:0:0:0:
256,192,57875,1,2,0:0:0:0:
256,192,58475,1,2,0:0:0:0:
256,192,59075,6,0,L|256:316,1,111.999996582031,0|8,0:0|0:0,0:0:0:0:
256,304,59675,1,2,0:0:0:0:
256,304,59825,1,2,0:0:0:0:
256,304,59975,1,10,0:0:0:0:
402,234,60275,6,0,L|402:110,1,111.999996582031,0|8,0:0|0:0,0:0:0:0:
402,122,60875,1,2,0:0:0:0:
402,122,61025,1,2,0:0:0:0:
402,122,61175,1,10,0:0:0:0:
110,150,61475,6,0,L|110:274,1,111.999996582031,0|8,0:0|0:0,0:0:0:0:
110,262,62075,1,2,0:0:0:0:
110,262,62225,1,2,0:0:0:0:
110,262,62375,1,10,0:0:0:0:
256,344,62675,5,0,0:0:0:0:
355,198,62975,2,0,P|289:205|240:243,1,111.999996582031,8|4,0:0|0:0,0:0:0:0:
190,301,63575,1,10,0:0:0:0:
100,279,63875,6,0,P|154:215|261:239,1,191.999994140625,6|0,0:0|0:0,0:0:0:0:
306,311,64775,1,8,0:0:0:0:
384,255,65075,1,0,0:0:0:0:
384,255,65675,6,0,P|367:213|381:142,1,95.9999970703126,0|8,0:0|0:0,0:0:0:0:
305,92,66275,2,0,P|381:66|470:153,2,191.999994140625,2|0|0,0:0|0:0|0:0,0:0:0:0:
216,46,67775,1,8,0:0:0:0:
238,143,68075,2,0,P|192:144|144:113,1,95.9999970703126,2|0,0:0|0:0,0:0:0:0:
39,255,68675,6,0,B|60:228|57:191|57:191|133:180|153:109,1,191.999994140625,8|0,0:0|0:0,0:0:0:0:
201,205,69575,1,8,0:0:0:0:
201,205,69875,2,0,B|173:240|141:257|141:257|150:299|132:330|132:330,2,143.999995605469,12|8|8,0:0|0:0|0:0,0:0:0:0:
151,135,71075,6,0,B|220:94|309:156|273:239|273:239|320:200|320:200|368:246|451:217,1,383.99998828125,6|0,0:0|0:0,0:0:0:0:
392,128,72575,1,8,0:0:0:0:
491,170,72875,2,0,P|510:213|505:260,1,95.9999970703126,14|8,0:0|0:0,0:0:0:0:
438,329,73475,5,2,0:0:0:0:
346,301,73775,1,8,0:0:0:0:
259,342,74075,1,0,0:0:0:0:
259,342,74225,1,0,0:0:0:0:
259,342,74375,1,8,0:0:0:0:
259,342,74975,6,0,B|204:337|204:337|148:357,2,95.9999970703126,8|0|8,0:0|0:0|0:0,0:0:0:0:
175,261,75875,2,8,L|51:306,1,95.9999970703126,4|8,0:0|0:0,0:0:0:0:
259,261,76475,1,0,0:0:0:0:
259,261,76625,1,0,0:0:0:0:
259,261,76775,1,8,0:0:0:0:
313,195,77075,2,0,P|259:176|210:192,1,95.9999970703126,2|8,0:0|0:0,0:0:0:0:
136,226,77675,1,14,0:0:0:0:
136,226,77975,1,8,0:0:0:0:
259,261,78275,6,0,B|318:299|373:255|373:255|380:295|417:318,1,191.999994140625,6|0,0:0|0:0,0:0:0:0:
469,232,79175,1,8,0:0:0:0:
461,136,79475,2,0,P|371:118|312:188,2,191.999994140625,2|2|12,0:0|0:0|0:0,0:0:0:0:
469,232,80975,1,0,0:0:0:0:
426,328,81275,1,0,0:0:0:0:
426,328,81425,1,0,0:0:0:0:
426,328,81575,1,10,0:0:0:0:
373,250,81875,6,0,P|326:267|276:291,1,95.9999970703126
200,239,82475,1,14,0:0:0:0:
200,239,82625,1,0,0:0:0:0:
200,239,82775,1,8,0:0:0:0:
200,239,82925,1,0,0:0:0:0:
200,239,83075,1,6,0:0:0:0:
58,52,83975,5,0,0:0:0:0:
58,52,84125,1,0,0:0:0:0:
58,52,84275,2,0,P|128:41|189:116,1,160
105,123,85175,1,0,0:0:0:0:
242,28,85475,5,0,0:0:0:0:
269,24,85625,1,0,0:0:0:0:
296,32,85775,1,2,0:0:0:0:
317,51,85925,1,2,0:0:0:0:
443,162,86375,1,2,0:0:0:0:
499,99,86675,2,0,P|400:91|365:136,1,160,4|6,0:0|0:0,0:0:0:0:
283,132,87575,1,2,0:0:0:0:
231,193,87875,6,0,P|266:211|317:205,1,80,2|0,0:0|0:0,0:0:0:0:
379,206,88325,2,0,B|390:235|390:235|368:332,1,120
463,296,89075,2,0,L|446:374,1,80,0|2,0:0|0:0,0:0:0:0:
512,234,89525,2,0,B|487:212|462:215|462:215|494:181|482:135,1,120,2|2,0:0|0:0,0:0:0:0:
402,157,90275,5,2,0:0:0:0:
442,69,90575,1,8,0:0:0:0:
346,79,90875,1,2,0:0:0:0:
346,79,91025,1,0,0:0:0:0:
346,79,91175,1,8,0:0:0:0:
257,44,91475,2,0,P|250:93|289:157,1,111.999996582031,0|8,0:0|0:0,0:0:0:0:
389,280,92075,2,0,P|395:225|368:176,1,111.999996582031,0|8,0:0|0:0,0:0:0:0:
314,240,92525,5,0,0:0:0:0:
319,325,92675,2,0,P|397:364|471:296,2,167.999994873047,2|0|0,0:0|0:0|0:0,0:0:0:0:
213,363,93875,1,0,0:0:0:0:
229,252,94175,1,8,0:0:0:0:
129,302,94475,1,0,0:0:0:0:
129,302,94625,1,0,0:0:0:0:
129,302,94775,1,8,0:0:0:0:
129,302,95075,6,0,B|117:243|117:243|75:209|75:209|56:129,2,167.999994873047,6|0|0,0:0|0:0|0:0,0:0:0:0:
144,166,96275,2,0,L|120:56,1,111.999996582031,2|8,0:0|0:0,0:0:0:0:
221,244,96875,2,0,L|281:149,1,111.999996582031,2|8,0:0|0:0,0:0:0:0:
281,149,97325,5,2,0:0:0:0:
281,149,97475,2,0,P|334:160|382:133,1,111.999996582031,12|0,0:0|0:0,0:0:0:0:
321,77,98075,2,0,P|267:65|219:92,1,111.999996582031,2|0,0:0|0:0,0:0:0:0:
114,54,98675,2,0,L|136:203,1,111.999996582031,0|8,0:0|0:0,0:0:0:0:
130,164,99125,2,0,L|152:313,1,111.999996582031
146,274,99575,1,8,0:0:0:0:
121,371,99875,6,0,P|179:371|230:328,1,111.999996582031,0|8,0:0|0:0,0:0:0:0:
221,340,100475,1,2,0:0:0:0:
221,340,100625,1,0,0:0:0:0:
221,340,100775,1,8,0:0:0:0:
323,295,101075,2,0,L|441:316,1,111.999996582031,8|2,0:0|0:0,0:0:0:0:
512,196,101675,2,0,L|394:217,1,111.999996582031,8|2,0:0|0:0,0:0:0:0:
390,72,102275,6,0,L|221:102,1,143.999995605469,12|2,0:0|0:0,0:0:0:0:
178,184,102875,2,0,L|296:162,1,95.9999970703126,12|2,0:0|0:0,0:0:0:0:
390,72,103775,1,8,0:0:0:0:
272,167,104075,1,2,0:0:0:0:
38,129,104675,6,0,L|126:275,1,143.999995605469,12|2,0:0|0:0,0:0:0:0:
218,286,105275,2,0,L|156:183,1,95.9999970703126,12|2,0:0|0:0,0:0:0:0:
38,129,106175,1,8,0:0:0:0:
168,205,106475,1,2,0:0:0:0:
181,361,107075,6,0,L|349:330,1,143.999995605469,12|2,0:0|0:0,0:0:0:0:
393,249,107675,2,0,L|274:270,1,95.9999970703126,12|2,0:0|0:0,0:0:0:0:
181,361,108575,1,8,0:0:0:0:
299,266,108875,1,2,0:0:0:0:
200,96,109475,6,0,P|256:56|312:104,2,143.999995605469,6|4|4,0:0|0:0|0:0,0:0:0:0:
256,192,110675,12,6,111875,0:0:0:0:
