osu file format v14

[General]
AudioFilename: audio.mp3
AudioLeadIn: 0
PreviewTime: 87072
Countdown: 0
SampleSet: Soft
StackLeniency: 0.7
Mode: 0
LetterboxInBreaks: 0
WidescreenStoryboard: 1

[Editor]
Bookmarks: 20878,36362,50298,62685,75072,87459,112233,124620,137007,149394,174169,186575,198943,211330,223717,236104,248491,260878,274814,288749
DistanceSpacing: 0.6
BeatDivisor: 4
GridSize: 4
TimelineZoom: 3.099999

[Metadata]
Title:When The Sun Goes Down
TitleUnicode:When The Sun Goes Down
Artist:Ken Blast
ArtistUnicode:Ken Blast
Creator:Pyra
Version:Sunset
Source:Initial D
Tags:eurobeats english initial d the sun went down car streets anime girl
BeatmapID:3872108
BeatmapSetID:754161

[Difficulty]
HPDrainRate:6
CircleSize:4
OverallDifficulty:8.5
ApproachRate:9
SliderMultiplier:1.6
SliderTickRate:1

[Events]
//Background and Video events
0,0,"aikatsu-aoi-kiriya-wallpaper-1920x1080_48.jpg",0,0
//Break Periods
2,186756,196795
//Storyboard Layer 0 (Background)
//Storyboard Layer 1 (Fail)
//Storyboard Layer 2 (Pass)
//Storyboard Layer 3 (Foreground)
//Storyboard Layer 4 (Overlay)
//Storyboard Sound Samples

[TimingPoints]
17782,387.096774193548,4,2,1,30,1,0
20878,-100,4,2,1,60,0,0
23975,-100,4,2,1,40,0,0
36362,-100,4,2,1,60,0,0
50298,-100,4,2,1,60,0,0
62685,-125,4,2,1,40,0,0
75072,-125,4,2,1,50,0,0
85911,-100,4,2,1,60,0,0
87459,-83.3333333333333,4,2,1,70,0,1
110685,-1000,4,2,1,60,0,1
111846,-83.3333333333333,4,2,1,60,0,1
112233,-83.3333333333333,4,2,1,60,0,0
124620,-125,4,2,1,40,0,0
137007,-125,4,2,1,50,0,0
147846,-100,4,2,1,60,0,0
149394,-83.3333333333333,4,2,1,70,0,1
172620,-1000,4,2,1,60,0,1
173781,-83.3333333333333,4,2,1,60,0,1
174169,-83.3333333333333,4,2,1,60,0,0
198943,-100,4,2,1,50,0,0
211330,-83.3333333333333,4,2,1,70,0,1
223717,-100,4,2,1,60,0,0
236104,-100,4,2,1,50,0,0
248491,-83.3333333333333,4,2,1,70,0,1
259330,-1000,4,2,1,60,0,1
260878,-1000,4,2,1,40,0,0
262427,-125,4,2,1,40,0,0
274814,-100,4,2,1,60,0,0
285652,-1000,4,2,1,60,0,0
285749,-1000,4,2,1,5,0,0

[Colours]
Combo1 : 192,118,157
Combo2 : 35,121,167
Combo3 : 102,171,255
Combo4 : 189,96,200

[HitObjects]
256,192,18556,12,0,20685,0:0:0:0:
256,363,20878,5,4,0:0:0:0:
128,276,21072,1,0,0:0:0:0:
135,303,21169,1,0,0:0:0:0:
158,319,21266,1,4,0:0:0:0:
365,219,21459,1,0,0:0:0:0:
358,246,21556,1,0,0:0:0:0:
335,262,21653,1,4,0:0:0:0:
75,175,21846,1,0,0:0:0:0:
102,180,21943,1,0,0:0:0:0:
129,185,22040,1,4,0:0:0:0:
397,115,22233,1,0,0:0:0:0:
370,120,22330,1,0,0:0:0:0:
343,125,22427,1,4,0:0:0:0:
256,192,22524,12,0,23782,0:0:0:0:
46,96,23975,6,0,P|44:135|66:168,1,80,4|0,0:0|0:0,0:0:0:0:
210,225,24362,2,0,P|233:180|219:133,1,80
10,318,24749,2,0,L|187:299,1,160,8|0,0:0|0:0,0:0:0:0:
245,344,25330,1,0,0:0:0:0:
439,199,25524,6,0,P|489:153|491:55,1,160
432,4,26104,1,0,0:0:0:0:
299,115,26298,2,0,P|322:138|390:143,1,80,8|0,0:0|0:0,0:0:0:0:
440,305,26685,2,0,P|478:297|508:271,1,80
237,254,27072,6,0,B|190:256|169:292|169:292|150:325|103:328,1,160
21,295,27653,1,0,0:0:0:0:
166,151,27846,2,0,L|161:237,1,80,8|0,0:0|0:0,0:0:0:0:
48,99,28233,2,0,L|43:19,1,80
262,178,28620,6,0,P|324:172|383:84,1,160
334,24,29201,1,0,0:0:0:0:
454,155,29394,2,0,L|436:327,1,160,8|0,0:0|0:0,0:0:0:0:
494,380,29975,1,0,0:0:0:0:
356,264,30169,6,0,P|301:287|291:324,1,80,4|0,0:0|0:0,0:0:0:0:
106,343,30556,2,0,P|130:373|168:381,1,80
232,230,30943,2,0,L|249:57,1,160,8|0,0:0|0:0,0:0:0:0:
316,15,31524,1,0,0:0:0:0:
495,124,31717,6,0,B|448:126|427:162|427:162|408:195|361:198,1,160
282,157,32298,1,0,0:0:0:0:
436,303,32491,2,0,P|467:271|466:224,1,80,8|0,0:0|0:0,0:0:0:0:
309,319,32878,2,0,P|314:357|343:384,1,80
207,269,33266,6,0,P|104:255|51:219,1,160
3,157,33846,1,0,0:0:0:0:
212,261,34040,2,0,P|148:178|137:115,1,160,8|0,0:0|0:0,0:0:0:0:
146,37,34620,1,0,0:0:0:0:
220,252,34814,2,0,P|233:149|270:96,1,160
331,46,35394,1,0,0:0:0:0:
473,208,35588,2,0,L|461:300,1,80,8|0,0:0|0:0,0:0:0:0:
404,353,35975,1,0,0:0:0:0:
319,201,36169,1,0,0:0:0:0:
471,109,36362,6,0,P|412:108|344:27,1,160,4|2,0:0|0:0,0:0:0:0:
261,13,36943,1,0,0:0:0:0:
78,196,37137,2,0,P|137:195|205:114,1,160,2|2,0:0|0:0,0:0:0:0:
288,100,37718,1,0,0:0:0:0:
67,32,37911,6,0,L|76:118,1,80,2|0,0:0|0:0,0:0:0:0:
256,264,38298,2,0,L|264:184,1,80,2|0,0:0|0:0,0:0:0:0:
60,38,38685,2,0,L|69:124,1,80,2|0,0:0|0:0,0:0:0:0:
249,270,39072,2,0,L|257:190,1,80,2|0,0:0|0:0,0:0:0:0:
131,304,39459,5,2,0:0:0:0:
334,227,39653,1,0,0:0:0:0:
206,77,39846,1,2,0:0:0:0:
20,174,40040,2,0,P|50:207|93:210,1,80,0|2,0:0|0:0,0:0:0:0:
223,341,40427,2,0,P|261:333|286:302,1,80,0|2,0:0|0:0,0:0:0:0:
212,87,40814,6,0,P|180:154|184:250,1,160
209,323,41395,1,2,0:0:0:0:
209,323,41782,1,2,0:0:0:0:
474,136,42169,2,0,P|462:92|421:72,1,80,2|0,0:0|0:0,0:0:0:0:
281,203,42556,5,2,0:0:0:0:
353,251,42749,2,0,L|445:242,1,80,0|2,0:0|0:0,0:0:0:0:
292,358,43137,2,0,P|256:315|137:294,1,160
80,328,43717,1,2,0:0:0:0:
185,209,43911,6,0,L|191:122,1,80,0|2,0:0|0:0,0:0:0:0:
48,185,44298,1,0,0:0:0:0:
265,107,44491,1,2,0:0:0:0:
108,7,44685,2,0,L|113:86,1,80,0|2,0:0|0:0,0:0:0:0:
359,161,45072,2,0,L|364:81,1,80,0|2,0:0|0:0,0:0:0:0:
300,20,45459,1,0,0:0:0:0:
196,178,45653,6,0,P|219:219|260:226,1,80,2|0,0:0|0:0,0:0:0:0:
453,238,46040,2,0,P|416:251|400:287,1,80,2|0,0:0|0:0,0:0:0:0:
206,356,46427,2,0,B|159:354|138:318|138:318|119:285|72:282,1,160,2|2,0:0|0:0,0:0:0:0:
0,334,47008,1,0,0:0:0:0:
129,191,47201,5,6,0:0:0:0:
129,191,49911,1,8,0:0:0:0:
133,179,50008,1,8,0:0:0:0:
137,168,50104,1,8,0:0:0:0:
141,156,50201,1,8,0:0:0:0:
144,144,50298,6,0,P|134:123|101:113,1,40,4|0,0:0|0:0,0:0:0:0:
15,256,50491,1,0,0:0:0:0:
28,280,50588,1,0,0:0:0:0:
50,296,50685,2,0,P|79:308|100:305,1,40,8|0,0:0|0:0,0:0:0:0:
276,230,50878,2,0,L|281:139,1,80,0|2,0:0|0:0,0:0:0:0:
384,326,51266,1,0,0:0:0:0:
185,249,51459,1,8,0:0:0:0:
300,64,51653,1,0,0:0:0:0:
400,284,51846,6,0,P|401:303|391:320,1,40,2|0,0:0|0:0,0:0:0:0:
180,364,52040,1,0,0:0:0:0:
200,339,52137,1,0,0:0:0:0:
230,329,52233,2,0,L|291:333,1,40,8|0,0:0|0:0,0:0:0:0:
437,189,52427,2,0,L|358:197,1,80,0|2,0:0|0:0,0:0:0:0:
196,245,52814,1,0,0:0:0:0:
288,70,53008,1,8,0:0:0:0:
446,193,53201,1,0,0:0:0:0:
191,137,53395,6,0,L|145:140,1,40,2|0,0:0|0:0,0:0:0:0:
13,26,53588,1,0,0:0:0:0:
41,41,53685,1,0,0:0:0:0:
62,65,53782,2,0,P|70:97|65:117,1,40,8|0,0:0|0:0,0:0:0:0:
179,243,53975,2,0,P|158:296|116:308,1,80,0|2,0:0|0:0,0:0:0:0:
21,370,54362,1,0,0:0:0:0:
241,312,54556,1,8,0:0:0:0:
94,183,54749,1,0,0:0:0:0:
21,370,54943,5,2,0:0:0:0:
52,364,55040,1,0,0:0:0:0:
83,358,55137,1,0,0:0:0:0:
278,235,55330,5,8,0:0:0:0:
247,229,55427,1,0,0:0:0:0:
216,223,55524,1,0,0:0:0:0:
97,72,55717,5,2,0:0:0:0:
128,66,55814,1,0,0:0:0:0:
159,60,55911,1,0,0:0:0:0:
402,198,56104,5,8,0:0:0:0:
433,191,56201,1,0,0:0:0:0:
455,168,56298,1,0,0:0:0:0:
465,137,56395,1,0,0:0:0:0:
465,105,56491,6,0,L|458:55,1,40,4|0,0:0|0:0,0:0:0:0:
274,53,56685,1,0,0:0:0:0:
280,84,56782,1,0,0:0:0:0:
297,109,56878,2,0,P|312:121|338:128,1,40,8|0,0:0|0:0,0:0:0:0:
492,267,57072,2,0,L|408:282,1,80,0|2,0:0|0:0,0:0:0:0:
313,374,57459,1,0,0:0:0:0:
506,277,57653,1,8,0:0:0:0:
400,120,57846,1,0,0:0:0:0:
290,331,58040,6,0,P|298:367|315:382,1,40,2|0,0:0|0:0,0:0:0:0:
499,283,58233,1,0,0:0:0:0:
493,247,58330,1,0,0:0:0:0:
488,211,58427,2,0,L|482:163,1,40,8|0,0:0|0:0,0:0:0:0:
267,217,58620,2,0,P|314:245|367:237,1,80,0|2,0:0|0:0,0:0:0:0:
474,95,59008,1,0,0:0:0:0:
257,208,59201,1,8,0:0:0:0:
438,333,59395,1,0,0:0:0:0:
350,112,59588,6,0,L|354:66,1,40,2|0,0:0|0:0,0:0:0:0:
163,206,59782,1,0,0:0:0:0:
167,241,59878,1,0,0:0:0:0:
188,270,59975,2,0,P|208:287|245:284,1,40,8|0,0:0|0:0,0:0:0:0:
263,91,60169,2,0,L|171:106,1,80,0|2,0:0|0:0,0:0:0:0:
42,145,60556,1,0,0:0:0:0:
257,208,60749,1,8,0:0:0:0:
172,20,60943,1,0,0:0:0:0:
71,240,61137,5,2,0:0:0:0:
77,275,61233,1,0,0:0:0:0:
84,310,61330,1,0,0:0:0:0:
266,117,61524,5,8,0:0:0:0:
273,82,61621,1,0,0:0:0:0:
279,47,61717,1,0,0:0:0:0:
36,130,61911,5,2,0:0:0:0:
71,136,62007,1,0,0:0:0:0:
106,143,62104,1,0,0:0:0:0:
326,283,62298,5,8,0:0:0:0:
361,277,62394,1,8,0:0:0:0:
396,270,62491,1,8,0:0:0:0:
431,264,62588,1,8,0:0:0:0:
466,258,62685,6,0,P|489:238|499:208,1,64,4|0,0:0|0:0,0:0:0:0:
333,129,63072,2,0,P|343:159|366:179,1,64,2|0,0:0|0:0,0:0:0:0:
490,20,63459,2,0,P|450:44|362:48,1,128,2|2,0:0|0:0,0:0:0:0:
292,12,64040,1,0,0:0:0:0:
171,121,64233,6,0,L|184:191,1,64,2|0,0:0|0:0,0:0:0:0:
279,285,64620,2,0,L|290:222,1,64,2|0,0:0|0:0,0:0:0:0:
120,271,65008,1,2,0:0:0:0:
266,373,65201,2,0,P|308:367|330:337,1,64,0|2,0:0|0:0,0:0:0:0:
195,299,65588,6,0,B|158:292|137:320|137:320|118:347|81:342,1,128
18,214,66169,2,0,L|28:284,1,64,2|0,0:0|0:0,0:0:0:0:
163,134,66556,2,0,L|172:70,1,64,2|0,0:0|0:0,0:0:0:0:
5,132,66943,1,2,0:0:0:0:
151,214,67137,1,0,0:0:0:0:
86,10,67330,6,0,P|113:57|187:79,1,128,2|2,0:0|0:0,0:0:0:0:
257,50,67911,1,0,0:0:0:0:
416,148,68104,2,0,L|420:77,1,64,2|0,0:0|0:0,0:0:0:0:
372,15,68491,1,2,0:0:0:0:
242,292,68685,5,0,0:0:0:0:
266,329,68782,1,0,0:0:0:0:
306,347,68878,2,0,P|331:344|375:300,1,64,4|0,0:0|0:0,0:0:0:0:
510,271,69266,2,0,P|484:252|453:246,1,64,2|0,0:0|0:0,0:0:0:0:
253,138,69653,2,0,P|263:196|321:237,1,128,2|2,0:0|0:0,0:0:0:0:
387,182,70233,1,0,0:0:0:0:
196,82,70427,6,0,L|118:92,1,64,2|0,0:0|0:0,0:0:0:0:
387,167,70814,2,0,L|465:177,1,64,2|0,0:0|0:0,0:0:0:0:
303,30,71201,1,2,0:0:0:0:
221,198,71395,2,0,P|262:180|269:150,1,64,0|2,0:0|0:0,0:0:0:0:
32,45,71782,6,0,L|49:186,1,128
151,272,72362,2,0,P|127:242|89:235,1,64,2|0,0:0|0:0,0:0:0:0:
0,339,72749,2,0,P|24:369|62:376,1,64,2|0,0:0|0:0,0:0:0:0:
225,299,73137,1,2,0:0:0:0:
93,235,73330,1,0,0:0:0:0:
256,380,73524,6,0,P|272:377|286:361,1,32,2|0,0:0|0:0,0:0:0:0:
321,299,73717,2,0,L|311:218,1,64,4|0,0:0|0:0,0:0:0:0:
466,72,74104,2,0,L|458:135,1,64,4|0,0:0|0:0,0:0:0:0:
246,177,74491,2,0,P|200:166|153:77,1,128,4|0,0:0|0:0,0:0:0:0:
201,34,75072,5,4,0:0:0:0:
79,159,75266,1,0,0:0:0:0:
10,112,75459,2,0,L|16:46,1,64,2|0,0:0|0:0,0:0:0:0:
156,233,75846,2,0,L|161:296,1,64,2|0,0:0|0:0,0:0:0:0:
30,212,76233,1,2,0:0:0:0:
203,140,76427,1,0,0:0:0:0:
131,382,76620,5,2,0:0:0:0:
157,303,76814,2,0,P|179:281|209:271,1,64,0|2,0:0|0:0,0:0:0:0:
323,125,77201,2,0,P|332:155|326:186,1,64,0|2,0:0|0:0,0:0:0:0:
405,361,77588,2,0,P|374:354|350:333,1,64,0|2,0:0|0:0,0:0:0:0:
187,179,77975,1,0,0:0:0:0:
402,206,78169,5,2,0:0:0:0:
210,285,78362,1,0,0:0:0:0:
250,93,78556,2,0,L|244:8,1,64,2|0,0:0|0:0,0:0:0:0:
415,137,78943,2,0,L|410:200,1,64,2|0,0:0|0:0,0:0:0:0:
346,346,79330,1,2,0:0:0:0:
491,270,79524,1,0,0:0:0:0:
326,129,79717,5,2,0:0:0:0:
256,175,79911,2,0,P|244:227|260:257,1,64,0|2,0:0|0:0,0:0:0:0:
134,355,80298,2,0,P|146:303|130:273,1,64,0|2,0:0|0:0,0:0:0:0:
78,181,80685,2,0,L|2:191,1,64,0|2,0:0|0:0,0:0:0:0:
259,331,81072,6,0,P|302:318|341:233,1,128
198,82,81653,2,0,P|164:116|169:147,1,64,2|0,0:0|0:0,0:0:0:0:
32,317,82040,1,2,0:0:0:0:
95,369,82233,2,0,L|173:361,1,64,0|2,0:0|0:0,0:0:0:0:
301,170,82620,6,0,B|263:166|245:195|245:195|228:224|191:222,1,128
113,194,83201,1,2,0:0:0:0:
28,320,83395,2,0,L|36:395,1,64,0|2,0:0|0:0,0:0:0:0:
117,184,83782,2,0,L|123:120,1,64,0|2,0:0|0:0,0:0:0:0:
1,250,84169,6,0,P|36:295|117:303,1,128
246,160,84749,1,2,0:0:0:0:
114,301,84943,2,0,L|126:377,1,64,0|2,0:0|0:0,0:0:0:0:
246,146,85330,2,0,L|255:82,1,64,0|2,0:0|0:0,0:0:0:0:
88,213,85717,1,0,0:0:0:0:
469,363,85911,6,0,P|484:352|485:319,1,40,8|0,0:0|0:0,0:0:0:0:
369,188,86104,1,8,0:0:0:0:
342,197,86201,1,8,0:0:0:0:
325,220,86298,2,0,P|328:242|338:257,1,40,8|0,0:0|0:0,0:0:0:0:
403,312,86491,1,8,0:0:0:0:
481,95,86685,1,8,0:0:0:0:
481,95,87072,2,0,L|489:5,1,80,8|0,0:0|0:0,0:0:0:0:
162,235,87459,6,0,P|166:282|197:317,1,95.9999970703126,4|0,0:0|0:0,0:0:0:0:
227,332,87749,1,0,0:0:0:0:
260,332,87846,1,8,0:0:0:0:
412,218,88040,1,0,0:0:0:0:
206,120,88233,2,0,L|102:133,1,95.9999970703126,2|0,0:0|0:0,0:0:0:0:
78,143,88524,1,0,0:0:0:0:
58,170,88620,2,0,P|68:210|101:223,1,47.9999985351563,8|0,0:0|0:0,0:0:0:0:
150,248,88814,1,0,0:0:0:0:
305,58,89008,5,2,0:0:0:0:
394,184,89201,1,0,0:0:0:0:
421,164,89298,1,0,0:0:0:0:
426,130,89395,1,8,0:0:0:0:
277,285,89588,1,0,0:0:0:0:
250,265,89685,1,0,0:0:0:0:
245,231,89782,2,0,L|352:246,1,95.9999970703126,2|0,0:0|0:0,0:0:0:0:
512,360,90169,2,0,L|405:375,1,95.9999970703126,8|0,0:0|0:0,0:0:0:0:
159,256,90556,6,0,P|131:212|146:159,1,95.9999970703126,2|0,0:0|0:0,0:0:0:0:
157,143,90846,1,0,0:0:0:0:
186,127,90943,1,8,0:0:0:0:
348,238,91137,1,0,0:0:0:0:
194,369,91330,2,0,L|91:355,1,95.9999970703126,2|0,0:0|0:0,0:0:0:0:
65,349,91620,1,0,0:0:0:0:
39,327,91717,2,0,P|28:296|38:269,1,47.9999985351563,8|0,0:0|0:0,0:0:0:0:
91,229,91911,1,0,0:0:0:0:
271,318,92104,5,2,0:0:0:0:
202,173,92298,1,0,0:0:0:0:
170,160,92395,1,0,0:0:0:0:
139,147,92491,1,8,0:0:0:0:
361,265,92685,1,0,0:0:0:0:
393,252,92782,1,0,0:0:0:0:
424,239,92878,2,0,P|457:213|468:152,1,95.9999970703126,2|0,0:0|0:0,0:0:0:0:
226,43,93266,2,0,P|235:89|271:119,1,95.9999970703126,8|0,0:0|0:0,0:0:0:0:
512,41,93653,6,0,L|397:47,1,95.9999970703126,2|0,0:0|0:0,0:0:0:0:
384,58,93943,1,0,0:0:0:0:
366,86,94040,1,8,0:0:0:0:
497,240,94233,1,0,0:0:0:0:
234,257,94427,2,0,P|258:309|301:325,1,95.9999970703126,2|0,0:0|0:0,0:0:0:0:
323,331,94717,1,0,0:0:0:0:
355,321,94814,2,0,L|367:260,1,47.9999985351563,8|0,0:0|0:0,0:0:0:0:
332,197,95008,1,0,0:0:0:0:
136,340,95201,5,2,0:0:0:0:
48,196,95395,1,0,0:0:0:0:
37,227,95491,1,0,0:0:0:0:
26,259,95588,1,8,0:0:0:0:
214,153,95782,1,0,0:0:0:0:
203,121,95879,1,0,0:0:0:0:
191,89,95975,2,0,P|169:48|125:32,1,95.9999970703126,2|0,0:0|0:0,0:0:0:0:
200,250,96362,2,0,P|246:251|282:220,1,95.9999970703126,8|0,0:0|0:0,0:0:0:0:
9,106,96749,5,2,0:0:0:0:
102,276,96943,1,0,0:0:0:0:
137,29,97137,1,8,0:0:0:0:
2,202,97330,2,0,B|32:213|32:213|109:188,1,95.9999970703126,0|2,0:0|0:0,0:0:0:0:
302,70,97717,2,0,B|272:59|272:59|195:84,1,95.9999970703126,0|8,0:0|0:0,0:0:0:0:
117,276,98104,1,0,0:0:0:0:
300,365,98298,6,0,L|310:253,1,95.9999970703126,2|0,0:0|0:0,0:0:0:0:
302,236,98588,1,0,0:0:0:0:
274,216,98685,1,8,0:0:0:0:
200,343,98878,1,0,0:0:0:0:
406,287,99072,1,2,0:0:0:0:
251,132,99266,1,0,0:0:0:0:
462,40,99459,2,0,P|483:57|486:92,1,47.9999985351563,8|0,0:0|0:0,0:0:0:0:
456,159,99653,1,0,0:0:0:0:
456,159,99749,1,0,0:0:0:0:
456,159,99846,6,0,L|351:144,1,95.9999970703126,4|0,0:0|0:0,0:0:0:0:
336,122,100137,1,0,0:0:0:0:
331,88,100233,1,8,0:0:0:0:
500,0,100427,1,0,0:0:0:0:
427,238,100620,2,0,L|417:339,1,95.9999970703126,2|0,0:0|0:0,0:0:0:0:
396,360,100911,1,0,0:0:0:0:
362,367,101008,2,0,P|339:362|322:345,1,47.9999985351563,8|0,0:0|0:0,0:0:0:0:
300,268,101201,1,0,0:0:0:0:
372,59,101395,5,2,0:0:0:0:
510,138,101588,1,0,0:0:0:0:
476,133,101685,1,0,0:0:0:0:
442,128,101782,1,8,0:0:0:0:
230,195,101975,1,0,0:0:0:0:
264,190,102072,1,0,0:0:0:0:
298,184,102169,2,0,P|343:195|372:233,1,95.9999970703126,2|0,0:0|0:0,0:0:0:0:
512,335,102556,2,0,P|483:372|437:383,1,95.9999970703126,8|0,0:0|0:0,0:0:0:0:
210,273,102943,6,0,L|107:279,1,95.9999970703126,2|0,0:0|0:0,0:0:0:0:
82,290,103233,1,0,0:0:0:0:
62,317,103330,1,8,0:0:0:0:
321,359,103524,1,0,0:0:0:0:
206,178,103717,2,0,P|194:124|153:97,1,95.9999970703126,2|0,0:0|0:0,0:0:0:0:
131,90,104007,1,0,0:0:0:0:
97,93,104104,2,0,P|65:106|54:126,1,47.9999985351563,8|0,0:0|0:0,0:0:0:0:
34,192,104297,1,0,0:0:0:0:
261,25,104491,5,2,0:0:0:0:
356,167,104685,1,0,0:0:0:0:
382,146,104782,1,0,0:0:0:0:
386,112,104878,1,8,0:0:0:0:
185,194,105072,1,0,0:0:0:0:
189,228,105168,1,0,0:0:0:0:
215,249,105266,2,0,L|327:260,1,95.9999970703126,2|0,0:0|0:0,0:0:0:0:
476,94,105653,2,0,L|364:105,1,95.9999970703126,8|0,0:0|0:0,0:0:0:0:
140,33,106040,5,2,0:0:0:0:
110,48,106137,1,0,0:0:0:0:
99,79,106233,1,0,0:0:0:0:
239,161,106427,1,8,0:0:0:0:
32,205,106620,2,0,P|74:243|138:233,1,95.9999970703126,0|2,0:0|0:0,0:0:0:0:
329,128,107008,2,0,L|338:73,1,47.9999985351563
297,10,107201,1,8,0:0:0:0:
205,256,107395,6,0,L|215:355,1,95.9999970703126,0|2,0:0|0:0,0:0:0:0:
486,248,107782,1,0,0:0:0:0:
479,280,107878,1,0,0:0:0:0:
452,301,107975,2,0,P|428:318|391:309,1,47.9999985351563,8|0,0:0|0:0,0:0:0:0:
326,307,108169,2,0,P|298:290|334:299,1,95.9999970703126,0|2,0:0|0:0,0:0:0:0:
462,133,108556,2,0,P|497:126|472:152,1,95.9999970703126,0|8,0:0|0:0,0:0:0:0:
265,108,108943,2,0,P|241:96|220:55,1,47.9999985351563
203,1,109137,5,4,0:0:0:0:
81,191,109330,1,0,0:0:0:0:
70,159,109427,1,0,0:0:0:0:
59,127,109524,1,4,0:0:0:0:
341,253,109717,1,0,0:0:0:0:
352,221,109814,1,0,0:0:0:0:
363,189,109911,1,4,0:0:0:0:
82,310,110104,1,0,0:0:0:0:
51,295,110201,1,0,0:0:0:0:
20,280,110298,1,4,0:0:0:0:
379,384,110491,1,0,0:0:0:0:
410,369,110588,1,0,0:0:0:0:
441,354,110685,6,0,L|484:336,1,44,4|0,0:0|0:0,0:0:0:0:
497,339,111846,2,0,P|512:320|509:289,1,47.9999985351563,8|8,0:0|0:0,0:0:0:0:
451,224,112040,2,0,P|436:243|439:274,1,47.9999985351563,8|8,0:0|0:0,0:0:0:0:
279,277,112233,6,0,L|198:284,1,47.9999985351563,4|0,0:0|0:0,0:0:0:0:
43,322,112427,1,0,0:0:0:0:
66,346,112524,1,0,0:0:0:0:
99,347,112620,2,0,P|122:341|141:326,1,47.9999985351563,8|0,0:0|0:0,0:0:0:0:
206,185,112814,2,0,L|216:78,1,95.9999970703126,0|2,0:0|0:0,0:0:0:0:
116,222,113201,1,0,0:0:0:0:
291,147,113395,1,8,0:0:0:0:
177,14,113588,1,0,0:0:0:0:
19,134,113782,6,0,P|26:167|52:182,1,47.9999985351563,2|0,0:0|0:0,0:0:0:0:
151,310,113975,1,0,0:0:0:0:
183,300,114072,1,0,0:0:0:0:
209,279,114169,2,0,P|223:260|225:237,1,47.9999985351563,8|0,0:0|0:0,0:0:0:0:
110,119,114362,2,0,L|123:214,1,95.9999970703126,0|2,0:0|0:0,0:0:0:0:
233,368,114749,1,0,0:0:0:0:
29,277,114943,1,8,0:0:0:0:
198,136,115137,1,0,0:0:0:0:
44,285,115330,6,0,L|56:338,1,47.9999985351563,2|0,0:0|0:0,0:0:0:0:
248,378,115524,1,0,0:0:0:0:
279,368,115620,1,0,0:0:0:0:
301,342,115717,2,0,L|311:295,1,47.9999985351563,8|0,0:0|0:0,0:0:0:0:
479,154,115911,2,0,P|432:185|423:231,1,95.9999970703126,0|2,0:0|0:0,0:0:0:0:
462,363,116298,1,0,0:0:0:0:
301,282,116491,1,8,0:0:0:0:
394,100,116685,1,0,0:0:0:0:
471,358,116878,5,2,0:0:0:0:
477,325,116975,1,0,0:0:0:0:
483,292,117072,1,0,0:0:0:0:
277,193,117266,5,8,0:0:0:0:
283,226,117363,1,0,0:0:0:0:
289,259,117460,1,0,0:0:0:0:
409,93,117653,5,2,0:0:0:0:
415,60,117750,1,0,0:0:0:0:
421,27,117847,1,0,0:0:0:0:
185,294,118040,5,8,0:0:0:0:
152,286,118137,1,8,0:0:0:0:
124,266,118233,1,8,0:0:0:0:
106,237,118330,1,8,0:0:0:0:
105,203,118427,6,0,L|113:146,1,47.9999985351563,4|0,0:0|0:0,0:0:0:0:
286,43,118620,1,0,0:0:0:0:
264,69,118717,1,0,0:0:0:0:
232,82,118814,2,0,P|202:87|172:70,1,47.9999985351563,8|0,0:0|0:0,0:0:0:0:
13,17,119008,2,0,P|72:52|82:96,1,95.9999970703126,0|2,0:0|0:0,0:0:0:0:
209,206,119395,1,0,0:0:0:0:
1,124,119588,1,8,0:0:0:0:
160,0,119782,1,0,0:0:0:0:
216,218,119975,6,0,P|211:253|181:279,1,47.9999985351563,2|0,0:0|0:0,0:0:0:0:
58,376,120169,1,0,0:0:0:0:
32,354,120266,1,0,0:0:0:0:
17,324,120362,2,0,P|9:313|6:271,1,47.9999985351563,8|0,0:0|0:0,0:0:0:0:
170,355,120556,2,0,L|275:342,1,95.9999970703126,0|2,0:0|0:0,0:0:0:0:
453,243,120943,1,0,0:0:0:0:
341,384,121137,1,8,0:0:0:0:
256,158,121330,1,0,0:0:0:0:
456,362,121524,6,0,P|479:348|494:312,1,47.9999985351563,2|0,0:0|0:0,0:0:0:0:
348,177,121717,1,0,0:0:0:0:
325,201,121814,1,0,0:0:0:0:
321,234,121911,2,0,P|334:253|355:265,1,47.9999985351563,8|0,0:0|0:0,0:0:0:0:
492,121,122104,2,0,L|482:13,1,95.9999970703126,0|2,0:0|0:0,0:0:0:0:
443,229,122491,1,0,0:0:0:0:
291,47,122685,1,8,0:0:0:0:
506,132,122878,1,0,0:0:0:0:
179,217,123072,5,2,0:0:0:0:
148,203,123169,1,0,0:0:0:0:
135,171,123266,1,0,0:0:0:0:
284,313,123459,5,8,0:0:0:0:
287,346,123556,1,0,0:0:0:0:
266,374,123653,1,0,0:0:0:0:
321,174,123846,5,2,0:0:0:0:
348,154,123943,1,0,0:0:0:0:
382,158,124040,1,0,0:0:0:0:
175,318,124233,5,8,0:0:0:0:
142,325,124330,1,8,0:0:0:0:
109,332,124427,1,8,0:0:0:0:
76,339,124524,1,8,0:0:0:0:
43,346,124620,6,0,P|21:319|22:269,1,64,4|0,0:0|0:0,0:0:0:0:
145,170,125008,2,0,P|138:201|118:225,1,64,2|0,0:0|0:0,0:0:0:0:
26,42,125395,1,2,0:0:0:0:
86,98,125588,2,0,L|157:86,1,64,0|2,0:0|0:0,0:0:0:0:
353,160,125975,6,0,P|297:143|258:76,1,128
436,119,126556,2,0,L|445:191,1,64,2|0,0:0|0:0,0:0:0:0:
326,363,126943,1,2,0:0:0:0:
262,300,127137,2,0,L|269:236,1,64,0|2,0:0|0:0,0:0:0:0:
498,249,127524,6,0,P|475:285|383:302,1,128
331,355,128104,2,0,P|304:341|290:312,1,64,2|0,0:0|0:0,0:0:0:0:
361,161,128491,2,0,P|388:175|402:204,1,64,2|0,0:0|0:0,0:0:0:0:
214,307,128878,1,2,0:0:0:0:
279,124,129072,1,0,0:0:0:0:
142,32,129266,6,0,L|154:166,1,128,2|2,0:0|0:0,0:0:0:0:
108,236,129846,1,0,0:0:0:0:
16,106,130040,2,0,P|23:82|65:54,1,64,2|0,0:0|0:0,0:0:0:0:
135,36,130427,1,2,0:0:0:0:
306,274,130620,5,0,0:0:0:0:
293,310,130717,1,0,0:0:0:0:
261,331,130814,2,0,L|174:338,1,64,4|0,0:0|0:0,0:0:0:0:
37,224,131201,2,0,L|100:229,1,64,2|0,0:0|0:0,0:0:0:0:
197,57,131588,1,2,0:0:0:0:
260,113,131782,2,0,P|264:175|252:192,1,64,0|2,0:0|0:0,0:0:0:0:
22,356,132169,6,0,P|68:311|153:306,1,128
375,353,132749,2,0,P|350:375|301:382,1,64
173,207,133137,1,2,0:0:0:0:
236,258,133330,2,0,L|245:338,1,64,0|2,0:0|0:0,0:0:0:0:
403,193,133717,6,0,L|413:57,1,128
270,144,134298,2,0,P|294:180|334:185,1,64,2|0,0:0|0:0,0:0:0:0:
503,255,134685,2,0,P|472:261|451:285,1,64,2|0,0:0|0:0,0:0:0:0:
285,381,135072,1,2,0:0:0:0:
359,268,135266,1,0,0:0:0:0:
140,205,135459,6,0,L|134:236,1,32,2|0,0:0|0:0,0:0:0:0:
94,302,135653,2,0,P|114:328|169:335,1,64,4|0,0:0|0:0,0:0:0:0:
305,197,136040,2,0,P|334:185|353:160,1,64,4|0,0:0|0:0,0:0:0:0:
60,30,136427,2,0,L|72:167,1,128,4|0,0:0|0:0,0:0:0:0:
29,230,137008,5,4,0:0:0:0:
161,61,137201,1,0,0:0:0:0:
231,104,137395,2,0,L|223:174,1,64,2|0,0:0|0:0,0:0:0:0:
87,364,137782,2,0,L|79:300,1,64,2|0,0:0|0:0,0:0:0:0:
0,122,138169,1,2,0:0:0:0:
171,252,138362,1,0,0:0:0:0:
101,32,138556,5,2,0:0:0:0:
131,110,138750,2,0,P|153:132|193:138,1,64,0|2,0:0|0:0,0:0:0:0:
295,291,139137,2,0,P|303:260|288:223,1,64,0|2,0:0|0:0,0:0:0:0:
369,67,139524,2,0,P|338:75|313:106,1,64,0|2,0:0|0:0,0:0:0:0:
186,259,139911,1,0,0:0:0:0:
423,322,140104,5,2,0:0:0:0:
309,109,140298,1,0,0:0:0:0:
217,384,140491,2,0,L|299:377,1,64,2|0,0:0|0:0,0:0:0:0:
512,231,140878,2,0,L|430:224,1,64,2|0,0:0|0:0,0:0:0:0:
293,115,141266,1,2,0:0:0:0:
357,276,141459,1,0,0:0:0:0:
150,351,141653,5,2,0:0:0:0:
80,305,141847,2,0,P|68:253|84:223,1,64,0|2,0:0|0:0,0:0:0:0:
306,123,142234,2,0,P|309:154|296:183,1,64,0|2,0:0|0:0,0:0:0:0:
84,153,142621,2,0,L|8:163,1,64,0|2,0:0|0:0,0:0:0:0:
278,279,143008,6,0,L|421:291,1,128
225,204,143588,2,0,P|197:222|190:259,1,64,2|0,0:0|0:0,0:0:0:0:
379,374,143975,1,2,0:0:0:0:
460,356,144169,2,0,P|488:338|495:301,1,64,0|2,0:0|0:0,0:0:0:0:
395,65,144556,6,0,B|357:61|339:90|339:90|322:119|285:117,1,128
211,78,145137,1,2,0:0:0:0:
368,217,145330,2,0,P|396:194|400:160,1,64,0|2,0:0|0:0,0:0:0:0:
215,310,145717,2,0,P|223:340|248:358,1,64,0|2,0:0|0:0,0:0:0:0:
83,167,146104,6,0,P|81:110|54:27,1,128
0,269,146685,1,2,0:0:0:0:
228,146,146878,2,0,P|187:123|156:125,1,64,0|2,0:0|0:0,0:0:0:0:
12,275,147266,2,0,P|43:269|69:251,1,64,0|2,0:0|0:0,0:0:0:0:
221,46,147653,1,0,0:0:0:0:
451,197,147846,6,0,L|456:157,1,40,8|0,0:0|0:0,0:0:0:0:
303,256,148040,1,8,0:0:0:0:
280,273,148137,1,8,0:0:0:0:
268,298,148233,2,0,L|273:337,1,40,8|0,0:0|0:0,0:0:0:0:
344,384,148427,1,8,0:0:0:0:
403,81,148620,1,8,0:0:0:0:
403,81,149008,2,0,L|413:-4,1,80,8|0,0:0|0:0,0:0:0:0:
162,235,149395,6,0,P|166:282|197:317,1,95.9999970703126,4|0,0:0|0:0,0:0:0:0:
227,332,149685,1,0,0:0:0:0:
260,332,149782,1,8,0:0:0:0:
441,206,149976,1,0,0:0:0:0:
220,137,150169,2,0,L|116:124,1,95.9999970703126,2|0,0:0|0:0,0:0:0:0:
92,114,150460,1,0,0:0:0:0:
72,87,150556,2,0,P|82:47|115:34,1,47.9999985351563,8|0,0:0|0:0,0:0:0:0:
164,9,150750,1,0,0:0:0:0:
33,220,150944,5,2,0:0:0:0:
247,374,151137,1,0,0:0:0:0:
274,354,151234,1,0,0:0:0:0:
279,320,151331,1,8,0:0:0:0:
143,216,151524,1,0,0:0:0:0:
116,236,151621,1,0,0:0:0:0:
111,270,151718,2,0,L|218:255,1,95.9999970703126,2|0,0:0|0:0,0:0:0:0:
479,168,152105,2,0,L|372:153,1,95.9999970703126,8|0,0:0|0:0,0:0:0:0:
209,20,152492,6,0,P|181:64|196:117,1,95.9999970703126,2|0,0:0|0:0,0:0:0:0:
207,133,152782,1,0,0:0:0:0:
236,149,152879,1,8,0:0:0:0:
442,267,153073,1,0,0:0:0:0:
194,369,153266,2,0,L|91:355,1,95.9999970703126,2|0,0:0|0:0,0:0:0:0:
65,349,153556,1,0,0:0:0:0:
39,327,153653,2,0,P|28:296|38:269,1,47.9999985351563,8|0,0:0|0:0,0:0:0:0:
91,229,153847,1,0,0:0:0:0:
317,342,154040,5,2,0:0:0:0:
235,150,154234,1,0,0:0:0:0:
204,164,154331,1,0,0:0:0:0:
195,196,154427,1,8,0:0:0:0:
488,259,154621,1,0,0:0:0:0:
481,226,154718,1,0,0:0:0:0:
453,207,154814,2,0,P|420:233|409:294,1,95.9999970703126,2|0,0:0|0:0,0:0:0:0:
309,137,155201,2,0,P|299:90|263:60,1,95.9999970703126,8|0,0:0|0:0,0:0:0:0:
0,343,155589,6,0,L|115:337,1,95.9999970703126,2|0,0:0|0:0,0:0:0:0:
128,326,155879,1,0,0:0:0:0:
146,298,155976,1,8,0:0:0:0:
26,106,156169,1,0,0:0:0:0:
250,218,156362,6,0,L|365:224,1,95.9999970703126,2|0,0:0|0:0,0:0:0:0:
378,235,156652,1,0,0:0:0:0:
396,263,156749,2,0,P|395:295|371:318,1,47.9999985351563,8|0,0:0|0:0,0:0:0:0:
320,358,156943,1,0,0:0:0:0:
179,91,157137,5,2,0:0:0:0:
48,261,157331,1,0,0:0:0:0:
37,230,157427,1,0,0:0:0:0:
26,198,157524,1,8,0:0:0:0:
295,148,157717,1,0,0:0:0:0:
306,117,157813,1,0,0:0:0:0:
317,85,157911,2,0,P|297:40|236:23,1,95.9999970703126,2|0,0:0|0:0,0:0:0:0:
110,162,158298,2,0,P|130:207|191:224,1,95.9999970703126,8|0,0:0|0:0,0:0:0:0:
422,172,158685,5,2,0:0:0:0:
269,24,158879,1,0,0:0:0:0:
193,300,159073,1,8,0:0:0:0:
426,162,159266,2,0,B|396:151|396:151|319:176,1,95.9999970703126,0|2,0:0|0:0,0:0:0:0:
188,309,159653,2,0,B|218:320|218:320|295:295,1,95.9999970703126,0|8,0:0|0:0,0:0:0:0:
485,226,160040,1,0,0:0:0:0:
231,70,160234,6,0,L|241:182,1,95.9999970703126,2|0,0:0|0:0,0:0:0:0:
233,199,160524,1,0,0:0:0:0:
205,219,160621,1,8,0:0:0:0:
24,145,160814,1,0,0:0:0:0:
127,315,161008,1,2,0:0:0:0:
223,69,161202,1,0,0:0:0:0:
116,323,161395,2,0,P|123:345|142:359,1,47.9999985351563,8|0,0:0|0:0,0:0:0:0:
230,384,161589,1,0,0:0:0:0:
230,384,161685,1,0,0:0:0:0:
230,384,161782,6,0,L|335:369,1,95.9999970703126,4|0,0:0|0:0,0:0:0:0:
358,364,162073,1,0,0:0:0:0:
391,360,162169,1,8,0:0:0:0:
482,160,162363,1,0,0:0:0:0:
180,218,162556,2,0,L|79:208,1,95.9999970703126,2|0,0:0|0:0,0:0:0:0:
58,187,162847,1,0,0:0:0:0:
51,153,162944,2,0,P|56:130|73:113,1,47.9999985351563,8|0,0:0|0:0,0:0:0:0:
150,91,163137,1,0,0:0:0:0:
229,381,163331,5,2,0:0:0:0:
407,166,163524,1,0,0:0:0:0:
373,171,163621,1,0,0:0:0:0:
339,176,163718,1,8,0:0:0:0:
116,289,163911,1,0,0:0:0:0:
150,294,164008,1,0,0:0:0:0:
184,300,164105,2,0,P|229:289|258:251,1,95.9999970703126,2|0,0:0|0:0,0:0:0:0:
432,90,164492,2,0,P|403:53|357:42,1,95.9999970703126,8|0,0:0|0:0,0:0:0:0:
0,144,164879,6,0,L|102:153,1,95.9999970703126,2|0,0:0|0:0,0:0:0:0:
128,155,165169,1,0,0:0:0:0:
161,157,165266,1,8,0:0:0:0:
431,292,165460,1,0,0:0:0:0:
290,66,165653,2,0,P|260:112|270:160,1,95.9999970703126,2|0,0:0|0:0,0:0:0:0:
280,181,165943,1,0,0:0:0:0:
306,203,166040,2,0,P|337:216|359:210,1,47.9999985351563,8|0,0:0|0:0,0:0:0:0:
421,177,166233,1,0,0:0:0:0:
196,24,166427,5,2,0:0:0:0:
44,135,166621,1,0,0:0:0:0:
48,169,166717,1,0,0:0:0:0:
74,190,166814,1,8,0:0:0:0:
215,320,167008,1,0,0:0:0:0:
249,316,167104,1,0,0:0:0:0:
270,290,167202,2,0,L|281:178,1,95.9999970703126,2|0,0:0|0:0,0:0:0:0:
44,35,167589,2,0,L|55:147,1,95.9999970703126,8|0,0:0|0:0,0:0:0:0:
372,351,167976,5,2,0:0:0:0:
402,336,168073,1,0,0:0:0:0:
413,305,168169,1,0,0:0:0:0:
273,223,168363,1,8,0:0:0:0:
480,179,168556,2,0,P|438:141|374:151,1,95.9999970703126,0|2,0:0|0:0,0:0:0:0:
183,256,168944,2,0,L|174:311,1,47.9999985351563
215,374,169137,1,8,0:0:0:0:
307,128,169331,6,0,L|297:29,1,95.9999970703126,0|2,0:0|0:0,0:0:0:0:
26,136,169718,1,0,0:0:0:0:
33,104,169814,1,0,0:0:0:0:
60,83,169911,2,0,P|84:66|121:75,1,47.9999985351563,8|0,0:0|0:0,0:0:0:0:
186,77,170105,2,0,P|214:94|178:85,1,95.9999970703126,0|2,0:0|0:0,0:0:0:0:
50,251,170492,2,0,P|15:258|40:232,1,95.9999970703126,0|8,0:0|0:0,0:0:0:0:
247,276,170879,2,0,P|271:288|292:329,1,47.9999985351563
301,384,171073,5,4,0:0:0:0:
410,116,171266,1,0,0:0:0:0:
416,84,171362,1,0,0:0:0:0:
422,51,171459,1,4,0:0:0:0:
144,209,171653,1,0,0:0:0:0:
150,241,171749,1,0,0:0:0:0:
156,274,171846,1,4,0:0:0:0:
506,321,172040,1,0,0:0:0:0:
490,292,172137,1,0,0:0:0:0:
460,276,172233,1,4,0:0:0:0:
298,53,172427,1,0,0:0:0:0:
268,69,172523,1,0,0:0:0:0:
252,98,172620,6,0,L|256:143,1,44,4|0,0:0|0:0,0:0:0:0:
255,158,173782,6,0,P|264:183|296:202,1,47.9999985351563,8|8,0:0|0:0,0:0:0:0:
356,152,173975,2,0,P|347:127|315:108,1,47.9999985351563,8|8,0:0|0:0,0:0:0:0:
217,260,174169,6,0,L|211:323,1,47.9999985351563,4|0,0:0|0:0,0:0:0:0:
14,366,174362,1,0,0:0:0:0:
45,377,174459,1,0,0:0:0:0:
78,367,174556,2,0,P|99:344|106:305,1,47.9999985351563,8|0,0:0|0:0,0:0:0:0:
163,161,174749,2,0,P|141:99|94:80,1,95.9999970703126,0|2,0:0|0:0,0:0:0:0:
21,247,175137,1,0,0:0:0:0:
241,177,175330,1,8,0:0:0:0:
91,6,175524,1,0,0:0:0:0:
35,259,175717,6,0,P|61:251|74:228,1,47.9999985351563,2|0,0:0|0:0,0:0:0:0:
196,50,175911,1,0,0:0:0:0:
159,62,176008,1,0,0:0:0:0:
135,91,176104,2,0,L|139:147,1,47.9999985351563,8|0,0:0|0:0,0:0:0:0:
226,294,176298,2,0,P|253:335|314:342,1,95.9999970703126,0|2,0:0|0:0,0:0:0:0:
512,285,176685,1,0,0:0:0:0:
266,201,176878,1,8,0:0:0:0:
372,373,177072,1,0,0:0:0:0:
474,185,177266,6,0,L|482:131,1,47.9999985351563,2|0,0:0|0:0,0:0:0:0:
342,17,177459,1,0,0:0:0:0:
308,35,177556,1,0,0:0:0:0:
295,71,177653,2,0,L|302:118,1,47.9999985351563,8|0,0:0|0:0,0:0:0:0:
391,371,177846,2,0,P|442:347|456:293,1,95.9999970703126,0|2,0:0|0:0,0:0:0:0:
383,135,178233,1,0,0:0:0:0:
290,312,178427,1,8,0:0:0:0:
483,204,178620,1,0,0:0:0:0:
248,228,178814,5,2,0:0:0:0:
214,246,178911,1,0,0:0:0:0:
203,283,179008,1,0,0:0:0:0:
11,144,179201,5,8,0:0:0:0:
45,162,179298,1,0,0:0:0:0:
56,199,179395,1,0,0:0:0:0:
180,37,179588,5,2,0:0:0:0:
175,75,179685,1,0,0:0:0:0:
170,113,179782,1,0,0:0:0:0:
0,295,179975,5,8,0:0:0:0:
2,332,180072,1,8,0:0:0:0:
26,362,180169,1,8,0:0:0:0:
62,374,180266,1,8,0:0:0:0:
99,370,180362,6,0,P|121:351|126:311,1,47.9999985351563,4|0,0:0|0:0,0:0:0:0:
249,144,180556,1,0,0:0:0:0:
281,153,180653,1,0,0:0:0:0:
312,163,180749,2,0,P|334:182|339:222,1,47.9999985351563,8|0,0:0|0:0,0:0:0:0:
471,295,180943,2,0,P|441:338|379:344,1,95.9999970703126,0|2,0:0|0:0,0:0:0:0:
200,234,181330,1,0,0:0:0:0:
429,184,181524,1,8,0:0:0:0:
319,384,181717,1,0,0:0:0:0:
114,246,181911,6,0,L|119:174,1,47.9999985351563,2|0,0:0|0:0,0:0:0:0:
253,25,182104,1,0,0:0:0:0:
285,35,182201,1,0,0:0:0:0:
303,62,182298,2,0,L|306:109,1,47.9999985351563,8|0,0:0|0:0,0:0:0:0:
31,133,182491,2,0,P|65:97|123:94,1,95.9999970703126,0|2,0:0|0:0,0:0:0:0:
272,192,182878,1,0,0:0:0:0:
14,133,183072,1,8,0:0:0:0:
176,25,183266,1,0,0:0:0:0:
215,253,183459,6,0,P|205:284|169:303,1,47.9999985351563,2|0,0:0|0:0,0:0:0:0:
17,220,183653,1,0,0:0:0:0:
45,202,183749,1,0,0:0:0:0:
78,199,183846,2,0,P|108:215|123:243,1,47.9999985351563,8|0,0:0|0:0,0:0:0:0:
266,384,184040,2,0,L|161:374,1,95.9999970703126,0|2,0:0|0:0,0:0:0:0:
4,300,184427,1,0,0:0:0:0:
212,151,184620,1,8,0:0:0:0:
158,384,184814,1,0,0:0:0:0:
66,117,185008,5,2,0:0:0:0:
59,84,185104,1,0,0:0:0:0:
52,51,185201,1,0,0:0:0:0:
204,153,185395,5,8,0:0:0:0:
197,120,185491,1,0,0:0:0:0:
190,87,185588,1,0,0:0:0:0:
342,189,185782,5,2,0:0:0:0:
335,156,185878,1,0,0:0:0:0:
328,123,185975,1,0,0:0:0:0:
483,227,186169,5,8,0:0:0:0:
476,193,186266,1,8,0:0:0:0:
469,160,186362,1,8,0:0:0:0:
462,126,186459,1,8,0:0:0:0:
456,92,186556,1,4,0:0:0:0:
256,192,197395,12,0,198749,0:0:0:0:
129,223,198943,5,4,0:0:0:0:
22,352,199137,2,0,P|73:341|94:309,1,80,0|8,0:0|0:0,0:0:0:0:
287,253,199524,2,0,P|251:214|213:212,1,80
69,74,199911,2,0,P|53:123|70:157,1,80,0|8,0:0|0:0,0:0:0:0:
294,364,200298,6,0,B|334:362|356:318|356:318|377:278|418:276,1,160
497,313,200878,1,8,0:0:0:0:
353,190,201072,2,0,L|365:111,1,80
496,326,201459,1,0,0:0:0:0:
450,132,201653,2,0,L|462:53,1,80,8|0,0:0|0:0,0:0:0:0:
273,278,202040,5,0,0:0:0:0:
473,209,202233,1,0,0:0:0:0:
351,32,202427,1,8,0:0:0:0:
480,215,202620,2,0,P|446:246|398:239,1,80
163,139,203008,1,0,0:0:0:0:
283,281,203201,2,0,L|270:186,1,80,8|0,0:0|0:0,0:0:0:0:
7,327,203588,5,0,0:0:0:0:
40,340,203685,1,0,0:0:0:0:
74,330,203782,1,0,0:0:0:0:
88,297,203878,1,0,0:0:0:0:
102,264,203975,1,8,0:0:0:0:
136,254,204072,1,0,0:0:0:0:
169,267,204169,2,0,L|157:361,1,80
326,128,204556,1,0,0:0:0:0:
292,118,204653,1,0,0:0:0:0:
259,131,204750,2,0,L|271:225,1,80,8|0,0:0|0:0,0:0:0:0:
408,356,205137,5,0,0:0:0:0:
480,165,205330,1,0,0:0:0:0:
260,219,205524,1,8,0:0:0:0:
499,288,205717,1,0,0:0:0:0:
352,122,205911,1,0,0:0:0:0:
281,322,206104,1,0,0:0:0:0:
480,165,206298,1,8,0:0:0:0:
313,14,206491,2,0,P|267:51|265:104,1,80
366,264,206878,5,0,0:0:0:0:
141,187,207072,1,8,0:0:0:0:
420,38,207266,2,0,L|513:30,1,80
291,227,207653,5,0,0:0:0:0:
186,50,207846,1,8,0:0:0:0:
9,150,208040,1,0,0:0:0:0:
302,336,208233,5,0,0:0:0:0:
332,355,208330,1,0,0:0:0:0:
367,359,208427,1,0,0:0:0:0:
401,347,208524,1,0,0:0:0:0:
428,324,208620,1,8,0:0:0:0:
439,289,208717,1,0,0:0:0:0:
438,252,208814,2,0,L|433:160,1,80
371,42,209201,1,0,0:0:0:0:
335,48,209298,1,0,0:0:0:0:
305,68,209395,1,8,0:0:0:0:
291,101,209491,1,0,0:0:0:0:
294,136,209588,2,0,L|303:200,1,40
209,256,209782,5,0,0:0:0:0:
227,291,209878,1,0,0:0:0:0:
226,332,209975,1,0,0:0:0:0:
205,368,210072,1,0,0:0:0:0:
166,384,210169,1,8,0:0:0:0:
125,381,210266,1,0,0:0:0:0:
90,357,210362,1,0,0:0:0:0:
76,316,210459,1,0,0:0:0:0:
87,276,210556,1,0,0:0:0:0:
107,241,210653,1,0,0:0:0:0:
134,208,210749,1,0,0:0:0:0:
143,167,210846,1,0,0:0:0:0:
142,125,210943,1,8,0:0:0:0:
126,85,211040,1,0,0:0:0:0:
98,53,211137,1,0,0:0:0:0:
59,38,211233,1,0,0:0:0:0:
19,44,211330,6,0,B|59:27|111:58|111:58|156:83|201:69,1,191.999994140625,4|8,0:0|0:0,0:0:0:0:
284,16,211911,1,0,0:0:0:0:
508,200,212104,2,0,B|467:183|415:214|415:214|370:239|325:225,1,191.999994140625,2|8,0:0|0:0,0:0:0:0:
243,172,212685,1,0,0:0:0:0:
475,39,212878,6,0,P|463:71|430:83,1,47.9999985351563,2|0,0:0|0:0,0:0:0:0:
382,109,213072,1,0,0:0:0:0:
382,109,213169,1,0,0:0:0:0:
381,109,213266,2,0,P|357:104|338:90,1,47.9999985351563,8|0,0:0|0:0,0:0:0:0:
287,24,213459,1,0,0:0:0:0:
166,226,213653,1,2,0:0:0:0:
114,40,213846,1,0,0:0:0:0:
336,214,214040,2,0,L|320:310,1,95.9999970703126,8|0,0:0|0:0,0:0:0:0:
63,152,214427,5,2,0:0:0:0:
248,90,214620,1,0,0:0:0:0:
159,339,214814,1,8,0:0:0:0:
59,139,215008,2,0,P|91:181|163:178,1,95.9999970703126,0|2,0:0|0:0,0:0:0:0:
328,318,215395,2,0,P|373:306|400:267,1,95.9999970703126,0|8,0:0|0:0,0:0:0:0:
243,73,215782,1,0,0:0:0:0:
189,259,215975,6,0,L|247:251,1,47.9999985351563,2|0,0:0|0:0,0:0:0:0:
314,231,216169,1,0,0:0:0:0:
314,231,216266,1,0,0:0:0:0:
314,231,216362,2,0,P|329:214|333:181,1,47.9999985351563,8|0,0:0|0:0,0:0:0:0:
315,112,216556,1,0,0:0:0:0:
231,344,216749,1,2,0:0:0:0:
411,268,216943,1,0,0:0:0:0:
245,65,217137,2,0,P|207:103|205:154,1,95.9999970703126,8|0,0:0|0:0,0:0:0:0:
98,374,217524,5,2,0:0:0:0:
65,366,217620,1,0,0:0:0:0:
44,339,217717,1,0,0:0:0:0:
205,154,217911,1,8,0:0:0:0:
405,266,218104,2,0,P|365:307|313:308,1,95.9999970703126,0|2,0:0|0:0,0:0:0:0:
118,186,218491,2,0,L|111:131,1,47.9999985351563
152,65,218685,1,8,0:0:0:0:
252,262,218878,6,0,L|242:361,1,95.9999970703126,0|2,0:0|0:0,0:0:0:0:
4,210,219265,1,0,0:0:0:0:
3,242,219361,1,0,0:0:0:0:
23,269,219458,2,0,P|41:291|79:292,1,47.9999985351563,8|0,0:0|0:0,0:0:0:0:
143,308,219652,2,0,P|174:298|137:298,1,95.9999970703126,0|2,0:0|0:0,0:0:0:0:
60,114,220039,2,0,P|25:107|50:133,1,95.9999970703126,0|8,0:0|0:0,0:0:0:0:
290,227,220426,2,0,P|314:215|335:174,1,47.9999985351563
352,120,220620,5,4,0:0:0:0:
142,45,220814,1,0,0:0:0:0:
150,78,220911,1,0,0:0:0:0:
178,96,221008,1,4,0:0:0:0:
449,215,221201,1,0,0:0:0:0:
477,197,221298,1,0,0:0:0:0:
485,164,221395,1,4,0:0:0:0:
235,291,221588,1,0,0:0:0:0:
239,324,221685,1,0,0:0:0:0:
244,357,221782,1,4,0:0:0:0:
417,66,221975,1,0,0:0:0:0:
422,33,222072,1,0,0:0:0:0:
426,0,222169,1,4,0:0:0:0:
426,0,223330,1,8,0:0:0:0:
422,12,223427,1,8,0:0:0:0:
418,23,223523,1,8,0:0:0:0:
414,35,223620,1,8,0:0:0:0:
411,47,223717,6,0,P|421:68|454:78,1,40,4|0,0:0|0:0,0:0:0:0:
273,176,223911,1,0,0:0:0:0:
300,170,224008,1,0,0:0:0:0:
322,154,224104,2,0,P|338:142|345:124,1,40,8|0,0:0|0:0,0:0:0:0:
498,262,224298,2,0,L|485:355,1,80,0|2,0:0|0:0,0:0:0:0:
423,168,224685,1,0,0:0:0:0:
307,330,224878,1,8,0:0:0:0:
512,262,225072,1,0,0:0:0:0:
299,339,225266,6,0,L|229:325,1,40,2|0,0:0|0:0,0:0:0:0:
96,231,225459,1,0,0:0:0:0:
70,242,225556,1,0,0:0:0:0:
51,263,225653,2,0,P|38:288|50:318,1,40,8|0,0:0|0:0,0:0:0:0:
206,242,225846,2,0,L|192:133,1,80,0|2,0:0|0:0,0:0:0:0:
102,0,226233,1,0,0:0:0:0:
0,184,226427,1,8,0:0:0:0:
226,85,226620,1,0,0:0:0:0:
1,173,226814,6,0,P|11:183|55:186,1,40,2|0,0:0|0:0,0:0:0:0:
156,307,227008,1,0,0:0:0:0:
182,300,227104,1,0,0:0:0:0:
206,285,227201,2,0,P|225:263|228:239,1,40,8|0,0:0|0:0,0:0:0:0:
345,149,227395,2,0,L|338:64,1,80,0|2,0:0|0:0,0:0:0:0:
206,172,227782,1,0,0:0:0:0:
395,250,227975,1,8,0:0:0:0:
337,54,228169,1,0,0:0:0:0:
510,285,228362,5,2,0:0:0:0:
504,312,228459,1,0,0:0:0:0:
500,339,228556,1,0,0:0:0:0:
291,179,228749,5,8,0:0:0:0:
297,206,228846,1,0,0:0:0:0:
301,233,228943,1,0,0:0:0:0:
433,28,229137,5,2,0:0:0:0:
427,55,229234,1,0,0:0:0:0:
423,82,229331,1,0,0:0:0:0:
258,361,229524,5,8,0:0:0:0:
230,356,229620,1,8,0:0:0:0:
206,340,229717,1,8,0:0:0:0:
190,316,229814,1,8,0:0:0:0:
184,288,229911,6,0,L|174:215,1,40,4|0,0:0|0:0,0:0:0:0:
89,55,230104,1,0,0:0:0:0:
62,63,230201,1,0,0:0:0:0:
44,84,230298,2,0,L|40:136,1,40,8|0,0:0|0:0,0:0:0:0:
0,285,230491,2,0,P|54:266|78:228,1,80,0|2,0:0|0:0,0:0:0:0:
175,87,230878,1,0,0:0:0:0:
108,319,231072,1,8,0:0:0:0:
29,136,231266,1,0,0:0:0:0:
249,263,231459,6,0,L|303:254,1,40,2|0,0:0|0:0,0:0:0:0:
428,358,231653,1,0,0:0:0:0:
452,344,231749,1,0,0:0:0:0:
470,322,231846,2,0,P|481:294|471:263,1,40,8|0,0:0|0:0,0:0:0:0:
391,119,232040,2,0,P|354:163|356:206,1,80,0|2,0:0|0:0,0:0:0:0:
282,339,232427,1,0,0:0:0:0:
450,213,232620,1,8,0:0:0:0:
341,48,232814,1,0,0:0:0:0:
175,172,233008,6,0,L|182:225,1,40,2|0,0:0|0:0,0:0:0:0:
291,350,233201,1,0,0:0:0:0:
317,341,233298,1,0,0:0:0:0:
333,318,233395,2,0,L|342:265,1,40,8|0,0:0|0:0,0:0:0:0:
116,293,233588,2,0,L|19:307,1,80,0|2,0:0|0:0,0:0:0:0:
211,380,233975,1,0,0:0:0:0:
263,185,234169,1,8,0:0:0:0:
50,308,234362,1,0,0:0:0:0:
270,173,234556,5,2,0:0:0:0:
303,160,234653,1,0,0:0:0:0:
335,174,234749,1,0,0:0:0:0:
361,199,234846,1,0,0:0:0:0:
364,234,234943,1,8,0:0:0:0:
367,269,235040,1,0,0:0:0:0:
393,294,235137,1,0,0:0:0:0:
425,308,235233,1,0,0:0:0:0:
458,295,235330,1,2,0:0:0:0:
475,263,235427,1,0,0:0:0:0:
476,226,235524,1,0,0:0:0:0:
477,190,235620,1,0,0:0:0:0:
478,153,235717,1,8,0:0:0:0:
479,116,235814,1,8,0:0:0:0:
466,82,235911,1,8,0:0:0:0:
433,66,236008,1,8,0:0:0:0:
398,73,236104,6,0,P|352:102|235:82,1,160,4|2,0:0|0:0,0:0:0:0:
50,20,236685,1,0,0:0:0:0:
156,126,236878,2,0,L|142:40,1,80,2|0,0:0|0:0,0:0:0:0:
8,260,237266,2,0,L|22:174,1,80,2|0,0:0|0:0,0:0:0:0:
162,347,237653,6,0,P|212:327|248:223,1,160,2|2,0:0|0:0,0:0:0:0:
111,118,238233,1,0,0:0:0:0:
0,268,238427,2,0,P|32:299|88:299,1,80,2|0,0:0|0:0,0:0:0:0:
241,144,238814,2,0,P|202:152|175:180,1,80,2|0,0:0|0:0,0:0:0:0:
384,362,239201,6,0,L|395:192,1,160,2|2,0:0|0:0,0:0:0:0:
490,32,239782,1,0,0:0:0:0:
330,81,239975,2,0,P|366:119|415:121,1,80,2|0,0:0|0:0,0:0:0:0:
497,259,240362,2,0,P|459:271|435:302,1,80,2|0,0:0|0:0,0:0:0:0:
189,361,240749,6,0,B|143:364|114:329|114:329|85:297|46:303,1,160,2|2,0:0|0:0,0:0:0:0:
168,160,241330,1,0,0:0:0:0:
302,244,241524,2,0,P|271:292|232:295,1,80,2|0,0:0|0:0,0:0:0:0:
60,204,241911,2,0,P|24:187|9:150,1,80,2|0,0:0|0:0,0:0:0:0:
224,23,242298,6,0,P|223:90|171:169,1,160,2|2,0:0|0:0,0:0:0:0:
57,43,242878,1,0,0:0:0:0:
299,125,243072,2,0,L|379:118,1,80,2|0,0:0|0:0,0:0:0:0:
88,239,243459,2,0,L|8:232,1,80,2|0,0:0|0:0,0:0:0:0:
343,363,243846,6,0,B|387:351|404:309|404:309|422:269|461:263,1,160,2|2,0:0|0:0,0:0:0:0:
293,109,244427,1,0,0:0:0:0:
174,269,244620,2,0,P|198:311|241:322,1,80,2|0,0:0|0:0,0:0:0:0:
394,146,245008,2,0,L|388:58,1,80,2|0,0:0|0:0,0:0:0:0:
87,29,245395,6,0,P|111:88|220:137,1,160,2|2,0:0|0:0,0:0:0:0:
291,116,245975,1,0,0:0:0:0:
84,208,246169,2,0,P|142:232|254:190,1,160,2|2,0:0|0:0,0:0:0:0:
289,125,246749,1,0,0:0:0:0:
202,336,246943,2,0,P|261:312|310:203,1,160,2|2,0:0|0:0,0:0:0:0:
288,132,247523,1,0,0:0:0:0:
423,298,247717,2,0,L|430:216,1,80,2|0,0:0|0:0,0:0:0:0:
344,24,248104,1,2,0:0:0:0:
505,146,248298,1,0,0:0:0:0:
211,195,248491,6,0,P|146:179|76:68,1,191.999994140625,4|8,0:0|0:0,0:0:0:0:
250,10,249072,1,0,0:0:0:0:
320,253,249266,2,0,L|340:160,1,95.9999970703126,2|0,0:0|0:0,0:0:0:0:
246,19,249653,1,8,0:0:0:0:
128,276,249846,1,0,0:0:0:0:
422,202,250040,5,2,0:0:0:0:
349,153,250233,2,0,L|343:100,2,47.9999985351563,0|0|8,0:0|0:0|0:0,0:0:0:0:
484,311,250620,2,0,L|490:258,2,47.9999985351563,0|0|2,0:0|0:0|0:0,0:0:0:0:
414,363,251008,1,0,0:0:0:0:
277,245,251201,2,0,P|313:277|379:270,1,95.9999970703126,8|0,0:0|0:0,0:0:0:0:
512,145,251588,5,2,0:0:0:0:
339,46,251782,2,0,L|345:147,1,95.9999970703126,0|8,0:0|0:0,0:0:0:0:
159,360,252169,2,0,P|98:331|63:206,1,191.999994140625
176,30,252749,1,8,0:0:0:0:
246,258,252943,1,0,0:0:0:0:
9,124,253137,5,2,0:0:0:0:
74,68,253330,2,0,P|86:56|89:21,2,47.9999985351563,0|0|8,0:0|0:0|0:0,0:0:0:0:
254,261,253717,2,0,P|266:273|269:308,2,47.9999985351563,0|0|2,0:0|0:0|0:0,0:0:0:0:
173,227,254104,1,0,0:0:0:0:
384,134,254298,2,0,L|399:35,1,95.9999970703126,8|0,0:0|0:0,0:0:0:0:
464,311,254685,5,2,0:0:0:0:
297,157,254878,2,0,P|325:207|378:222,1,95.9999970703126,0|8,0:0|0:0,0:0:0:0:
512,99,255266,2,0,P|454:98|415:136,1,95.9999970703126,0|2,0:0|0:0,0:0:0:0:
456,316,255653,2,0,P|485:266|471:213,1,95.9999970703126,0|8,0:0|0:0,0:0:0:0:
225,372,256040,6,0,B|175:375|144:330|144:330|110:285|61:288,1,191.999994140625
207,101,256620,1,8,0:0:0:0:
358,287,256814,2,0,L|261:296,1,95.9999970703126,0|2,0:0|0:0,0:0:0:0:
18,79,257201,2,0,L|115:88,1,95.9999970703126,0|8,0:0|0:0,0:0:0:0:
489,143,257588,1,0,0:0:0:0:
311,17,257782,6,0,P|281:38|274:61,1,47.9999985351563,4|0,0:0|0:0,0:0:0:0:
117,218,257975,1,0,0:0:0:0:
124,250,258072,1,0,0:0:0:0:
151,269,258169,2,0,P|174:272|196:264,1,47.9999985351563,4|0,0:0|0:0,0:0:0:0:
380,197,258362,1,0,0:0:0:0:
393,166,258459,1,0,0:0:0:0:
382,135,258556,2,0,P|365:118|342:111,1,47.9999985351563,4|0,0:0|0:0,0:0:0:0:
182,44,258749,1,0,0:0:0:0:
153,61,258846,1,0,0:0:0:0:
143,92,258943,2,0,P|146:115|161:134,1,47.9999985351563,4|0,0:0|0:0,0:0:0:0:
254,326,259137,1,0,0:0:0:0:
287,329,259234,1,0,0:0:0:0:
313,310,259331,6,0,P|323:288|321:272,1,40,4|0,0:0|0:0,0:0:0:0:
262,164,260491,1,8,0:0:0:0:
248,168,260588,1,8,0:0:0:0:
248,182,260685,1,8,0:0:0:0:
262,186,260782,1,8,0:0:0:0:
270,175,260878,1,8,0:0:0:0:
21,299,262427,6,0,P|56:337|144:342,1,128
199,302,263008,1,0,0:0:0:0:
91,183,263201,2,0,L|97:247,1,64,8|0,0:0|0:0,0:0:0:0:
286,344,263588,2,0,L|291:280,1,64
233,59,263975,6,0,P|192:87|183:173,1,128
234,221,264556,1,0,0:0:0:0:
353,127,264749,2,0,L|270:137,1,64,8|0,0:0|0:0,0:0:0:0:
157,27,265137,2,0,L|240:37,1,64
403,198,265524,6,0,P|450:179|477:90,1,128
425,49,266104,1,0,0:0:0:0:
492,207,266298,2,0,L|480:288,1,64,8|0,0:0|0:0,0:0:0:0:
358,119,266685,2,0,L|348:55,1,64
267,227,267072,6,0,P|247:293|181:325,1,128
118,343,267653,1,0,0:0:0:0:
268,216,267846,2,0,L|401:231,1,128,8|0,0:0|0:0,0:0:0:0:
478,237,268427,1,2,0:0:0:0:
284,63,268620,6,0,B|248:56|227:81|227:81|202:111|170:105,1,128,4|0,0:0|0:0,0:0:0:0:
93,73,269201,1,0,0:0:0:0:
250,206,269395,2,0,P|275:178|276:148,1,64,8|0,0:0|0:0,0:0:0:0:
124,262,269782,2,0,P|128:293|151:315,1,64
320,257,270169,6,0,L|449:265,1,128
512,211,270749,1,0,0:0:0:0:
376,341,270943,2,0,P|396:375|431:384,1,64,8|0,0:0|0:0,0:0:0:0:
512,203,271330,2,0,P|492:169|457:160,1,64
298,257,271717,6,0,P|281:297|187:327,1,128
124,332,272298,1,0,0:0:0:0:
150,142,272491,2,0,P|176:176|155:273,1,128,8|0,0:0|0:0,0:0:0:0:
127,329,273072,1,0,0:0:0:0:
29,119,273266,1,0,0:0:0:0:
41,109,274814,6,0,P|100:108|168:27,1,160,4|2,0:0|0:0,0:0:0:0:
251,13,275395,1,0,0:0:0:0:
434,196,275589,2,0,P|375:195|307:114,1,160,2|2,0:0|0:0,0:0:0:0:
224,100,276170,1,0,0:0:0:0:
445,32,276363,6,0,L|436:118,1,80,2|0,0:0|0:0,0:0:0:0:
256,264,276750,2,0,L|248:184,1,80,2|0,0:0|0:0,0:0:0:0:
452,38,277137,2,0,L|443:124,1,80,2|0,0:0|0:0,0:0:0:0:
263,270,277524,2,0,L|255:190,1,80,2|0,0:0|0:0,0:0:0:0:
381,304,277911,5,2,0:0:0:0:
178,227,278105,1,0,0:0:0:0:
306,77,278298,1,2,0:0:0:0:
492,174,278492,2,0,P|462:207|419:210,1,80,0|2,0:0|0:0,0:0:0:0:
289,341,278879,2,0,P|251:333|226:302,1,80,0|2,0:0|0:0,0:0:0:0:
300,87,279266,6,0,P|332:154|328:250,1,160
303,323,279847,1,2,0:0:0:0:
303,323,280234,1,2,0:0:0:0:
38,136,280621,2,0,P|50:92|91:72,1,80,2|0,0:0|0:0,0:0:0:0:
231,203,281008,5,2,0:0:0:0:
159,251,281201,2,0,L|67:242,1,80,0|2,0:0|0:0,0:0:0:0:
220,358,281589,2,0,P|256:315|375:294,1,160
432,328,282169,1,2,0:0:0:0:
327,209,282363,6,0,L|321:122,1,80,0|2,0:0|0:0,0:0:0:0:
464,185,282750,1,0,0:0:0:0:
247,107,282943,1,2,0:0:0:0:
404,7,283137,2,0,L|399:86,1,80,0|2,0:0|0:0,0:0:0:0:
153,161,283524,2,0,L|148:81,1,80
212,20,283911,1,0,0:0:0:0:
316,178,284105,6,0,P|293:219|252:226,1,80,2|0,0:0|0:0,0:0:0:0:
59,238,284492,2,0,P|96:251|112:287,1,80,2|0,0:0|0:0,0:0:0:0:
306,356,284879,2,0,B|353:354|374:318|374:318|393:285|440:282,1,160,2|2,0:0|0:0,0:0:0:0:
512,334,285460,1,0,0:0:0:0:
390,193,285653,6,0,L|404:63,1,128,4|0,0:0|0:0,0:0:0:0:
