osu file format v14

[General]
AudioFilename: audio.mp3
AudioLeadIn: 0
PreviewTime: 206914
Countdown: 1
SampleSet: Normal
StackLeniency: 0.7
Mode: 0
LetterboxInBreaks: 0
WidescreenStoryboard: 0

[Editor]
DistanceSpacing: 1.5
BeatDivisor: 4
GridSize: 4
TimelineZoom: 1

[Metadata]
Title:Touch Fluffy Tail
TitleUnicode:Touch Fluffy Tail
Artist:Ken Ashcorp
ArtistUnicode:Ken Ashcorp
Creator:IHaveBadAcc
Version:Fluffy
Source:
Tags:monster-musume monster-girl-quest kitsune
BeatmapID:2158717
BeatmapSetID:1032394

[Difficulty]
HPDrainRate:4.5
CircleSize:3.8
OverallDifficulty:6.9
ApproachRate:10
SliderMultiplier:3.19999990463257
SliderTickRate:1

[Events]
//Background and Video events
Video,0,"Ken Ashcorp - Touch Fluffy Tail - Typography Animation.mp4"
0,0,"tamamo 1 cropped.jpg",0,0
//Break Periods
//Storyboard Layer 0 (Background)
//Storyboard Layer 1 (Fail)
//Storyboard Layer 2 (Pass)
//Storyboard Layer 3 (Foreground)
//Storyboard Layer 4 (Overlay)
//Storyboard Sound Samples

[TimingPoints]
2099.75183556239,370.37037037037,4,1,0,100,1,0
13951,-66.6666666666667,4,1,0,100,0,0
16359,-100,4,1,0,100,0,0
16544,-66.6666666666667,4,1,0,100,0,0
16729,-100,4,1,0,100,0,0
16914,-66.6666666666667,4,1,0,100,0,0
19321,-100,4,1,0,100,0,0
19507,-66.6666666666667,4,1,0,100,0,0
19692,-100,4,1,0,100,0,0
19877,-66.6666666666667,4,1,0,100,0,0
22284,-100,4,1,0,100,0,0
22470,-66.6666666666667,4,1,0,100,0,0
22655,-100,4,1,0,100,0,0
22840,-66.6666666666667,4,1,0,100,0,0
25247,-100,4,1,0,100,0,0
25433,-66.6666666666667,4,1,0,100,0,0
25618,-100,4,1,0,100,0,0
25803,-57.1428571428571,4,1,0,100,0,0
28210,-80,4,1,0,100,0,0
28396,-57.1428571428571,4,1,0,100,0,0
28581,-80,4,1,0,100,0,0
28766,-57.1428571428571,4,1,0,100,0,0
31173,-80,4,1,0,100,0,0
31359,-57.1428571428571,4,1,0,100,0,0
31544,-80,4,1,0,100,0,0
31729,-57.1428571428571,4,1,0,100,0,0
34136,-80,4,1,0,100,0,0
34321,-57.1428571428571,4,1,0,100,0,0
34507,-80,4,1,0,100,0,0
34692,-57.1428571428571,4,1,0,100,0,0
37099,-80,4,1,0,100,0,0
37284,-57.1428571428571,4,1,0,100,0,0
37470,-80,4,1,0,100,0,0
37655,-50,4,1,0,100,0,0
52470,-40,4,1,0,100,0,0
53766,-50,4,1,0,100,0,0
85062,-50,4,1,0,100,0,1
114692,-50,4,1,0,100,0,0
150247,-50,4,1,0,100,0,1
179877,-50,4,1,0,100,0,0
209507,-50,4,1,0,100,0,1
221359,-50,4,1,0,100,0,0
224321,-50,4,1,0,100,0,1
233118,-50,4,1,0,100,0,0
233210,-50,4,1,0,100,0,1
244970,-50,4,1,0,100,0,0
245062,-50,4,1,0,100,0,1
256914,-50,4,1,0,100,0,0

[Colours]
Combo1 : 255,220,185
Combo2 : 128,0,255
Combo3 : 232,0,0
Combo4 : 255,128,0
Combo5 : 255,140,26
Combo6 : 255,155,55
Combo7 : 255,172,89
Combo8 : 255,191,128

[HitObjects]
132,344,2099,38,0,L|95:250,1,79.9999976158142
217,290,2284,2,0,L|259:388,1,79.9999976158142
101,268,2655,6,0,L|98:167,1,79.9999976158142
199,248,2840,2,0,L|205:355,1,79.9999976158142
98,188,3210,6,0,L|129:93,1,79.9999976158142
198,202,3395,2,0,L|167:304,1,79.9999976158142
123,112,3766,6,0,L|185:33,1,79.9999976158142
212,160,3951,2,0,L|148:246,1,79.9999976158142
172,48,4321,38,0,P|216:48|264:96,1,79.9999976158142
172,48,4692,2,0,P|216:48|264:96,1,79.9999976158142
400,152,5062,22,0,L|332:224,1,79.9999976158142
312,120,5247,2,0,L|336:32,1,79.9999976158142
345,210,5618,6,0,L|256:254,1,79.9999976158142
273,149,5803,2,0,L|325:74,1,79.9999976158142
273,245,6173,6,0,L|174:256,1,79.9999976158142
226,163,6358,2,0,L|300:111,1,79.9999976158142
193,254,6729,6,0,L|96:231,1,79.9999976158142
176,160,6914,2,0,L|264:136,1,79.9999976158142
288,272,7284,54,0,P|268:320|220:340,1,79.9999976158142
288,272,7655,2,0,P|268:320|220:340,1,79.9999976158142
176,248,8025,6,0,L|256:188,1,79.9999976158142
104,296,8210,2,0,L|40:344,1,79.9999976158142
240,200,8581,6,0,L|339:188,1,79.9999976158142
153,205,8766,2,0,L|73:214,1,79.9999976158142
319,190,9136,6,0,L|410:229,1,79.9999976158142
241,150,9321,2,0,L|167:118,1,79.9999976158142
392,221,9692,6,0,L|452:301,1,79.9999976158142
344,147,9877,2,0,L|296:83,1,79.9999976158142
440,284,10247,38,0,P|432:324|384:360,1,79.9999976158142
440,284,10618,2,0,P|432:324|384:360,1,79.9999976158142
316,208,10988,22,0,L|364:292,1,79.9999976158142
344,52,11173,2,0,L|288:156,1,79.9999976158142
240,235,11544,6,0,L|330:201,1,79.9999976158142
161,373,11729,2,0,L|184:257,1,79.9999976158142
200,165,12099,6,0,L|248:249,1,79.9999976158142
228,9,12284,2,0,L|172:113,1,79.9999976158142
124,192,12655,6,0,L|214:158,1,79.9999976158142
45,330,12840,2,0,L|68:214,1,79.9999976158142
200,164,13210,54,0,P|220:196|228:248,1,79.9999976158142
368,15,13951,6,0,B|356:63|324:99|324:99|320:83|328:67,1,120.000001001358
243,104,14136,2,0,B|247:96|243:80|243:80|211:116|199:164,1,120.000001001358
284,271,14321,1,0,0:0:0:0:
420,119,14507,6,0,B|385:154|339:169|339:169|344:153|359:144,1,120.000001001358,0|0,0:3|0:3,0:3:0:0:
267,133,14692,2,0,B|275:128|279:112|279:112|233:127|199:163,1,120.000001001358,0|0,0:3|0:3,0:3:0:0:
220,324,14877,1,0,0:0:0:0:
413,235,15062,6,0,B|365:248|318:238|318:238|330:227|347:226,1,120.000001001358,0|0,0:3|0:3,0:3:0:0:
273,170,15247,2,0,B|282:170|294:158|294:158|246:148|199:162,1,120.000001001358,0|0,0:3|0:3,0:3:0:0:
140,300,15433,1,0,0:0:0:0:
348,332,15618,6,0,B|300:320|264:288|264:288|280:284|296:291,1,120.000001001358,0|0,0:3|0:3,0:3:0:0:
259,205,15803,2,0,B|266:209|282:205|282:205|246:173|198:161,1,120.000001001358,0|0,0:3|0:3,0:3:0:0:
120,220,15988,1,0,0:0:0:0:
208,324,16173,38,0,P|264:276|328:276,1,120.000001001358
194,220,16359,2,0,P|154:232|110:212,1,79.9999976158142
208,324,16544,6,0,P|264:276|328:276,1,120.000001001358
194,220,16729,2,0,P|154:232|110:212,1,79.9999976158142
304,104,16914,6,0,B|280:192|280:192|320:164,1,120.000001001358
200,140,17099,2,0,B|140:204|140:204|144:160,1,120.000001001358
224,56,17284,1,0,0:0:0:0:
294,127,17470,6,0,B|332:209|332:209|344:162,1,120.000001001358
236,220,17655,2,0,B|231:307|231:307|205:271,1,120.000001001358
200,140,17840,1,0,0:0:0:0:
300,150,18025,6,0,B|382:188|382:188|361:144,1,120.000001001358
315,258,18210,2,0,B|367:328|367:328|324:316,1,120.000001001358
236,220,18395,1,0,0:0:0:0:
320,164,18581,6,0,B|408:140|408:140|363:120,1,120.000001001358
400,237,18766,2,0,B|485:256|485:256|445:275,1,120.000001001358
315,258,18951,1,0,0:0:0:0:
260,145,19136,38,0,B|256:109|256:109|340:181,1,120.000001001358
315,258,19321,2,0,B|324:280|324:280|248:248,1,79.9999976158142
260,145,19507,6,0,B|256:109|256:109|340:181,1,120.000001001358
315,258,19692,2,0,B|324:280|324:280|248:248,1,79.9999976158142
120,176,19877,6,0,P|68:196|16:276,1,120.000001001358
208,160,20062,2,0,P|272:144|336:80,1,120.000001001358
272,256,20247,1,0,0:0:0:0:
164,238,20433,6,0,P|145:290|173:381,1,120.000001001358
208,160,20618,2,0,P|236:100|228:10,1,120.000001001358
322,172,20803,1,0,0:0:0:0:
240,244,20988,6,0,P|268:291|356:329,1,120.000001001358
208,160,21173,2,0,P|181:99|106:47,1,120.000001001358
291,80,21358,1,0,0:0:0:0:
293,190,21544,6,0,P|348:198|433:155,1,120.000001001358
208,160,21729,2,0,P|144:141|57:165,1,120.000001001358
200,45,21914,1,0,0:0:0:0:
140,232,22099,38,0,P|144:292|192:352,1,120.000001001358
256,184,22284,2,0,L|216:280,1,79.9999976158142
140,232,22470,6,0,P|144:292|192:352,1,120.000001001358
256,184,22655,2,0,L|216:280,1,79.9999976158142
132,136,22840,6,0,B|84:176|84:176|4:176,1,120.000001001358
200,72,23025,2,0,B|228:48|228:48|328:44,1,120.000001001358
256,184,23210,1,0,0:0:0:0:
132,136,23396,6,0,B|70:124|70:124|19:63,1,120.000001001358
224,146,23581,2,0,B|260:152|260:152|327:226,1,120.000001001358
174,261,23766,1,0,0:0:0:0:
132,136,23951,6,0,B|100:81|100:81|114:2,1,120.000001001358
183,212,24136,2,0,B|201:243|201:243|188:342,1,120.000001001358
63,248,24321,1,0,0:0:0:0:
132,136,24507,6,0,B|153:77|153:77|222:37,1,120.000001001358
106,223,24692,2,0,B|93:257|93:257|9:311,1,120.000001001358
1,155,24877,1,0,0:0:0:0:
188,260,25062,38,0,B|212:320|212:320|188:376,1,120.000001001358
288,280,25247,2,0,B|304:320|304:320|356:328,1,79.9999976158142
188,260,25433,6,0,B|212:320|212:320|188:376,1,120.000001001358
288,280,25618,2,0,B|304:320|304:320|356:328,1,79.9999976158142
244,144,25803,6,0,P|208:100|104:72,1,139.999997162819
240,192,25988,2,0,P|186:171|82:199,1,139.999997162819
276,236,26173,2,0,P|219:245|143:321,1,139.999997162819
240,192,26359,6,0,P|183:201|107:277,1,139.999997162819
279,219,26544,2,0,P|235:255|207:359,1,139.999997162819
335,210,26729,2,0,P|314:263|342:367,1,139.999997162819
279,219,26914,6,0,P|258:272|286:376,1,139.999997162819
321,198,27099,2,0,P|330:254|406:330,1,139.999997162819
342,145,27284,2,0,P|378:189|482:217,1,139.999997162819
321,198,27470,6,0,P|357:242|461:270,1,139.999997162819
323,151,27655,2,0,P|376:171|480:143,1,139.999997162819
288,106,27840,2,0,P|344:96|420:20,1,139.999997162819
236,172,28025,38,0,P|220:240|164:312,1,139.999997162819
136,140,28210,2,0,P|96:80|12:40,1,99.9999970197678
236,172,28396,6,0,P|220:240|164:312,1,139.999997162819
136,140,28581,2,0,P|96:80|12:40,1,99.9999970197678
64,244,28766,6,0,B|96:296|96:296|12:304,1,139.999997162819
156,236,28951,2,0,B|188:288|188:288|240:196,1,139.999997162819
88,156,29136,2,0,B|52:164|52:164|84:24,1,139.999997162819
174,144,29321,6,0,B|144:197|144:197|96:128,1,139.999997162819
226,219,29506,2,0,B|196:272|196:272|302:271,1,139.999997162819
262,120,29691,2,0,B|237:92|237:92|374:50,1,139.999997162819
352,200,29877,6,0,B|290:201|290:201|326:124,1,139.999997162819
313,282,30062,2,0,B|251:283|251:283|305:374,1,139.999997162819
416,264,30247,2,0,B|427:228|427:228|532:326,1,139.999997162819
323,129,30433,6,0,B|291:77|291:77|374:69,1,139.999997162819
232,136,30618,2,0,B|200:83|200:83|147:175,1,139.999997162819
299,216,30803,2,0,B|334:207|334:207|303:348,1,139.999997162819
112,236,30988,38,0,P|48:208|8:128,1,139.999997162819
188,280,31173,2,0,B|164:304|164:304|252:324,1,99.9999970197678
112,236,31359,6,0,P|48:208|8:128,1,139.999997162819
188,280,31544,2,0,B|164:304|164:304|252:324,1,99.9999970197678
172,156,31729,6,0,B|121:104|121:104|126:13,1,139.999997162819
248,184,31914,2,0,B|318:165|318:165|394:215,1,139.999997162819
184,232,32099,2,0,B|164:302|164:302|83:343,1,139.999997162819
224,128,32284,6,0,B|205:57|205:57|255:-18,1,139.999997162819
275,190,32469,2,0,B|345:209|345:209|386:290,1,139.999997162819
196,199,32654,2,0,B|143:250|143:250|52:245,1,139.999997162819
272,131,32840,6,0,B|291:60|291:60|372:19,1,139.999997162819
285,210,33025,2,0,B|336:262|336:262|331:353,1,139.999997162819
212,178,33210,2,0,B|141:196|141:196|65:146,1,139.999997162819
308,172,33396,6,0,B|360:121|360:121|450:126,1,139.999997162819
279,246,33581,2,0,B|297:316|297:316|247:392,1,139.999997162819
232,182,33766,2,0,B|161:162|161:162|120:81,1,139.999997162819
152,264,33951,38,0,L|-24:224,1,139.999997162819
236,284,34136,2,0,L|344:308,1,99.9999970197678
152,264,34321,6,0,L|-24:224,1,139.999997162819
236,284,34506,2,0,L|344:308,1,99.9999970197678
172,176,34692,6,0,P|128:192|156:140,1,139.999997162819
188,240,34877,2,0,P|120:252|64:164,1,139.999997162819
232,280,35062,2,0,P|164:312|72:300,1,139.999997162819
228,242,35247,6,0,P|219:288|188:237,1,139.999997162819
291,260,35432,2,0,P|267:324|163:329,1,139.999997162819
348,242,35617,2,0,P|341:316|285:390,1,139.999997162819
313,225,35803,6,0,P|348:255|289:256,1,139.999997162819
360,179,35988,2,0,P|404:231|356:324,1,139.999997162819
373,121,36173,2,0,P|434:163|470:249,1,139.999997162819
341,142,36359,6,0,P|385:126|356:178,1,139.999997162819
324,78,36544,2,0,P|392:66|448:154,1,139.999997162819
280,38,36729,2,0,P|347:6|440:18,1,139.999997162819
216,144,36914,38,0,P|164:172|192:120,1,139.999997162819
317,191,37099,2,0,P|357:163|353:191,1,99.9999970197678
216,144,37284,6,0,P|164:172|192:120,1,139.999997162819
317,191,37469,2,0,P|357:163|353:191,1,99.9999970197678
212,272,37655,6,0,P|128:296|44:260,1,159.999995231628
340,272,37840,2,0,B|272:232|276:184|276:184|284:80|180:8|44:48|24:200|128:260,1,479.999985694885
172,164,38210,6,0,P|188:252|264:344,1,159.999995231628
284,207,38396,2,0,B|432:36|432:36|328:307,1,479.999985694885
260,80,38766,6,0,B|204:48|144:48|144:48|152:68|192:80,1,159.999995231628
241,207,38951,2,0,B|209:351|61:343|61:343|54:195|185:159,1,479.999985694885
341,272,39321,6,0,B|385:312|385:312|357:204,1,159.999995231628
172,72,39507,2,0,B|84:104|84:104|384:180,1,319.999990463257
176,252,39877,6,0,P|80:336|136:224,1,319.999990463257
303,159,40247,6,0,P|399:243|343:131,1,319.999990463257
124,116,40618,38,0,B|68:192|68:192|88:184|88:184|120:284,1,159.999995231628
248,364,40803,2,0,B|260:272|184:188|184:188|264:192|264:192|208:84|208:84|288:116|312:172,1,479.999985694885
456,252,41173,6,0,P|412:312|316:352,1,159.999995231628
328,192,41359,2,0,B|392:140|372:44|284:4|196:48|200:132|200:132|184:120|184:100|184:100|168:144|176:192|192:216,1,479.999985694885
24,256,41729,6,0,B|60:296|80:344|80:344|88:316|120:284,1,159.999995231628
260,252,41914,2,0,B|300:328|368:344|368:344|408:292|408:212|384:164|384:164|364:116|360:64|408:28|456:28,1,479.999985694885
256,104,42284,6,0,B|228:112|212:136|212:136|184:84|112:56,1,159.999995231628
24,256,42470,2,0,P|-16:352|80:264,1,319.999990463257
208,168,42840,6,0,B|216:84|304:52|304:52|328:144|256:192,1,319.999990463257
392,232,43210,6,0,B|400:316|488:348|488:348|512:256|440:208,1,319.999990463257
292,40,43581,38,0,B|236:44|236:44|228:88|228:88|192:92|192:92|176:124,1,159.999995231628
40,300,43766,2,0,P|288:304|292:100,1,479.999985694885
160,264,44136,6,0,B|128:260|108:232|108:232|164:252|252:212,1,159.999995231628
305,120,44321,2,0,B|353:68|425:60|485:100|477:168|417:220|417:220|345:276|357:360|449:376,1,479.999985694885
244,304,44692,6,0,B|204:328|180:360|180:360|152:336|76:324,1,159.999995231628
104,184,44877,2,0,P|136:4|168:188,1,479.999985694885
244,304,45247,6,0,P|308:308|400:364,1,159.999995231628
448,132,45433,2,0,P|344:136|164:276,1,319.999990463257
30,97,45803,2,0,P|138:85|166:265,1,319.999990463257
96,180,46173,2,0,B|120:280|208:252|208:252|300:220|344:328,1,319.999990463257
460,104,46914,6,0,B|408:156|404:252|404:252|308:204|216:276|216:276|124:340|0:308|-88:184|-32:36|68:12|144:68|144:164|124:200|124:200|184:136|244:112|320:120|320:120|296:64|208:52,1,1279.99996185303
225,54,49507,54,0,P|169:66|85:150,1,159.999995231628
232,188,49692,2,0,B|328:180|392:56|392:56|416:224|264:324,1,479.999985694885
88,312,50062,6,0,B|28:280|8:220|8:220|48:240,1,159.999995231628
240,260,50247,2,0,B|324:240|328:152|272:92|192:128|192:128|216:56|316:40|444:92,1,479.999985694885
412,308,50618,6,0,B|400:332|380:348|380:348|404:280|372:204,1,159.999995231628
279,143,50803,2,0,B|104:222|179:395|179:395|284:372|312:268,1,479.999985694885
372,148,51173,6,0,B|344:80|344:80|248:48,1,159.999995231628
64,96,51359,2,0,P|96:184|280:140,1,319.999990463257
488,220,51729,6,0,P|456:308|272:264,1,319.999990463257
80,284,52099,6,0,P|8:252|104:272,1,319.999990463257
464,272,52470,6,0,B|432:216|388:216|388:216|344:216|296:132,1,199.999994039536
84,212,52655,2,0,B|20:176|8:88|104:16|200:60|208:164|208:164|216:260|284:325|400:312,1,599.999982118607
344,180,53025,6,0,P|424:176|356:228,1,199.999994039536
216,304,53210,2,0,B|148:280|40:320|40:320|88:272|116:204|104:152|104:152|84:64|168:8|264:8|340:64|332:172|256:216|184:188|196:108,1,799.999976158142
396,88,53766,6,0,B|392:264|332:312|272:288|256:256|256:256|252:344|352:400|472:360|492:248,1,639.999980926514
288,168,54321,6,0,B|296:56|172:32|172:32|200:76|192:128|120:156,1,319.999990463257
16,256,54692,2,0,P|76:328|268:240,1,319.999990463257
136,216,55062,6,0,B|128:200|140:168|192:152|260:204|240:304|136:372|0:312|0:132|92:80|204:108|256:148|256:148|300:180|364:184|448:128,1,639.999980926514
348,340,55803,2,0,B|264:308|244:236|248:204|248:204|252:168|248:124|216:104|176:100|148:128|152:164,1,319.999990463257
88,344,56173,2,0,P|148:280|20:300,1,319.999990463257
48,56,56544,2,0,P|80:108|176:160,1,159.999995231628
276,232,56729,2,0,P|276:144|212:76,1,159.999995231628
92,220,56914,2,0,B|124:276|192:276|192:276|244:344|328:344|400:288|400:172|340:64,1,479.999985694885
156,28,57284,2,0,P|188:104|176:188,1,159.999995231628
328,296,57470,2,0,B|384:260|396:200|396:200|368:136|296:124|268:172|264:204|264:204|260:236|240:280|180:304|108:288|44:216|92:160|96:108|96:108|4:168|20:296,1,799.999976158142
179,179,58025,2,0,B|203:267|303:303,1,159.999995231628
404,128,58210,2,0,B|412:88|372:72|336:96|348:140|376:148|376:148|328:160|284:116|296:56|340:20|340:20|256:-4|172:16|104:68|68:148|104:236|132:276|132:276|160:312|140:376|68:388|16:360|16:276,1,959.999971389771
92,52,61359,2,0,P|112:96|116:28,1,159.999995231628
20,152,61544,2,0,B|88:240|224:208|252:120|252:120|272:56|348:28|436:68,1,479.999985694885
384,256,61914,2,0,P|360:192|408:252,1,159.999995231628
256,324,62099,2,0,B|196:292|168:184|236:136|272:84|272:16|212:-24|116:-16|72:28|72:92|128:140,1,479.999985694885
296,224,62470,1,0,0:0:0:0:
124,248,62655,2,0,B|152:232|184:232|184:232|100:160|96:60|172:-12|272:20|280:88|224:124|180:80|180:80|196:136|276:164|372:112|400:40,1,639.999980926514
488,176,63210,2,0,B|464:300|368:372|368:372|384:344|396:272,1,319.999990463257
268,140,63581,2,0,B|258:184|235:213|209:220|191:198|200:165|225:133|225:133|186:130|133:122|79:83|56:56|56:56|64:59|64:59|46:38|46:38|91:79|149:104|212:123|268:140,1,639.999980926514
248,336,64321,2,0,P|176:308|112:216,1,159.999995231628
304,268,64507,2,0,B|416:260|456:148|456:148|428:168|388:156|384:120|408:88|444:100|444:100|484:112|512:88|504:36|457:16|424:84,1,479.999985694885
