osu file format v14

[General]
AudioFilename: Ken Ashcorp - The Legend Never Dies.mp3
AudioLeadIn: 0
PreviewTime: 17589
Countdown: 0
SampleSet: Soft
StackLeniency: 0.7
Mode: 2
LetterboxInBreaks: 1
WidescreenStoryboard: 0

[Editor]
DistanceSpacing: 0.9
BeatDivisor: 4
GridSize: 8
TimelineZoom: 1

[Metadata]
Title:The Legend Never Dies
TitleUnicode:The Legend Never Dies
Artist:Ken Ashcorp
ArtistUnicode:Ken Ashcorp
Creator:- Magic Bomb -
Version:Platter
Source:
Tags:Dark Souls Bodom BoberOfDarkness Yolo MBomb #yolo TLND Giantdad OnlyAfro Fire Bass Cannon
BeatmapID:643041
BeatmapSetID:284595

[Difficulty]
HPDrainRate:5
CircleSize:4
OverallDifficulty:7.5
ApproachRate:7.5
SliderMultiplier:2.2
SliderTickRate:1

[Events]
//Background and Video events
0,0,"legend never dies.jpg",0,0
//Break Periods
2,49805,62258
//Storyboard Layer 0 (Background)
//Storyboard Layer 1 (Fail)
//Storyboard Layer 2 (Pass)
//Storyboard Layer 3 (Foreground)
//Storyboard Sound Samples

[TimingPoints]
2101,489.795918367347,4,2,1,65,1,0
4060,491.803278688525,4,2,1,65,1,0
6764,487.80487804878,4,2,1,65,1,0
7983,481.927710843374,4,2,1,65,1,0
8705,493.827160493827,4,2,1,65,1,0
9939,493.827160493827,4,2,1,65,1,0
13889,491.803278688525,4,2,1,65,1,0
15856,483.870967741935,4,2,1,65,1,0
16581,505.902192242833,4,2,1,65,1,0
17339,500,4,2,1,65,1,0
17839,489.795918367347,4,2,1,65,1,0
23716,481.927710843374,4,2,1,65,1,0
24438,485.82995951417,4,2,1,65,1,0
25652,560.428571428571,4,2,1,65,1,0
26073,489.803278688525,4,2,1,65,1,0
26393,500,4,2,1,65,1,0
27643,495.867768595041,4,2,1,65,1,0
28386,504.201680672269,4,2,1,65,1,0
28890,-100,4,3,1,20,0,0
29016,500,4,3,1,65,1,0
29141,-100,4,3,1,35,0,0
29391,-100,4,3,1,50,0,0
29641,491.803278688525,4,3,1,65,1,0
33206,-100,4,3,1,80,0,0
47100,-100,4,2,1,65,0,0
65050,-100,4,1,1,70,0,1
78821,461.538461538462,3,3,1,85,1,1
80159,491.803278688525,3,3,1,85,1,1
80650,-100,4,2,1,80,0,0

[Colours]
Combo1 : 255,255,128
Combo2 : 0,255,0
Combo3 : 255,0,0
Combo4 : 0,0,255

[HitObjects]
256,192,2101,6,0,L|88:192,1,165
320,192,2835,1,2,0:0:0:0:
96,184,3203,1,0,0:0:0:0:
408,192,3570,1,2,0:0:0:0:
256,192,4060,6,0,L|384:88,1,165
128,192,4797,1,2,0:0:0:0:
320,192,5166,1,0,0:0:0:0:
192,192,5535,1,2,0:0:0:0:
352,192,6027,5,0,0:0:0:0:
64,192,6396,2,0,L|192:88,1,165,0|2,0:0|0:0,0:0:0:0:
0,192,7129,1,0,0:0:0:0:
256,192,7495,1,2,0:0:0:0:
128,192,7983,5,0,0:0:0:0:
448,192,8344,2,0,L|320:88,1,165,0|2,0:0|0:0,0:0:0:0:
512,192,9075,1,0,0:0:0:0:
256,192,9445,1,2,0:0:0:0:
128,192,9692,1,0,0:0:0:0:
80,192,9816,1,0,0:0:0:0:
128,192,9939,5,2,0:0:0:0:
384,192,10309,1,0,0:0:0:0:
256,192,10679,1,2,0:0:0:0:
384,192,11050,1,0,0:0:0:0:
112,192,11420,1,2,0:0:0:0:
232,192,11667,1,0,0:0:0:0:
288,192,11790,1,0,0:0:0:0:
352,192,11914,5,2,0:0:0:0:
448,192,12284,1,0,0:0:0:0:
256,192,12655,1,2,0:0:0:0:
128,192,13025,1,0,0:0:0:0:
408,192,13395,1,2,0:0:0:0:
0,56,13889,6,0,B|128:328|256:384|384:336|512:48,1,770
288,192,15856,2,0,L|128:152,2,165,2|0|2,0:0|0:0|0:0,0:0:0:0:
448,192,16960,1,0,0:0:0:0:
256,192,17213,1,0,0:0:0:0:
192,192,17339,1,2,0:0:0:0:
320,192,17589,1,0,0:0:0:0:
512,192,17839,6,0,L|352:152,2,165,2|0|2,0:0|0:0|0:0,0:0:0:0:
384,192,18941,1,0,0:0:0:0:
288,192,19063,2,0,L|176:192,1,110,0|2,0:0|0:0,0:0:0:0:
352,192,19553,1,0,0:0:0:0:
224,184,19798,6,0,L|384:144,1,165
192,192,20532,2,0,L|256:40,1,165,2|0,0:0|0:0,0:0:0:0:
160,192,21022,2,0,L|288:88,1,165
0,8,21757,6,0,B|96:192|256:192|256:192|448:192|512:16|512:16,1,660,0|2,0:0|0:0,0:0:0:0:
384,192,23471,1,0,0:0:0:0:
160,192,23716,2,0,P|53:176|16:128,1,165,2|0,0:0|0:0,0:0:0:0:
128,192,24438,1,2,0:0:0:0:
272,192,24802,1,0,0:0:0:0:
384,192,24923,6,0,B|344:304|256:32|256:192,1,220,0|2,0:0|0:0,0:0:0:0:
24,192,25652,2,0,B|64:304|152:32|144:192,1,165
384,192,26393,1,2,0:0:0:0:
304,192,26768,1,0,0:0:0:0:
192,192,26893,6,0,B|232:304|320:32|320:192,1,220,0|2,0:0|0:0,0:0:0:0:
480,192,27643,2,2,B|440:304|352:32|360:192,1,165,0|0,0:0|0:0,0:0:0:0:
128,192,28386,1,2,0:0:0:0:
8,192,28764,1,0,0:0:0:0:
352,192,29016,5,0,0:0:0:0:
352,192,29141,1,0,0:0:0:0:
288,192,29266,1,0,0:0:0:0:
224,192,29391,1,0,0:0:0:0:
160,192,29516,1,0,0:0:0:0:
48,192,29641,1,8,0:0:0:0:
256,192,30009,5,8,0:0:0:0:
344,192,30132,1,0,0:0:0:0:
480,192,30378,1,8,0:0:0:0:
256,192,30624,1,0,0:0:0:0:
168,192,30747,1,8,0:0:0:0:
88,192,30870,1,0,0:0:0:0:
224,192,31116,1,0,0:0:0:0:
440,192,31362,1,8,0:0:0:0:
504,192,31485,1,0,0:0:0:0:
440,192,31608,6,0,L|312:88,2,165,0|8|0,0:0|0:0|0:0,0:0:0:0:
320,192,32591,2,0,L|288:144,2,55,0|8|0,0:0|0:0|0:0,0:0:0:0:
96,192,33083,1,8,0:0:0:0:
416,192,33329,1,4,0:0:0:0:
256,192,33575,5,0,0:0:0:0:
384,192,33944,2,0,L|416:144,1,55,8|0,0:0|0:0,0:0:0:0:
256,192,34313,1,0,0:0:0:0:
128,192,34559,2,0,L|96:144,2,55,0|8|0,0:0|0:0|0:0,0:0:0:0:
448,192,35050,1,8,0:0:0:0:
320,192,35296,1,8,0:0:0:0:
192,192,35542,5,4,0:0:0:0:
360,192,35911,2,0,L|320:152,1,55,8|0,0:0|0:0,0:0:0:0:
80,192,36280,1,8,0:0:0:0:
176,192,36526,1,0,0:0:0:0:
496,192,36772,1,2,0:0:0:0:
408,192,37018,1,8,0:0:0:0:
256,192,37263,1,8,0:0:0:0:
176,191,37386,1,2,0:0:0:0:
24,192,37509,6,0,P|120:64|184:160,1,330,0|8,0:0|0:0,0:0:0:0:
496,192,38493,2,0,P|368:344|240:192,1,440,0|4,0:0|0:0,0:0:0:0:
32,192,39845,5,8,0:0:0:0:
136,192,39968,1,0,0:0:0:0:
320,192,40214,1,0,0:0:0:0:
128,192,40460,1,0,0:0:0:0:
48,192,40583,1,2,0:0:0:0:
112,192,40706,1,0,0:0:0:0:
480,192,40952,1,8,0:0:0:0:
392,192,41198,2,0,L|352:152,2,55,0|8|2,0:0|0:0|0:0,0:0:0:0:
128,192,41813,5,8,0:0:0:0:
232,192,41936,1,0,0:0:0:0:
384,192,42181,1,0,0:0:0:0:
176,192,42427,2,0,L|136:152,2,55,0|8|0,0:0|0:0|0:0,0:0:0:0:
496,192,42919,1,2,0:0:0:0:
384,192,43165,1,0,0:0:0:0:
256,192,43411,5,4,0:0:0:0:
120,192,43780,1,8,0:0:0:0:
224,192,43903,1,0,0:0:0:0:
384,192,44149,1,0,0:0:0:0:
512,192,44395,1,0,0:0:0:0:
456,192,44518,2,0,L|400:192,1,55
32,192,44886,1,0,0:0:0:0:
192,192,45132,2,0,L|248:192,1,55,8|2,0:0|0:0,0:0:0:0:
352,192,45378,5,0,0:0:0:0:
96,192,45747,1,0,0:0:0:0:
192,192,45870,1,8,0:0:0:0:
384,192,46116,1,0,0:0:0:0:
32,192,46362,1,8,0:0:0:0:
144,192,46731,1,0,0:0:0:0:
72,192,46854,1,8,0:0:0:0:
16,192,47100,5,0,0:0:0:0:
384,192,47345,2,0,L|512:8,1,220,4|8,0:0|0:0,0:0:0:0:
128,192,48329,2,0,L|0:8,1,220,2|8,0:0|0:0,0:0:0:0:
384,192,49313,1,4,0:0:0:0:
256,192,63083,12,0,64559,0:0:0:0:
448,192,65050,5,2,0:0:0:0:
64,192,65542,1,8,0:0:0:0:
448,192,66034,2,0,L|376:88,1,110,2|0,0:0|0:0,0:0:0:0:
64,192,66526,2,0,L|136:88,1,110,8|0,0:0|0:0,0:0:0:0:
432,192,67018,6,8,L|504:96,3,110,2|0|8|0,0:0|0:0|0:0|0:0,0:0:0:0:
80,192,68001,2,8,L|8:96,3,110,2|0|8|0,0:0|0:0|0:0|0:0,0:0:0:0:
344,192,68985,6,0,L|248:136,1,110,2|0,0:0|0:0,0:0:0:0:
32,136,69477,2,0,L|127:191,1,110,8|0,0:0|0:0,0:0:0:0:
448,192,69968,2,0,L|352:136,1,110,2|0,0:0|0:0,0:0:0:0:
512,192,70460,2,0,L|417:137,1,110,8|0,0:0|0:0,0:0:0:0:
256,192,70952,5,2,0:0:0:0:
128,192,71198,1,0,0:0:0:0:
152,192,71321,1,8,0:0:0:0:
256,192,71444,1,0,0:0:0:0:
384,192,71690,1,8,0:0:0:0:
360,192,71813,1,0,0:0:0:0:
256,192,71936,1,8,0:0:0:0:
320,192,72181,1,0,0:0:0:0:
200,192,72427,2,0,L|312:192,1,110
80,192,72919,6,0,B|176:120|176:120,1,110,2|0,0:0|0:0,0:0:0:0:
256,192,73411,1,8,0:0:0:0:
64,192,73657,1,0,0:0:0:0:
480,192,73903,2,0,L|384:136,1,110,2|0,0:0|0:0,0:0:0:0:
256,192,74395,1,8,0:0:0:0:
40,192,74641,1,0,0:0:0:0:
256,96,74886,6,0,L|192:192,1,110,2|0,0:0|0:0,0:0:0:0:
0,192,75378,1,8,0:0:0:0:
64,192,75624,1,0,0:0:0:0:
448,192,75870,2,0,L|256:80,2,220,0|8|2,0:0|0:0|0:0,0:0:0:0:
32,192,77345,5,8,0:0:0:0:
448,192,77837,2,8,L|312:0,1,220,2|8,0:0|0:0,0:0:0:0:
0,192,78821,5,8,0:0:0:0:
424,192,79128,1,0,0:0:0:0:
176,192,79436,1,2,0:0:0:0:
384,192,79744,1,0,0:0:0:0:
64,192,80159,2,0,L|192:88,1,165,8|2,0:0|0:0,0:0:0:0:
432,88,80650,1,4,0:0:0:0:
