osu file format v14

[General]
AudioFilename: Supernatural Remix.mp3
AudioLeadIn: 0
PreviewTime: 76253
Countdown: 1
SampleSet: Normal
StackLeniency: 0.7
Mode: 0
LetterboxInBreaks: 0
WidescreenStoryboard: 1

[Editor]
Bookmarks: 9653,19253,28853,38453,48053,57653,67253,76853,86453,96053,105653,115253,124853,134453,144053,153653,163253,172853,181253,189653,199253,208853,218453,228053
DistanceSpacing: 1.2
BeatDivisor: 4
GridSize: 4
TimelineZoom: 1

[Metadata]
Title:Supernatural [Glaze Remix]
TitleUnicode:Supernatural [Glaze Remix]
Artist:Ken Ashcorp
ArtistUnicode:Ken Ashcorp
Creator:Hullahopp
Version:Easy
Source:Glaze himself
Tags:
BeatmapID:1167827
BeatmapSetID:551343

[Difficulty]
HPDrainRate:1
CircleSize:2
OverallDifficulty:1
ApproachRate:1
SliderMultiplier:0.8
SliderTickRate:1

[Events]
//Background and Video events
0,0,"BG.jpg",0,0
//Break Periods
2,62653,65573
2,120253,123173
2,153653,161573
2,179653,180773
2,184452,187973
//Storyboard Layer 0 (Background)
//Storyboard Layer 1 (Fail)
//Storyboard Layer 2 (Pass)
//Storyboard Layer 3 (Foreground)
//Storyboard Sound Samples

[TimingPoints]
53.2667929223319,600,4,1,0,60,1,0
76853,-100,4,1,0,60,0,1
96053,-100,4,1,0,60,0,0
134453,-100,4,1,0,60,0,1
153653,-100,4,1,0,60,0,0
208853,-100,4,1,0,60,0,1
228053,-100,4,1,0,60,0,0

[Colours]
Combo1 : 255,70,9
Combo2 : 164,32,240
Combo3 : 37,185,239
Combo4 : 23,209,116
Combo5 : 226,45,124

[HitObjects]
120,328,9653,6,0,P|92:256|124:184,1,160
212,140,11453,1,0,0:0:0:0:
292,192,12053,2,0,P|368:212|436:176,1,160
452,80,13853,1,0,0:0:0:0:
364,44,14453,6,0,B|288:24|288:24|204:32,2,160
452,80,17453,1,0,0:0:0:0:
464,176,18053,2,0,P|464:224|452:256,1,80
368,296,19253,6,0,B|288:320|288:272|208:296,1,160
120,328,21053,1,0,0:0:0:0:
44,268,21653,6,0,P|36:224|40:188,2,80
120,328,23453,1,0,0:0:0:0:
192,264,24053,2,0,B|212:228|212:188|212:188|176:164|168:120,1,160
264,104,25853,1,0,0:0:0:0:
328,176,26453,6,0,P|372:188|408:184,1,80
476,120,27653,2,0,P|496:200|456:264,1,160
368,296,29453,5,0,0:0:0:0:
280,256,30053,2,0,P|260:176|300:112,1,160
376,56,31853,5,0,0:0:0:0:
288,20,32453,2,0,B|208:8|208:8|124:20,1,160
56,80,34253,5,0,0:0:0:0:
104,164,34853,2,0,P|112:208|104:248,1,80
24,288,36053,6,0,P|88:336|164:316,1,160
248,148,38453,5,0,0:0:0:0:
300,68,39053,2,0,L|380:76,1,80
460,128,40253,2,0,P|476:204|440:280,1,160
348,292,42053,6,0,L|264:284,1,80
172,296,43253,2,0,P|96:256|80:184,1,160
120,100,45053,1,0,0:0:0:0:
204,52,45653,6,0,L|292:44,2,80
120,100,47453,1,0,0:0:0:0:
196,160,48053,6,0,L|356:144,1,160
420,72,49853,1,0,0:0:0:0:
452,164,50453,6,0,P|456:240|392:292,1,160
300,288,52253,1,0,0:0:0:0:
212,248,52853,6,0,L|52:236,1,160
4,152,54653,1,0,0:0:0:0:
100,148,55253,6,0,P|148:136|176:112,1,80
232,44,56453,2,0,B|312:72|312:24|392:44,1,160
256,192,57953,12,0,62453,0:0:0:0:
256,192,67253,12,0,70853,0:0:0:0:
400,296,72053,6,0,P|416:232|392:140,1,160
308,96,73853,1,0,0:0:0:0:
224,140,74453,6,0,P|148:162|70:146,1,160
4,76,76253,1,0,0:0:0:0:
100,64,76853,6,0,P|140:76|180:64,1,80
252,8,78053,2,0,B|332:24|332:24|408:56,1,160
456,136,79853,5,0,0:0:0:0:
488,228,80453,2,0,P|480:304|408:336,1,160
316,312,82253,5,0,0:0:0:0:
228,272,82853,2,0,L|148:264,1,80
72,324,84053,6,0,P|52:244|100:180,1,160
188,160,85853,1,0,0:0:0:0:
280,188,86453,2,0,P|356:208|436:188,1,160
492,112,88253,1,0,0:0:0:0:
396,104,88853,6,0,P|356:116|320:104,1,80
268,24,90053,2,0,L|100:32,1,160
48,108,91853,5,0,0:0:0:0:
108,184,92453,2,0,P|116:236|104:268,1,80
40,328,93653,2,0,L|200:324,1,160
372,240,96053,5,0,0:0:0:0:
444,176,96653,2,0,P|456:112|400:40,1,160
304,44,98453,5,0,0:0:0:0:
240,116,99053,2,0,L|80:144,1,160
28,224,100853,5,0,0:0:0:0:
108,276,101453,2,0,P|104:324|92:352,2,80
204,280,103253,6,0,P|280:300|360:280,2,160
144,204,106253,5,0,0:0:0:0:
240,196,106853,2,0,P|280:208|320:196,1,80
404,240,108053,6,0,P|356:176|360:96,1,160
412,20,109853,1,0,0:0:0:0:
316,20,110453,6,0,L|232:28,1,80
192,112,111653,2,0,L|108:120,1,80
36,180,112853,6,0,P|28:224|40:268,1,80
120,304,114053,2,0,B|204:308|204:308|284:296,1,160
256,192,115553,12,0,120053,0:0:0:0:
256,192,124853,12,0,128453,0:0:0:0:
340,324,129653,6,0,P|384:260|384:180,1,160
308,120,131453,1,0,0:0:0:0:
220,160,132053,6,0,B|140:176|140:176|60:160,1,160
4,84,133853,1,0,0:0:0:0:
100,68,134453,6,0,B|140:76|140:76|184:68,1,80
264,24,135653,2,0,L|424:36,1,160
496,96,137453,5,0,0:0:0:0:
452,180,138053,2,0,B|440:220|448:260|448:260|408:280|368:276,1,160
284,240,139853,5,0,0:0:0:0:
204,188,140453,2,0,P|160:184|124:188,1,80
60,260,141653,6,0,P|28:188|60:116,1,160
140,68,143453,1,0,0:0:0:0:
232,40,144053,6,0,L|392:52,1,160
460,116,145853,1,0,0:0:0:0:
476,212,146453,6,0,P|476:256|456:288,1,80
368,324,147653,2,0,L|208:304,1,160
132,244,149453,5,0,0:0:0:0:
80,164,150053,2,0,P|76:112|84:80,1,80
156,24,151253,2,0,P|232:56|312:48,1,160
192,144,163253,5,0,0:0:0:0:
272,196,163853,2,0,P|280:236|272:276,2,80
192,144,165653,6,0,P|260:104|344:132,1,160
380,208,167453,1,0,0:0:0:0:
312,276,168053,6,0,B|232:292|232:292|152:276,1,160
76,220,169853,1,0,0:0:0:0:
20,140,170453,6,0,P|32:60|100:24,1,160
192,44,172253,1,0,0:0:0:0:
272,96,172853,6,0,P|344:124|420:96,1,160
468,16,174653,1,0,0:0:0:0:
512,100,175253,6,0,B|508:180|508:180|464:248,1,160
388,304,177053,1,0,0:0:0:0:
292,324,177653,6,0,B|232:328|232:328|176:296,2,120
220,60,182453,6,0,B|280:56|280:56|336:88,2,120
152,276,189653,6,0,P|228:304|308:296,1,160
384,244,191453,1,0,0:0:0:0:
412,152,192053,6,0,B|416:116|400:76|400:76|360:92|320:84,1,160
228,52,193853,1,0,0:0:0:0:
136,20,194453,6,0,P|60:44|32:116,1,160
84,192,196253,1,0,0:0:0:0:
36,276,196853,6,0,L|24:360,2,80
84,192,198653,1,0,0:0:0:0:
164,244,199253,6,0,P|200:264|240:264,1,80
320,212,200453,2,0,B|400:208|400:208|380:172|384:128,1,160
420,44,202253,5,0,0:0:0:0:
328,20,202853,2,0,L|248:24,1,80
176,84,204053,6,0,B|136:96|96:88|96:88|104:132|88:168,1,160
40,248,205853,1,0,0:0:0:0:
116,308,206453,6,0,P|192:332|272:316,1,160
440,228,208853,6,0,P|448:192|440:148,1,80
368,88,210053,2,0,P|292:108|212:88,1,160
144,24,211853,5,0,0:0:0:0:
68,84,212453,2,0,L|72:164,1,80
40,256,213653,6,0,P|100:308|180:312,1,160
248,248,215453,1,0,0:0:0:0:
328,196,216053,6,0,P|340:272|284:336,1,160
248,248,217853,1,0,0:0:0:0:
240,152,218453,6,0,P|264:120|304:100,1,80
392,124,219653,2,0,B|432:136|472:128|472:128|456:164|460:208,1,160
492,296,221453,5,0,0:0:0:0:
408,344,222053,2,0,P|332:364|248:344,1,160
196,272,223853,5,0,0:0:0:0:
140,192,224453,2,0,L|60:184,2,80
224,144,226253,5,0,0:0:0:0:
308,96,226853,2,0,P|388:88|436:28,1,160
