osu file format v14

[General]
AudioFilename: Supernatural Remix.mp3
AudioLeadIn: 0
PreviewTime: 76253
Countdown: 1
SampleSet: Normal
StackLeniency: 0.7
Mode: 0
LetterboxInBreaks: 0
WidescreenStoryboard: 0

[Editor]
Bookmarks: 9653,19253,28853,38453,48053,57653,67253,76853,86453,96053,105653,115253,124853,134453,144053,153653,163253,172853,181253,189653,199253,208853,218453,228053
DistanceSpacing: 1
BeatDivisor: 4
GridSize: 4
TimelineZoom: 1

[Metadata]
Title:Supernatural [Glaze Remix]
TitleUnicode:Supernatural [Glaze Remix]
Artist:Ken Ashcorp
ArtistUnicode:Ken Ashcorp
Creator:Hullahopp
Version:Adventure!
Source:Glaze himself
Tags:
BeatmapID:1167826
BeatmapSetID:551343

[Difficulty]
HPDrainRate:5
CircleSize:4
OverallDifficulty:4
ApproachRate:6
SliderMultiplier:1.6
SliderTickRate:1

[Events]
//Background and Video events
0,0,"BG.jpg",0,0
//Break Periods
2,62653,66203
2,120253,123803
2,153853,162203
2,179653,181103
2,184453,187253
//Storyboard Layer 0 (Background)
//Storyboard Layer 1 (Fail)
//Storyboard Layer 2 (Pass)
//Storyboard Layer 3 (Foreground)
//Storyboard Sound Samples

[TimingPoints]
53.2667929223319,600,4,1,0,60,1,0
76853,-100,4,1,0,60,0,1
96053,-100,4,1,0,60,0,0
134453,-100,4,1,0,60,0,1
153653,-100,4,1,0,60,0,0
208853,-100,4,1,0,60,0,1
228053,-100,4,1,0,60,0,0

[Colours]
Combo1 : 255,70,9
Combo2 : 164,32,240
Combo3 : 37,185,239
Combo4 : 23,209,116
Combo5 : 226,45,124

[HitObjects]
204,288,9653,6,0,P|268:296|312:260,2,120,0|0|0,0:3|0:3|0:3,0:3:0:0:
148,232,10853,2,0,P|140:168|176:124,2,120
216,192,12053,6,0,L|336:188,1,120
436,64,12953,1,0,0:0:0:0:
368,20,13253,2,0,P|356:68|392:132,2,120
436,64,14453,6,0,P|465:114|455:172,1,120
344,216,15353,1,0,0:0:0:0:
284,164,15653,2,0,P|240:144|172:160,2,120
344,216,16853,6,0,B|352:280|352:280|344:336,2,120
384,148,18053,2,0,B|372:116|380:84|380:84|332:104|288:88,1,160
128,60,19253,6,0,P|136:108|128:140,1,80
84,204,19853,2,0,P|156:180|236:204,1,160
288,260,20753,1,0,0:0:0:0:
360,296,21053,2,0,P|368:256|356:216,1,80
316,152,21653,6,0,P|305:113|313:74,2,80
385,112,22553,1,0,0:0:0:0:
376,32,22853,2,0,P|304:0|240:48,1,160
220,120,23753,1,0,0:0:0:0:
240,196,24053,6,0,B|240:228|256:256|256:256|232:268|200:248|160:272,1,160
88,300,24953,1,0,0:0:0:0:
40,236,25253,2,0,P|32:196|40:156,1,80
104,108,25853,2,0,P|144:100|184:108,1,80
256,136,26453,6,0,P|295:143|334:135,2,80
294,65,27353,1,0,0:0:0:0:
372,76,27653,2,0,P|396:104|404:152,2,80
294,65,28553,1,0,0:0:0:0:
256,136,28853,6,0,P|240:180|252:256,1,120
284,272,29453,2,0,L|364:280,1,80
432,236,30053,2,0,P|444:288|408:348,1,120
376,360,30653,2,0,B|344:364|316:348|316:348|256:356,1,120
220,360,31253,6,0,P|176:360|144:344,1,80
112,272,31853,1,0,0:0:0:0:
164,212,32153,1,0,0:0:0:0:
232,252,32453,2,0,P|312:272|368:224,1,160
292,200,33353,1,0,0:0:0:0:
220,168,33653,6,0,P|188:132|192:64,1,120
224,40,34253,2,0,L|344:36,1,120
343,36,34853,1,0,0:0:0:0:
416,180,35453,2,0,P|412:232|368:280,1,120
328,288,36053,6,0,L|208:284,1,120
208,284,36653,1,0,0:0:0:0:
256,192,36803,12,0,38453,0:0:0:0:
80,192,39053,6,0,P|120:220|152:224,1,80
224,192,39653,2,0,L|304:196,1,80
368,152,40253,2,0,L|376:72,2,80
256,264,41453,6,0,P|244:224|256:184,1,80
332,184,42053,2,0,P|344:224|332:264,1,80
256,264,42653,2,0,L|176:268,1,80
96,252,43253,6,0,P|72:176|104:104,1,160
176,68,44153,1,0,0:0:0:0:
248,104,44453,2,0,P|278:176|254:250,1,160
196,304,45353,1,0,0:0:0:0:
268,340,45653,6,0,L|324:348,2,53.3333333333333
308,272,46253,2,0,L|364:264,2,53.3333333333333
324,196,46853,2,0,B|344:168|340:132|340:132|384:152|428:128,1,160
380,64,47753,1,0,0:0:0:0:
304,40,48053,6,0,L|224:44,1,80
152,76,48653,2,0,P|104:144|124:212,1,160
192,256,49553,1,0,0:0:0:0:
272,264,49853,2,0,L|356:268,1,80
392,200,50453,6,0,L|232:192,1,160
156,168,51353,1,0,0:0:0:0:
188,96,51653,2,0,P|184:56|152:16,1,80
108,84,52253,2,0,L|80:164,1,80
96,240,52853,6,0,P|148:300|224:308,1,160
296,276,53753,1,0,0:0:0:0:
372,296,54053,2,0,B|384:344|384:344|380:376,2,80
412,228,54953,1,0,0:0:0:0:
432,152,55253,6,0,P|424:108|400:84,1,80
320,88,55853,6,0,P|290:114|251:118,1,80
180,84,56453,1,0,0:0:0:0:
120,140,56753,1,0,0:0:0:0:
152,212,57053,1,0,0:0:0:0:
232,204,57353,1,0,0:0:0:0:
252,128,57653,5,0,0:0:0:0:
256,192,57803,12,0,62453,0:0:0:0:
256,192,67253,12,0,71453,0:0:0:0:
64,216,72053,6,0,P|100:232|140:232,1,80
212,192,72653,2,0,L|300:188,1,80
360,144,73253,2,0,L|439:140,2,80
288,112,74153,1,0,0:0:0:0:
212,88,74453,6,0,P|212:132|228:164,1,80
288,216,75053,2,0,P|304:251|303:291,1,80
228,268,75653,2,0,L|148:272,1,80
108,264,76103,1,0,0:0:0:0:
84,232,76253,2,0,B|68:192|72:168|72:168|120:184|168:168,1,160
268,108,77303,5,0,0:0:0:0:
268,108,77453,2,0,P|312:100|380:136,1,120
376,172,78053,2,0,L|380:260,1,80
304,280,78653,2,0,B|228:264|228:296|144:280,1,160
80,236,79553,5,0,0:0:0:0:
44,164,79853,2,0,P|92:156|124:168,1,80
188,208,80453,2,0,L|268:200,2,80
120,166,81353,1,0,0:0:0:0:
168,100,81653,6,0,L|288:88,1,120
328,96,82253,2,0,P|352:128|356:168,1,80
320,240,82853,2,0,P|324:279|348:310,1,80
428,320,83453,2,0,P|423:280|399:249,1,80
320,240,84053,6,0,P|280:256|244:256,1,80
168,232,84653,1,0,0:0:0:0:
136,160,84953,1,0,0:0:0:0:
188,100,85253,2,0,P|212:136|212:180,1,80
168,232,85853,2,0,P|171:271|194:303,1,80
272,320,86453,6,0,B|312:316|312:316|328:308|328:308|348:312|348:312|392:308,1,120
424,288,87053,2,0,P|436:248|432:208,1,80
372,156,87653,2,0,P|316:168|252:152,1,120
255,153,88253,1,0,0:0:0:0:
164,76,88703,1,0,0:0:0:0:
164,76,88853,6,0,P|140:112|136:152,1,80
156,224,89453,1,0,0:0:0:0:
200,288,89753,1,0,0:0:0:0:
276,316,90053,2,0,B|288:276|268:244|268:244|288:256|320:252|320:252|356:248|376:256,1,160
424,288,90953,1,0,0:0:0:0:
464,220,91253,6,0,P|476:156|456:104,1,120
424,80,91853,2,0,P|360:68|308:88,1,120
309,86,92453,1,0,0:0:0:0:
248,232,93053,2,0,P|192:248|132:236,1,120
136,196,93653,6,0,P|152:140|140:80,1,120
140,80,94253,1,0,0:0:0:0:
256,192,94403,12,0,96053,0:0:0:0:
108,124,96653,6,0,P|144:144|184:144,1,80
252,104,97253,2,0,L|332:108,1,80
384,168,97853,2,0,L|396:252,2,80
276,284,99053,6,0,P|240:304|200:304,1,80
128,268,99653,2,0,P|108:232|108:192,1,80
144,120,100253,1,0,0:0:0:0:
220,152,100553,1,0,0:0:0:0:
296,120,100853,6,0,P|376:108|444:148,1,160
464,224,101753,1,0,0:0:0:0:
408,284,102053,2,0,B|368:292|368:292|328:284,1,80
252,264,102653,2,0,B|213:256|213:256|173:264,1,80
136,336,103253,6,0,P|92:268|124:200,1,160
192,160,104153,1,0,0:0:0:0:
272,176,104453,2,0,B|316:196|356:184|356:184|344:148|360:108,1,160
428,72,105353,1,0,0:0:0:0:
432,152,105653,6,0,P|424:240|356:272,1,160
288,276,106553,1,0,0:0:0:0:
216,240,106853,2,0,B|176:236|176:236|136:240,1,80
56,240,107453,2,0,P|44:200|48:160,2,80
176,136,108653,6,0,L|256:132,1,80
328,164,109253,2,0,L|408:160,1,80
476,204,109853,2,0,P|480:252|468:284,1,80
404,328,110453,6,0,B|324:344|324:344|244:332,1,160
172,304,111353,1,0,0:0:0:0:
112,252,111653,2,0,P|104:212|108:172,1,80
172,124,112253,2,0,P|212:132|252:128,1,80
320,88,112853,6,0,L|400:76,2,80
250,128,113753,1,0,0:0:0:0:
308,184,114053,2,0,L|320:264,2,80,0|0|0,2:0|2:0|2:0,2:0:0:0:
250,128,114953,1,0,0:0:0:0:
256,192,115253,12,0,120053,0:0:0:0:
256,192,124853,12,0,129053,0:0:0:0:
440,188,129653,6,0,L|360:184,1,80
300,132,130253,2,0,P|280:168|284:212,1,80
336,264,130853,2,0,L|416:268,2,80
264,296,131753,1,0,0:0:0:0:
184,308,132053,6,0,P|136:300|112:280,1,80
76,208,132653,2,0,L|84:128,1,80
124,60,133253,2,0,P|163:31|194:28,1,80
228,48,133703,1,0,0:0:0:0:
264,68,133853,2,0,B|280:80|304:88|304:88|332:80|332:80|312:120|336:168,1,160
244,244,134903,5,0,0:0:0:0:
244,244,135053,2,0,P|220:208|228:132,1,120
264,120,135653,2,0,P|296:144|340:144,1,80
404,104,136253,2,0,B|428:184|428:184|416:264,1,160
356,312,137153,5,0,0:0:0:0:
280,288,137453,2,0,P|240:280|200:280,1,80
136,328,138053,2,0,L|56:336,2,80
200,279,138953,1,0,0:0:0:0:
228,204,139253,6,0,P|232:124|180:64,1,160
104,60,140153,1,0,0:0:0:0:
68,132,140453,2,0,B|64:172|64:172|68:212,1,80
128,264,141053,2,0,L|208:272,1,80
288,276,141653,5,0,0:0:0:0:
344,216,141953,1,0,0:0:0:0:
328,136,142253,2,0,L|248:132,1,80
180,88,142853,2,0,L|100:84,2,80
248,132,143753,1,0,0:0:0:0:
288,200,144053,6,0,B|280:268|280:268|276:304|292:328,1,120
316,344,144653,2,0,P|356:352|392:340,1,80
424,264,145253,2,0,L|436:144,1,120
435,144,145853,1,0,0:0:0:0:
332,84,146303,1,0,0:0:0:0:
332,84,146453,6,0,P|288:112|256:112,1,80
188,80,147053,1,0,0:0:0:0:
108,92,147353,1,0,0:0:0:0:
76,164,147653,2,0,P|84:248|144:288,1,160
224,292,148553,1,0,0:0:0:0:
304,284,148853,6,0,B|344:280|344:280|360:272|360:272|376:280|376:280|420:276,1,120
456,256,149453,2,0,P|464:216|424:144,1,120
429,147,150053,1,0,0:0:0:0:
268,144,150653,2,0,P|218:176|159:170,1,120
124,156,151253,6,0,B|96:216|96:216|96:272,1,120
96,269,151853,1,0,0:0:0:0:
256,192,152003,12,0,153653,0:0:0:0:
192,296,163253,6,0,P|236:292|264:272,1,80
296,200,163853,2,0,L|288:120,1,80
236,60,164453,2,0,L|156:52,2,80
316,40,165353,1,0,0:0:0:0:
396,60,165653,6,0,L|476:52,2,80
316,40,166553,2,0,P|296:124|340:180,1,160
404,224,167453,2,0,P|376:252|336:260,1,80
256,252,168053,5,0,0:0:0:0:
188,300,168353,2,0,P|148:312|108:304,1,80
60,244,168953,1,0,0:0:0:0:
84,168,169253,2,0,L|80:88,2,80
60,244,170153,1,0,0:0:0:0:
140,240,170453,6,0,B|180:236|180:236|224:228,1,80
256,156,171053,1,0,0:0:0:0:
300,88,171353,2,0,P|340:156|300:224,1,160
252,280,172253,2,0,P|284:300|328:300,1,80
396,264,172853,6,0,P|421:235|428:192,1,80
392,124,173453,2,0,L|312:116,1,80
236,136,174053,2,0,L|156:128,2,80
256,212,174953,1,0,0:0:0:0:
244,292,175253,6,0,P|228:332|196:352,1,80
120,340,175853,1,0,0:0:0:0:
64,284,176153,2,0,B|44:244|64:200|64:200|96:132,1,160
172,104,177053,1,0,0:0:0:0:
244,68,177353,2,0,L|240:28,2,40
340,136,178103,5,0,0:0:0:0:
260,228,178553,1,0,0:0:0:0:
148,184,179003,1,0,0:0:0:0:
228,92,179453,1,0,0:0:0:0:
368,280,182153,6,0,L|364:320,2,40
264,216,182903,5,0,0:0:0:0:
152,256,183353,1,0,0:0:0:0:
64,176,183803,1,0,0:0:0:0:
176,136,184253,1,0,0:0:0:0:
376,268,189653,6,0,P|384:208|348:156,2,120
304,300,190853,2,0,L|184:304,2,120
272,228,192053,6,0,P|264:168|300:116,1,120
396,60,192953,1,0,0:0:0:0:
324,28,193253,2,0,L|200:32,1,120
108,104,194153,1,0,0:0:0:0:
160,168,194453,6,0,P|172:228|148:280,2,120
108,104,195653,2,0,P|164:84|224:116,1,120
264,216,196553,1,0,0:0:0:0:
336,256,196853,6,0,B|400:268|400:268|456:248,2,120
264,216,198053,2,0,P|260:172|272:140,1,80
304,112,198503,1,0,0:0:0:0:
272,84,198653,2,0,B|192:64|192:104|112:84,1,160
56,192,199703,5,0,0:0:0:0:
56,192,199853,2,0,P|56:232|76:268,1,80
144,304,200453,2,0,L|264:308,1,120
263,307,201053,1,0,0:0:0:0:
380,284,201503,1,0,0:0:0:0:
380,284,201653,6,0,P|368:240|372:204,1,80
432,152,202253,1,0,0:0:0:0:
436,72,202553,1,0,0:0:0:0:
360,44,202853,2,0,B|336:52|304:48|304:48|292:108|232:108,1,160
156,80,203753,1,0,0:0:0:0:
96,136,204053,6,0,P|72:196|88:252,1,120
120,272,204653,2,0,L|240:292,1,120
238,291,205253,1,0,0:0:0:0:
396,260,205853,2,0,P|416:204|400:148,1,120
360,140,206453,6,0,P|304:160|248:144,1,120
247,143,207053,1,0,0:0:0:0:
256,192,207203,12,0,208853,0:0:0:0:
124,268,209303,5,0,0:0:0:0:
124,268,209453,2,0,P|176:304|232:296,1,120
260,268,210053,2,0,L|272:188,1,80
220,128,210653,2,0,P|300:112|348:164,1,160
340,244,211553,5,0,0:0:0:0:
396,300,211853,2,0,P|416:264|416:224,1,80
460,160,212453,2,0,L|464:80,2,80
416,225,213353,1,0,0:0:0:0:
348,180,213653,6,0,P|292:148|200:160,1,160
144,216,214553,1,0,0:0:0:0:
84,160,214853,2,0,L|80:80,1,80
152,44,215453,2,0,P|192:64|228:64,1,80
292,16,216053,5,0,0:0:0:0:
368,40,216353,1,0,0:0:0:0:
344,116,216653,2,0,L|348:196,1,80
412,244,217253,2,0,P|452:252|492:244,2,80
347,195,218153,1,0,0:0:0:0:
284,244,218453,6,0,P|224:264|168:248,1,120
144,220,219053,2,0,L|160:140,1,80
156,60,219653,2,0,P|96:88|76:136,1,120
76,134,220253,1,0,0:0:0:0:
44,252,220703,1,0,0:0:0:0:
44,252,220853,6,0,P|72:284|112:292,1,80
180,260,221453,2,0,L|260:256,1,80
332,288,222053,2,0,P|324:208|244:180,1,160
180,188,222953,1,0,0:0:0:0:
100,172,223253,6,0,P|64:144|72:76,1,120
112,64,223853,2,0,P|176:80|228:60,1,120
225,62,224453,1,0,0:0:0:0:
384,68,225053,6,0,P|360:132|376:184,1,120
396,212,225653,2,0,P|420:276|404:328,1,120
406,323,226253,1,0,0:0:0:0:
256,192,226403,12,0,228053,0:0:0:0:
