osu file format v14

[General]
AudioFilename: audio.mp3
AudioLeadIn: 0
PreviewTime: -1
Countdown: 1
SampleSet: None
StackLeniency: 1
Mode: 0
LetterboxInBreaks: 0
WidescreenStoryboard: 0

[Editor]
Bookmarks: 65720,69595
DistanceSpacing: 0.6
BeatDivisor: 4
GridSize: 4
TimelineZoom: 1

[Metadata]
Title:On The Rocks
TitleUnicode:On The Rocks
Artist:Ken Ashcorp
ArtistUnicode:Ken Ashcorp
Creator:avalanche
Version:Emotional
Source:
Tags:
BeatmapID:1219778
BeatmapSetID:576125

[Difficulty]
HPDrainRate:6
CircleSize:4.2
OverallDifficulty:9
ApproachRate:9
SliderMultiplier:2.2
SliderTickRate:2

[Events]
//Background and Video events
0,0,"Colours-dance-wallpaper-blue-green-yellow-red-full-hd-abstract-high-resolution.jpg",0,0
//Break Periods
//Storyboard Layer 0 (Background)
//Storyboard Layer 1 (Fail)
//Storyboard Layer 2 (Pass)
//Storyboard Layer 3 (Foreground)
//Storyboard Sound Samples

[TimingPoints]
1841.32374971628,504.201680672269,4,1,0,100,1,0
15958,-142.857142857143,4,1,0,100,0,0
17970,500,4,1,0,100,1,0
17975,-100,4,1,0,100,0,0
19220,-66.6666666666667,4,1,0,100,0,0
19970,-100,4,1,0,100,0,0
21720,-50,4,1,0,100,0,0
21970,-100,4,1,0,100,0,0
23220,-66.6666666666667,4,1,0,100,0,0
23970,-100,4,1,0,100,0,0
25720,-66.6666666666667,4,1,0,100,0,0
25970,-100,4,1,0,100,0,0
26470,-83.3333333333333,4,1,0,100,0,0
26970,-100,4,1,0,100,0,0
27220,-66.6666666666667,4,1,0,100,0,0
27970,-100,4,1,0,100,0,0
29720,-50,4,1,0,100,0,0
29970,-100,4,1,0,100,0,0
33970,-83.3333333333333,4,1,0,100,0,0
35220,-62.5,4,1,0,100,0,0
35970,-83.3333333333333,4,1,0,100,0,0
37720,-50,4,1,0,100,0,0
37970,-83.3333333333333,4,1,0,100,0,0
39220,-62.5,4,1,0,100,0,0
39970,-83.3333333333333,4,1,0,100,0,0
41220,-55.5555555555556,4,1,0,100,0,0
41470,-62.5,4,1,0,100,0,0
41970,-83.3333333333333,4,1,0,100,0,0
43470,-62.5,4,1,0,100,0,0
43970,-83.3333333333333,4,1,0,100,0,0
45220,-62.5,4,1,0,100,0,0
45970,-83.3333333333333,4,1,0,100,0,0
49345,-71.4285714285714,4,1,0,100,0,0
49720,-62.5,4,1,0,100,0,0
49970,-100,4,1,0,100,0,0
57345,-90.9090909090909,4,1,0,100,0,0
57720,-83.3333333333333,4,1,0,100,0,0
57970,-83.3333333333333,4,1,0,100,0,0
81970,-66.6666666666667,4,1,0,100,0,0

[HitObjects]
256,192,1841,12,0,9782,0:0:0:0:
256,192,9908,12,0,15832,0:0:0:0:
88,320,15958,6,0,B|80:280|80:280|80:260|80:260|72:240|72:240|68:184,1,115.49999647522
84,192,16463,1,0,0:0:0:0:
248,236,16967,5,0,0:0:0:0:
328,200,17219,1,0,0:0:0:0:
188,148,17471,5,0,0:0:0:0:
168,184,17597,1,0,0:0:0:0:
164,204,17723,1,0,0:0:0:0:
160,224,17849,1,0,0:0:0:0:
156,244,17975,6,0,B|112:264|112:264|-12:244,1,165
188,148,18470,2,0,P|196:84|236:136,1,165
236,288,18970,2,0,B|232:320|232:320|236:344,1,55
392,328,19220,2,0,L|288:316,1,82.5000031471254
408,324,19470,2,0,L|308:312,1,82.5000031471254
424,320,19720,2,0,L|328:308,1,82.5000031471254
304,232,19970,6,0,P|300:152|312:56,1,165
220,224,20470,2,0,P|224:280|220:336,1,110
144,240,20845,1,0,0:0:0:0:
80,192,20970,1,0,0:0:0:0:
104,80,21220,2,0,L|108:132,1,36.6666666666667
264,56,21470,2,0,L|260:100,1,36.6666666666667
224,256,21720,2,0,B|216:212|216:212|220:184|220:184|213:147,1,110
368,280,21970,6,0,B|376:316|400:356|400:356|416:304|404:260,1,165
388,112,22470,2,0,B|379:82|395:30|395:30|419:70|427:106,1,165
316,144,22970,2,0,P|308:112|308:80,1,55
308,224,23220,2,0,B|284:220|268:208|268:208|244:216|230:211,1,82.5000031471254
296,232,23470,2,0,B|272:228|256:216|256:216|232:224|218:219,1,82.5000031471254
284,240,23720,2,0,B|260:236|244:224|244:224|220:232|206:227,1,82.5000031471254
20,224,23970,6,0,B|52:212|76:224|108:204|108:204|88:244|44:244,1,165
148,292,24470,2,0,P|160:320|164:360,1,55
244,348,24720,1,0,0:0:0:0:
248,340,24845,1,0,0:0:0:0:
324,320,24970,2,0,P|380:332|440:312,1,110
332,332,25345,2,0,P|388:328|432:292,1,110
404,144,25720,2,0,P|392:192|412:252,1,82.5000031471254
308,144,25970,6,0,B|264:144|228:124|228:124|188:140|132:132,1,165
48,168,26470,2,0,B|84:128|92:68|92:68|108:112|152:136,1,197.99999395752
188,216,26970,2,0,P|184:244|200:288,1,55
288,348,27220,2,0,P|292:304|268:308,1,82.5000031471254
288,348,27470,2,0,P|284:303|261:312,1,82.5000031471254
288,348,27720,2,0,P|276:305|255:317,1,82.5000031471254
384,296,27970,6,0,B|428:304|448:336|448:336|496:308|500:248,1,165
444,84,28470,2,0,B|444:112|456:136|456:136|444:160|448:192,1,110
460,200,28845,1,0,0:0:0:0:
368,108,28970,2,0,L|288:100,1,55
244,184,29220,2,0,L|256:132,1,36.6666666666667
180,104,29470,2,0,L|220:80,1,36.6666666666667
132,164,29720,2,0,P|84:176|16:152,1,110
124,252,29970,6,0,P|168:244|216:252,1,73.3333333333333
332,296,30220,2,0,P|288:288|240:296,1,73.3333333333333
204,344,30470,1,0,0:0:0:0:
268,212,30720,2,0,P|276:172|268:116,1,73.3333333333333
168,72,30970,2,0,P|192:88|220:92,1,55
356,164,31220,2,0,P|420:112|432:24,1,165
432,216,31720,2,0,P|436:256|456:296,1,55
340,352,31970,6,0,B|348:300|332:256|332:256|308:280|304:316,1,165
240,264,32470,2,0,P|208:256|172:252,1,55
76,276,32720,1,0,0:0:0:0:
92,264,32803,1,0,0:0:0:0:
104,244,32886,1,0,0:0:0:0:
108,220,32970,2,0,L|92:88,1,110
88,104,33345,2,0,L|104:236,1,110
232,180,33720,2,0,L|152:172,1,55
268,96,33970,6,0,B|292:64|324:64|324:64|352:128|312:220,1,197.99999395752
284,300,34470,2,0,B|308:344|356:360|356:360|408:348|436:296,1,197.99999395752
252,228,34970,2,0,P|220:248|204:280,1,65.9999979858399
220,364,35220,2,0,P|180:344|104:348,1,88
220,364,35470,2,0,P|180:344|104:348,1,88
220,364,35720,2,0,P|180:344|104:348,1,88
48,356,35970,6,0,B|72:288|60:212|60:212|48:244|48:280,1,197.99999395752
40,144,36470,2,0,P|56:208|124:232,1,131.99999597168
184,208,36845,1,0,0:0:0:0:
264,232,36970,2,0,P|304:236|352:224,1,65.9999979858399
436,204,37220,2,0,P|412:196|380:196,1,43.9999986572266
316,116,37470,2,0,P|318:137|325:158,1,43.9999986572266
329,340,37720,2,0,P|337:288|329:232,1,110
152,324,37970,6,0,B|128:320|104:328|104:328|184:348|249:313,1,197.99999395752
76,192,38470,2,0,P|36:256|88:220,1,197.99999395752
32,104,38970,2,0,P|40:72|60:44,1,65.9999979858399
216,112,39220,2,0,B|168:120|168:120|104:104,1,88
216,112,39470,2,0,B|168:120|168:120|104:104,1,88
216,112,39720,2,0,B|168:120|168:120|104:104,1,88
304,28,39970,6,0,L|332:244,1,197.99999395752
324,256,40470,2,0,L|332:184,1,65.9999979858399
372,320,40720,1,0,0:0:0:0:
380,328,40845,1,0,0:0:0:0:
252,296,40970,2,0,P|240:328|244:368,1,65.9999979858399
248,264,41220,2,0,P|232:312|248:372,1,98.9999969787599
260,110,41470,2,0,P|213:221|242:361,1,264
136,128,41970,6,0,B|132:80|88:40|88:40|68:92|88:144,1,197.99999395752
220,288,42470,2,0,P|240:360|168:312,1,197.99999395752
272,160,42970,2,0,L|284:248,1,65.9999979858399
332,284,43220,1,0,0:0:0:0:
344,288,43345,1,0,0:0:0:0:
356,292,43470,2,0,L|452:276,1,88
356,292,43720,2,0,L|452:276,1,88
285,335,43970,6,0,L|77:319,1,197.99999395752
212,200,44470,2,0,L|403:214,1,131.99999597168
248,124,44845,1,0,0:0:0:0:
232,284,44970,2,0,P|232:320|248:352,1,65.9999979858399
80,156,45220,2,0,P|80:204|60:268,1,88
80,156,45470,2,0,P|80:204|60:268,1,88
80,156,45720,2,0,P|80:204|60:268,1,88
168,144,45970,6,0,P|156:104|160:56,1,87.9999973144532
159,58,46220,2,0,P|171:98|167:146,1,87.9999973144532
224,200,46470,2,0,P|264:220|320:220,1,87.9999973144532
452,208,46720,2,0,P|412:188|356:188,1,87.9999973144532
240,292,46970,2,0,P|236:332|248:368,1,65.9999979858399
112,308,47220,2,0,B|124:240|92:176|92:176|88:260,1,197.99999395752
180,96,47720,2,0,P|168:132|176:176,1,65.9999979858399
236,200,47970,6,0,B|280:216|324:204|324:204|356:168,1,131.99999597168
388,48,48470,2,0,L|400:128,1,65.9999979858399
464,188,48720,1,0,0:0:0:0:
460,200,48803,1,0,0:0:0:0:
456,212,48886,1,0,0:0:0:0:
452,224,48970,2,0,L|448:360,1,131.99999597168
433,202,49345,2,0,L|449:370,1,153.999995300293
320,248,49720,2,0,L|308:340,1,88
192,312,49970,6,0,L|204:372,1,55
192,312,51220,2,0,L|204:372,1,55
132,268,51595,2,0,P|134:210|172:146,1,110
284,172,51970,6,0,P|256:180|228:176,1,55
284,172,53220,2,0,P|256:180|228:176,1,55
348,216,53595,2,0,P|327:236|301:247,1,55
348,312,53970,6,0,P|344:344|352:376,1,55
348,312,55220,2,0,P|344:344|352:376,1,55
268,332,55595,2,0,P|216:308|144:316,1,110
40,328,55970,6,0,P|72:336|108:332,1,55
40,328,56720,1,0,0:0:0:0:
68,256,56970,2,0,L|80:132,1,110
68,256,57345,2,0,L|76:104,1,121.000003692627
64,60,57720,2,0,L|68:132,1,65.9999979858399
164,108,57970,6,0,L|176:180,1,65.9999979858399
164,108,59220,2,0,L|176:180,1,65.9999979858399
164,108,59595,2,0,L|176:180,1,65.9999979858399
316,180,59970,6,0,L|304:264,1,65.9999979858399
316,180,61220,2,0,L|304:264,1,65.9999979858399
316,180,61595,2,0,L|304:264,1,65.9999979858399
196,344,61970,6,0,L|184:260,1,65.9999979858399
196,344,63220,2,0,L|184:260,1,65.9999979858399
196,344,63595,2,0,L|184:260,1,65.9999979858399
112,224,63970,6,0,P|76:216|36:228,1,65.9999979858399
96,144,64720,2,0,L|108:96,2,43.9999986572266
172,164,64970,2,0,P|236:156|304:184,1,131.99999597168
172,164,65345,2,0,P|236:156|304:184,1,131.99999597168
172,164,65720,2,0,P|212:164|248:180,1,65.9999979858399
232,248,65970,6,0,L|240:336,1,65.9999979858399
232,248,67220,2,0,L|240:336,1,65.9999979858399
232,248,67595,2,0,L|240:336,1,65.9999979858399
440,208,67970,6,0,L|432:288,1,65.9999979858399
440,208,69220,2,0,L|432:288,1,65.9999979858399
440,208,69595,2,0,L|432:288,1,65.9999979858399
312,128,69970,6,0,L|308:52,1,65.9999979858399
312,128,71220,2,0,L|308:52,1,65.9999979858399
312,128,71595,2,0,L|308:52,1,65.9999979858399
92,96,71970,6,0,L|84:168,1,65.9999979858399
92,156,72720,2,0,L|100:67,1,65.9999979858399
24,200,72970,2,0,L|40:340,1,131.99999597168
24,200,73345,2,0,L|40:340,1,131.99999597168
104,236,73720,2,0,P|136:232|176:240,1,65.9999979858399
240,264,73970,6,0,L|316:256,1,65.9999979858399
240,264,75220,2,0,L|316:256,1,65.9999979858399
240,264,75595,2,0,L|316:256,1,65.9999979858399
500,248,75970,6,0,L|420:236,1,65.9999979858399
500,248,77220,2,0,L|420:236,1,65.9999979858399
500,248,77595,2,0,L|420:236,1,65.9999979858399
256,192,77970,12,0,79845,0:0:0:0:
256,188,79970,5,0,0:0:0:0:
256,188,80470,1,0,0:0:0:0:
256,188,80970,1,0,0:0:0:0:
192,232,81220,1,0,0:0:0:0:
56,140,81470,2,0,B|50:165|75:212|94:190|64:170|18:199|27:266|109:294|116:215,1,197.99999395752
