osu file format v14

[General]
AudioFilename: audio.mp3
AudioLeadIn: 0
PreviewTime: -1
Countdown: 1
SampleSet: Normal
StackLeniency: 0.7
Mode: 3
LetterboxInBreaks: 0
SpecialStyle: 0
WidescreenStoryboard: 0

[Editor]
DistanceSpacing: 1
BeatDivisor: 2
GridSize: 4
TimelineZoom: 1.6

[Metadata]
Title:Absolute Territory
TitleUnicode:Absolute Territory
Artist:Ken Ashcorp
ArtistUnicode:Ken Ashcorp
Creator:[Dodo] Pwnerism
Version:wip thingy??
Source:
Tags:
BeatmapID:1356666
BeatmapSetID:639687

[Difficulty]
HPDrainRate:7
CircleSize:4
OverallDifficulty:9
ApproachRate:5
SliderMultiplier:1.4
SliderTickRate:1

[Events]
//Background and Video events
0,0,"zettai.jpg",0,0
//Break Periods
//Storyboard Layer 0 (Background)
//Storyboard Layer 1 (Fail)
//Storyboard Layer 2 (Pass)
//Storyboard Layer 3 (Foreground)
//Storyboard Sound Samples

[TimingPoints]
21075,476.190476190476,4,1,0,15,1,0
22503,-200,4,1,0,15,0,0
22741,-100,4,1,0,15,0,0
122027,-133.333333333333,4,1,0,15,0,0
129171,-100,4,1,0,15,0,0
129319,-200,4,1,0,15,0,0
129676,-90.0900900900901,4,3,0,15,0,1
152265,-133.333333333333,4,3,0,15,0,1
156551,-100,4,3,0,15,0,0

[HitObjects]
64,192,21074,5,0,0:0:0:0:
448,192,21313,1,0,0:0:0:0:
64,192,21551,1,0,0:0:0:0:
448,192,21789,1,0,0:0:0:0:
64,192,22027,1,0,0:0:0:0:
448,192,22265,1,0,0:0:0:0:
448,192,22503,1,0,0:0:0:0:
320,192,22622,1,0,0:0:0:0:
192,192,22741,128,0,22979:0:0:0:0:
320,192,22979,1,0,0:0:0:0:
64,192,23217,1,0,0:0:0:0:
448,192,23217,1,0,0:0:0:0:
192,192,23455,1,0,0:0:0:0:
320,192,23694,1,0,0:0:0:0:
448,192,23694,1,0,0:0:0:0:
192,192,23932,128,0,24408:0:0:0:0:
448,192,24170,1,0,0:0:0:0:
64,192,24408,1,0,0:0:0:0:
320,192,24646,1,0,0:0:0:0:
448,192,24646,1,0,0:0:0:0:
192,192,24884,1,0,0:0:0:0:
64,192,25122,1,0,0:0:0:0:
320,192,25122,1,0,0:0:0:0:
448,192,25360,1,0,0:0:0:0:
192,192,25598,1,0,0:0:0:0:
64,192,25598,128,0,26075:0:0:0:0:
320,192,25836,1,0,0:0:0:0:
448,192,26075,1,0,0:0:0:0:
192,192,26313,1,0,0:0:0:0:
320,192,26313,1,0,0:0:0:0:
64,192,26551,1,0,0:0:0:0:
448,192,26551,1,0,0:0:0:0:
192,192,26789,1,0,0:0:0:0:
320,192,26789,1,0,0:0:0:0:
64,192,27027,1,0,0:0:0:0:
192,192,27265,1,0,0:0:0:0:
64,192,27265,1,0,0:0:0:0:
448,192,27503,1,0,0:0:0:0:
448,192,27741,1,0,0:0:0:0:
320,192,27741,1,0,0:0:0:0:
192,192,27979,1,0,0:0:0:0:
64,192,27979,1,0,0:0:0:0:
320,192,28217,128,0,28694:0:0:0:0:
192,192,28455,1,0,0:0:0:0:
64,192,28694,1,0,0:0:0:0:
192,192,28932,1,0,0:0:0:0:
320,192,29170,1,0,0:0:0:0:
448,192,29170,1,0,0:0:0:0:
192,192,29408,1,0,0:0:0:0:
320,192,29646,1,0,0:0:0:0:
448,192,29646,1,0,0:0:0:0:
448,192,29884,1,0,0:0:0:0:
448,192,30122,128,0,30598:0:0:0:0:
320,192,30360,1,0,0:0:0:0:
64,192,30598,1,0,0:0:0:0:
192,192,30598,1,0,0:0:0:0:
64,192,30836,1,0,0:0:0:0:
192,192,30836,1,0,0:0:0:0:
320,192,31074,128,0,31551:0:0:0:0:
64,192,31313,1,0,0:0:0:0:
448,192,31551,1,0,0:0:0:0:
192,192,31789,1,0,0:0:0:0:
64,192,31789,1,0,0:0:0:0:
320,192,32027,1,0,0:0:0:0:
448,192,32265,1,0,0:0:0:0:
192,192,32265,1,0,0:0:0:0:
64,192,32503,1,0,0:0:0:0:
320,192,32741,1,0,0:0:0:0:
448,192,32741,1,0,0:0:0:0:
192,192,32979,128,0,33217:0:0:0:0:
320,192,33217,1,0,0:0:0:0:
64,192,33455,1,0,0:0:0:0:
448,192,33455,1,0,0:0:0:0:
320,192,33694,1,0,0:0:0:0:
192,192,33694,1,0,0:0:0:0:
448,192,33932,1,0,0:0:0:0:
64,192,33932,1,0,0:0:0:0:
320,192,34170,1,0,0:0:0:0:
192,192,34170,128,0,34646:0:0:0:0:
448,192,34408,1,0,0:0:0:0:
64,192,34646,1,0,0:0:0:0:
320,192,34884,1,0,0:0:0:0:
448,192,34884,1,0,0:0:0:0:
64,192,35122,1,0,0:0:0:0:
192,192,35122,1,0,0:0:0:0:
320,192,35360,128,0,35598:0:0:0:0:
448,192,35598,1,0,0:0:0:0:
192,192,35836,128,0,36074:0:0:0:0:
320,192,36074,1,0,0:0:0:0:
64,192,36313,128,0,36551:0:0:0:0:
192,192,36551,1,0,0:0:0:0:
320,192,36789,1,0,0:0:0:0:
448,192,37027,1,0,0:0:0:0:
448,192,37265,1,0,0:0:0:0:
64,192,37265,1,0,0:0:0:0:
192,192,37295,1,0,0:0:0:0:
320,192,37295,1,0,0:0:0:0:
448,192,37503,1,0,0:0:0:0:
64,192,37503,1,0,0:0:0:0:
192,192,37533,1,0,0:0:0:0:
320,192,37533,1,0,0:0:0:0:
448,192,37741,1,0,0:0:0:0:
64,192,37741,1,0,0:0:0:0:
192,192,37771,1,0,0:0:0:0:
320,192,37771,1,0,0:0:0:0:
64,192,37979,1,0,0:0:0:0:
448,192,37979,1,0,0:0:0:0:
192,192,38009,1,0,0:0:0:0:
320,192,38009,1,0,0:0:0:0:
64,192,38217,1,0,0:0:0:0:
448,192,38217,1,0,0:0:0:0:
192,192,38247,1,0,0:0:0:0:
320,192,38247,1,0,0:0:0:0:
192,192,38455,128,0,38694:0:0:0:0:
448,192,38694,1,0,0:0:0:0:
320,192,38932,1,0,0:0:0:0:
192,192,39170,128,0,39408:0:0:0:0:
448,192,39408,1,0,0:0:0:0:
320,192,39646,1,0,0:0:0:0:
448,192,39884,128,0,40122:0:0:0:0:
320,192,40122,128,0,40360:0:0:0:0:
64,192,40360,128,0,40836:0:0:0:0:
448,192,40598,1,0,0:0:0:0:
320,192,40836,1,0,0:0:0:0:
64,192,41074,1,0,0:0:0:0:
320,192,41313,1,0,0:0:0:0:
192,192,41551,1,0,0:0:0:0:
64,192,41789,1,0,0:0:0:0:
64,192,42027,1,0,0:0:0:0:
192,192,42027,1,0,0:0:0:0:
192,192,42265,128,0,42503:0:0:0:0:
448,192,42503,128,0,42741:0:0:0:0:
320,192,42741,128,0,42979:0:0:0:0:
192,192,42979,128,0,43217:0:0:0:0:
320,192,43217,1,0,0:0:0:0:
448,192,43455,128,0,43694:0:0:0:0:
320,192,43694,1,0,0:0:0:0:
448,192,43932,128,0,44170:0:0:0:0:
192,192,44170,1,0,0:0:0:0:
448,192,44408,128,0,44646:0:0:0:0:
64,192,44884,128,0,45360:0:0:0:0:
192,192,45122,1,0,0:0:0:0:
320,192,45360,1,0,0:0:0:0:
448,192,45360,1,0,0:0:0:0:
192,192,45598,1,0,0:0:0:0:
320,192,45836,128,0,46074:0:0:0:0:
192,192,46074,1,0,0:0:0:0:
448,192,46313,128,0,46551:0:0:0:0:
320,192,46551,1,0,0:0:0:0:
192,192,46789,128,0,47027:0:0:0:0:
448,192,46789,128,0,47027:0:0:0:0:
64,192,47027,1,0,0:0:0:0:
64,192,47265,128,0,47503:0:0:0:0:
320,192,47265,128,0,47503:0:0:0:0:
448,192,47503,1,0,0:0:0:0:
448,192,47741,128,0,47979:0:0:0:0:
320,192,47979,1,0,0:0:0:0:
192,192,48217,1,0,0:0:0:0:
64,192,48455,128,0,48694:0:0:0:0:
448,192,48694,1,0,0:0:0:0:
448,192,48932,1,0,0:0:0:0:
320,192,49170,1,0,0:0:0:0:
192,192,49408,1,0,0:0:0:0:
64,192,49646,1,0,0:0:0:0:
64,192,49884,1,0,0:0:0:0:
192,192,49884,128,0,50360:0:0:0:0:
448,192,50122,128,0,50360:0:0:0:0:
320,192,50360,1,0,0:0:0:0:
448,192,50598,128,0,50836:0:0:0:0:
64,192,50836,1,0,0:0:0:0:
448,192,51074,128,0,51313:0:0:0:0:
64,192,51313,1,0,0:0:0:0:
320,192,51551,128,0,51789:0:0:0:0:
448,192,51789,1,0,0:0:0:0:
64,192,51789,1,0,0:0:0:0:
192,192,52027,128,0,52265:0:0:0:0:
64,192,52265,1,0,0:0:0:0:
448,192,52265,1,0,0:0:0:0:
64,192,52503,1,0,0:0:0:0:
448,192,52503,128,0,52741:0:0:0:0:
448,192,52979,1,0,0:0:0:0:
64,192,52979,128,0,53217:0:0:0:0:
448,192,53455,128,0,67265:0:0:0:0:
320,192,53694,1,0,0:0:0:0:
192,192,53932,1,0,0:0:0:0:
64,192,54170,1,0,0:0:0:0:
192,192,54408,1,0,0:0:0:0:
320,192,54646,1,0,0:0:0:0:
320,192,54884,1,0,0:0:0:0:
320,192,55122,1,0,0:0:0:0:
320,192,55360,1,0,0:0:0:0:
192,192,55360,1,0,0:0:0:0:
64,192,55598,128,0,55836:0:0:0:0:
192,192,55836,1,0,0:0:0:0:
192,192,56074,128,0,56313:0:0:0:0:
64,192,56313,1,0,0:0:0:0:
320,192,56551,1,0,0:0:0:0:
192,192,56789,1,0,0:0:0:0:
64,192,57027,1,0,0:0:0:0:
64,192,57265,1,0,0:0:0:0:
192,192,57265,1,0,0:0:0:0:
64,192,57503,128,0,57741:0:0:0:0:
192,192,57979,1,0,0:0:0:0:
320,192,58217,1,0,0:0:0:0:
320,192,58455,1,0,0:0:0:0:
192,192,58694,1,0,0:0:0:0:
192,192,58932,128,0,59170:0:0:0:0:
64,192,59170,1,0,0:0:0:0:
320,192,59408,1,0,0:0:0:0:
320,192,59646,1,0,0:0:0:0:
192,192,59884,1,0,0:0:0:0:
64,192,60122,128,0,61074:0:0:0:0:
192,192,60598,128,0,61074:0:0:0:0:
320,192,61313,1,0,0:0:0:0:
192,192,61551,1,0,0:0:0:0:
320,192,61551,1,0,0:0:0:0:
320,192,61789,128,0,62027:0:0:0:0:
64,192,62027,128,0,62265:0:0:0:0:
192,192,62265,1,0,0:0:0:0:
320,192,62503,128,0,62741:0:0:0:0:
64,192,62741,1,0,0:0:0:0:
192,192,62979,128,0,63455:0:0:0:0:
320,192,63217,1,0,0:0:0:0:
64,192,63455,1,0,0:0:0:0:
64,192,63694,1,0,0:0:0:0:
192,192,63932,1,0,0:0:0:0:
320,192,64170,1,0,0:0:0:0:
192,192,64408,1,0,0:0:0:0:
64,192,64646,1,0,0:0:0:0:
192,192,64884,128,0,65122:0:0:0:0:
320,192,65122,128,0,65360:0:0:0:0:
64,192,65360,1,0,0:0:0:0:
64,192,65598,1,0,0:0:0:0:
192,192,65836,128,0,66074:0:0:0:0:
320,192,66074,128,0,66313:0:0:0:0:
64,192,66313,1,0,0:0:0:0:
64,192,66551,5,0,0:0:0:0:
320,192,66789,128,0,67027:0:0:0:0:
192,192,67027,128,0,67265:0:0:0:0:
64,192,67265,1,0,0:0:0:0:
64,192,67503,1,0,0:0:0:0:
320,192,67741,128,0,67979:0:0:0:0:
192,192,67741,128,0,67979:0:0:0:0:
64,192,68217,128,0,68694:0:0:0:0:
448,192,68217,128,0,68694:0:0:0:0:
192,192,68694,1,0,0:0:0:0:
320,192,68694,1,0,0:0:0:0:
448,192,68932,128,0,70598:0:0:0:0:
64,192,68932,1,0,0:0:0:0:
64,192,69170,1,0,0:0:0:0:
64,192,69408,1,0,0:0:0:0:
64,192,69646,1,0,0:0:0:0:
64,192,69884,1,0,0:0:0:0:
64,192,70122,1,0,0:0:0:0:
64,192,70360,1,0,0:0:0:0:
64,192,70598,128,0,70836:0:0:0:0:
192,192,70836,128,0,71074:0:0:0:0:
320,192,71074,128,0,71313:0:0:0:0:
448,192,71313,128,0,71551:0:0:0:0:
64,192,71551,1,0,0:0:0:0:
448,192,71789,128,0,72027:0:0:0:0:
320,192,72027,128,0,72265:0:0:0:0:
64,192,72265,1,0,0:0:0:0:
192,192,72503,128,0,73694:0:0:0:0:
64,192,72741,1,0,0:0:0:0:
320,192,72979,1,0,0:0:0:0:
320,192,73217,1,0,0:0:0:0:
448,192,73455,1,0,0:0:0:0:
64,192,73455,1,0,0:0:0:0:
320,192,73932,1,0,0:0:0:0:
448,192,73932,1,0,0:0:0:0:
64,192,74170,128,0,74884:0:0:0:0:
320,192,74408,1,0,0:0:0:0:
448,192,74646,1,0,0:0:0:0:
192,192,74884,1,0,0:0:0:0:
64,192,75122,128,0,75836:0:0:0:0:
192,192,75360,1,0,0:0:0:0:
320,192,75598,1,0,0:0:0:0:
192,192,75836,1,0,0:0:0:0:
64,192,76074,128,0,77979:0:0:0:0:
320,192,78217,128,0,78455:0:0:0:0:
192,192,78455,128,0,78694:0:0:0:0:
448,192,78694,128,0,78932:0:0:0:0:
320,192,78932,128,0,79170:0:0:0:0:
192,192,78932,128,0,79170:0:0:0:0:
64,192,78932,128,0,79646:0:0:0:0:
448,192,79408,128,0,79646:0:0:0:0:
320,192,79884,1,0,0:0:0:0:
192,192,80122,128,0,80836:0:0:0:0:
64,192,80122,128,0,81074:0:0:0:0:
192,192,81074,1,0,0:0:0:0:
64,192,81313,1,0,0:0:0:0:
192,192,81313,1,0,0:0:0:0:
448,192,81551,128,0,81789:0:0:0:0:
320,192,81789,128,0,82265:0:0:0:0:
64,192,82027,1,0,0:0:0:0:
192,192,82027,1,0,0:0:0:0:
64,192,82265,1,0,0:0:0:0:
192,192,82503,128,0,82741:0:0:0:0:
320,192,82741,1,0,0:0:0:0:
448,192,82979,5,0,0:0:0:0:
448,192,83217,1,0,0:0:0:0:
448,192,83455,1,0,0:0:0:0:
64,192,83694,1,0,0:0:0:0:
192,192,83694,1,0,0:0:0:0:
448,192,83813,1,0,0:0:0:0:
320,192,83813,1,0,0:0:0:0:
64,192,83932,1,0,0:0:0:0:
192,192,83932,1,0,0:0:0:0:
192,192,84170,1,0,0:0:0:0:
64,192,84170,128,0,84884:0:0:0:0:
192,192,84646,1,0,0:0:0:0:
192,192,84884,1,0,0:0:0:0:
192,192,85122,1,0,0:0:0:0:
64,192,85122,128,0,85836:0:0:0:0:
192,192,85598,1,0,0:0:0:0:
192,192,85836,1,0,0:0:0:0:
192,192,86074,1,0,0:0:0:0:
64,192,86074,128,0,86789:0:0:0:0:
192,192,86551,1,0,0:0:0:0:
192,192,86789,1,0,0:0:0:0:
448,192,87027,1,0,0:0:0:0:
320,192,87265,1,0,0:0:0:0:
192,192,87503,1,0,0:0:0:0:
64,192,87741,1,0,0:0:0:0:
192,192,87741,1,0,0:0:0:0:
192,192,87979,1,0,0:0:0:0:
64,192,87979,128,0,88694:0:0:0:0:
192,192,88455,1,0,0:0:0:0:
192,192,88694,1,0,0:0:0:0:
64,192,88932,128,0,89646:0:0:0:0:
192,192,88932,1,0,0:0:0:0:
192,192,89408,1,0,0:0:0:0:
192,192,89646,1,0,0:0:0:0:
64,192,89884,128,0,90360:0:0:0:0:
192,192,89884,128,0,90122:0:0:0:0:
448,192,90122,1,0,0:0:0:0:
320,192,90360,1,0,0:0:0:0:
448,192,90598,1,0,0:0:0:0:
64,192,90598,1,0,0:0:0:0:
448,192,90836,1,0,0:0:0:0:
64,192,90836,1,0,0:0:0:0:
448,192,91074,1,0,0:0:0:0:
192,192,91074,1,0,0:0:0:0:
448,192,91313,1,0,0:0:0:0:
64,192,91313,128,0,91551:0:0:0:0:
192,192,91551,128,0,92027:0:0:0:0:
448,192,91789,1,0,0:0:0:0:
320,192,91789,1,0,0:0:0:0:
320,192,92027,1,0,0:0:0:0:
320,192,92265,1,0,0:0:0:0:
448,192,92503,128,0,92741:0:0:0:0:
192,192,92741,1,0,0:0:0:0:
320,192,92979,128,0,93217:0:0:0:0:
64,192,93217,128,0,93455:0:0:0:0:
192,192,93455,1,0,0:0:0:0:
320,192,93694,128,0,94170:0:0:0:0:
192,192,93932,1,0,0:0:0:0:
64,192,94170,128,0,94408:0:0:0:0:
192,192,94646,1,0,0:0:0:0:
448,192,94884,1,0,0:0:0:0:
320,192,95122,1,0,0:0:0:0:
64,192,95360,1,0,0:0:0:0:
448,192,95598,1,0,0:0:0:0:
64,192,95836,1,0,0:0:0:0:
192,192,95836,1,0,0:0:0:0:
64,192,96074,5,0,0:0:0:0:
192,192,96074,1,0,0:0:0:0:
320,192,96313,128,0,96789:0:0:0:0:
448,192,96313,1,0,0:0:0:0:
192,192,96789,1,0,0:0:0:0:
192,192,97027,1,0,0:0:0:0:
320,192,97027,1,0,0:0:0:0:
64,192,97265,128,0,97503:0:0:0:0:
448,192,97265,128,0,97503:0:0:0:0:
192,192,97503,1,0,0:0:0:0:
320,192,97503,1,0,0:0:0:0:
192,192,97741,128,0,97979:0:0:0:0:
320,192,97741,128,0,97979:0:0:0:0:
64,192,97979,1,0,0:0:0:0:
448,192,97979,1,0,0:0:0:0:
64,192,98217,1,0,0:0:0:0:
448,192,98217,1,0,0:0:0:0:
64,192,98455,1,0,0:0:0:0:
448,192,98455,1,0,0:0:0:0:
64,192,98694,1,0,0:0:0:0:
448,192,98694,1,0,0:0:0:0:
192,192,98932,1,0,0:0:0:0:
320,192,98932,1,0,0:0:0:0:
64,192,99170,128,0,99646:0:0:0:0:
448,192,99170,128,0,99646:0:0:0:0:
192,192,99646,1,0,0:0:0:0:
320,192,99646,1,0,0:0:0:0:
64,192,99884,1,0,0:0:0:0:
448,192,100122,1,0,0:0:0:0:
320,192,100360,1,0,0:0:0:0:
192,192,100598,1,0,0:0:0:0:
64,192,100836,128,0,101074:0:0:0:0:
192,192,101074,1,0,0:0:0:0:
448,192,101313,1,0,0:0:0:0:
320,192,101551,1,0,0:0:0:0:
192,192,101789,128,0,102265:0:0:0:0:
64,192,102027,1,0,0:0:0:0:
320,192,102265,1,0,0:0:0:0:
448,192,102503,1,0,0:0:0:0:
320,192,102741,1,0,0:0:0:0:
64,192,102979,128,0,103455:0:0:0:0:
192,192,103217,1,0,0:0:0:0:
320,192,103455,1,0,0:0:0:0:
448,192,103455,1,0,0:0:0:0:
320,192,103694,128,0,103932:0:0:0:0:
192,192,103932,1,0,0:0:0:0:
448,192,104170,1,0,0:0:0:0:
320,192,104408,128,0,104884:0:0:0:0:
192,192,104646,1,0,0:0:0:0:
64,192,104884,128,0,105360:0:0:0:0:
192,192,105122,1,0,0:0:0:0:
192,192,105360,1,0,0:0:0:0:
320,192,105598,1,0,0:0:0:0:
448,192,105836,128,0,106074:0:0:0:0:
320,192,106074,1,0,0:0:0:0:
192,192,106313,1,0,0:0:0:0:
64,192,106551,128,0,106789:0:0:0:0:
320,192,107027,1,0,0:0:0:0:
448,192,107027,1,0,0:0:0:0:
448,192,107265,1,0,0:0:0:0:
448,192,107503,1,0,0:0:0:0:
320,192,107741,1,0,0:0:0:0:
192,192,107979,1,0,0:0:0:0:
64,192,108217,1,0,0:0:0:0:
192,192,108455,1,0,0:0:0:0:
320,192,108694,1,0,0:0:0:0:
448,192,108932,128,0,109408:0:0:0:0:
320,192,109170,128,0,109646:0:0:0:0:
64,192,109408,1,0,0:0:0:0:
192,192,109646,1,0,0:0:0:0:
64,192,109884,1,0,0:0:0:0:
192,192,110122,1,0,0:0:0:0:
448,192,110360,1,0,0:0:0:0:
192,192,110598,1,0,0:0:0:0:
64,192,110836,1,0,0:0:0:0:
64,192,111074,1,0,0:0:0:0:
64,192,111313,1,0,0:0:0:0:
320,192,111551,1,0,0:0:0:0:
448,192,111789,5,0,0:0:0:0:
320,192,112027,1,0,0:0:0:0:
192,192,112265,1,0,0:0:0:0:
320,192,112503,1,0,0:0:0:0:
320,192,112741,1,0,0:0:0:0:
320,192,112979,5,0,0:0:0:0:
64,192,113217,1,0,0:0:0:0:
448,192,113455,128,0,113932:0:0:0:0:
64,192,113932,128,0,114408:0:0:0:0:
192,192,114408,128,0,115836:0:0:0:0:
320,192,114408,128,0,115360:0:0:0:0:
448,192,115360,128,0,116313:0:0:0:0:
64,192,115836,1,0,0:0:0:0:
64,192,116313,128,0,116789:0:0:0:0:
192,192,116551,128,0,116789:0:0:0:0:
320,192,116789,128,0,117027:0:0:0:0:
448,192,117027,128,0,117741:0:0:0:0:
64,192,117503,5,0,0:0:0:0:
320,192,117741,128,0,117979:0:0:0:0:
192,192,117979,1,0,0:0:0:0:
64,192,118217,128,0,119646:0:0:0:0:
448,192,119646,1,0,0:0:0:0:
320,192,119646,1,0,0:0:0:0:
192,192,119884,128,0,120122:0:0:0:0:
64,192,120122,128,0,120360:0:0:0:0:
320,192,120360,128,0,120598:0:0:0:0:
448,192,120598,128,0,120836:0:0:0:0:
192,192,120836,128,0,121074:0:0:0:0:
320,192,121074,128,0,121313:0:0:0:0:
448,192,121313,128,0,121551:0:0:0:0:
320,192,121551,128,0,121789:0:0:0:0:
192,192,121789,128,0,122027:0:0:0:0:
64,192,122027,128,0,128694:0:0:0:0:
448,192,122027,1,0,0:0:0:0:
448,192,122265,1,0,0:0:0:0:
448,192,122503,1,0,0:0:0:0:
448,192,122741,1,0,0:0:0:0:
320,192,122979,1,0,0:0:0:0:
320,192,123217,1,0,0:0:0:0:
448,192,123455,1,0,0:0:0:0:
448,192,123694,1,0,0:0:0:0:
320,192,123932,1,0,0:0:0:0:
320,192,124170,1,0,0:0:0:0:
448,192,124408,1,0,0:0:0:0:
320,192,124646,1,0,0:0:0:0:
320,192,124884,1,0,0:0:0:0:
320,192,125122,1,0,0:0:0:0:
192,192,125360,1,0,0:0:0:0:
192,192,125598,1,0,0:0:0:0:
192,192,125836,1,0,0:0:0:0:
320,192,126074,1,0,0:0:0:0:
448,192,126313,1,0,0:0:0:0:
320,192,126551,1,0,0:0:0:0:
192,192,126789,1,0,0:0:0:0:
320,192,127027,1,0,0:0:0:0:
448,192,127265,1,0,0:0:0:0:
448,192,127503,1,0,0:0:0:0:
448,192,127741,1,0,0:0:0:0:
320,192,127979,1,0,0:0:0:0:
320,192,128217,1,0,0:0:0:0:
448,192,128455,1,0,0:0:0:0:
192,192,128694,1,0,0:0:0:0:
320,192,128694,1,0,0:0:0:0:
448,192,128694,1,0,0:0:0:0:
64,192,128932,1,0,0:0:0:0:
192,192,128932,1,0,0:0:0:0:
320,192,128932,1,0,0:0:0:0:
448,192,128932,1,0,0:0:0:0:
448,192,129170,1,0,0:0:0:0:
320,192,129209,1,0,0:0:0:0:
192,192,129249,1,0,0:0:0:0:
64,192,129289,128,0,129646:0:0:0:0:
320,192,129646,1,0,0:0:0:0:
448,192,129646,128,0,129884:0:0:0:0:
64,192,129884,1,0,0:0:0:0:
192,192,129884,1,0,0:0:0:0:
320,192,130122,1,0,0:0:0:0:
448,192,130122,1,0,0:0:0:0:
64,192,130360,128,0,130836:0:0:0:0:
192,192,130360,1,0,0:0:0:0:
448,192,130598,1,0,0:0:0:0:
320,192,130836,1,0,0:0:0:0:
192,192,131074,1,0,0:0:0:0:
448,192,131074,1,0,0:0:0:0:
320,192,131313,128,0,132027:0:0:0:0:
64,192,131313,1,0,0:0:0:0:
192,192,131551,1,0,0:0:0:0:
192,192,131789,1,0,0:0:0:0:
448,192,132027,1,0,0:0:0:0:
64,192,132265,128,0,132503:0:0:0:0:
192,192,132265,128,0,132741:0:0:0:0:
320,192,132503,1,0,0:0:0:0:
320,192,132741,1,0,0:0:0:0:
448,192,132979,1,0,0:0:0:0:
320,192,132979,1,0,0:0:0:0:
192,192,133217,1,0,0:0:0:0:
64,192,133217,1,0,0:0:0:0:
448,192,133455,128,0,133932:0:0:0:0:
64,192,133455,1,0,0:0:0:0:
64,192,133694,1,0,0:0:0:0:
320,192,133694,1,0,0:0:0:0:
64,192,133932,1,0,0:0:0:0:
192,192,133932,1,0,0:0:0:0:
320,192,134170,128,0,134646:0:0:0:0:
448,192,134170,1,0,0:0:0:0:
192,192,134408,1,0,0:0:0:0:
64,192,134408,1,0,0:0:0:0:
192,192,134646,1,0,0:0:0:0:
64,192,134765,1,0,0:0:0:0:
192,192,134884,1,0,0:0:0:0:
320,192,135003,1,0,0:0:0:0:
64,192,135122,1,0,0:0:0:0:
448,192,135360,128,0,135598:0:0:0:0:
64,192,135360,128,0,135598:0:0:0:0:
192,192,135360,1,0,0:0:0:0:
320,192,135360,1,0,0:0:0:0:
192,192,135598,128,0,135836:0:0:0:0:
448,192,135836,128,0,136074:0:0:0:0:
64,192,136074,1,0,0:0:0:0:
448,192,136313,1,0,0:0:0:0:
448,192,136551,1,0,0:0:0:0:
320,192,136551,1,0,0:0:0:0:
448,192,136789,1,0,0:0:0:0:
192,192,136789,1,0,0:0:0:0:
448,192,137027,1,0,0:0:0:0:
64,192,137027,1,0,0:0:0:0:
64,192,137265,128,0,137503:0:0:0:0:
192,192,137265,128,0,137503:0:0:0:0:
320,192,137503,1,0,0:0:0:0:
448,192,137503,1,0,0:0:0:0:
320,192,137741,128,0,137979:0:0:0:0:
448,192,137741,128,0,137979:0:0:0:0:
192,192,137979,1,0,0:0:0:0:
64,192,137979,1,0,0:0:0:0:
448,192,138217,1,0,0:0:0:0:
448,192,138455,1,0,0:0:0:0:
320,192,138455,1,0,0:0:0:0:
448,192,138694,1,0,0:0:0:0:
192,192,138694,1,0,0:0:0:0:
448,192,138932,1,0,0:0:0:0:
64,192,138932,1,0,0:0:0:0:
320,192,139170,128,0,139408:0:0:0:0:
192,192,139170,128,0,139408:0:0:0:0:
64,192,139408,1,0,0:0:0:0:
448,192,139408,1,0,0:0:0:0:
64,192,139646,128,0,139884:0:0:0:0:
448,192,139646,128,0,139884:0:0:0:0:
192,192,139884,1,0,0:0:0:0:
320,192,139884,1,0,0:0:0:0:
448,192,140122,1,0,0:0:0:0:
320,192,140360,1,0,0:0:0:0:
448,192,140360,1,0,0:0:0:0:
448,192,140598,1,0,0:0:0:0:
192,192,140598,1,0,0:0:0:0:
64,192,140836,1,0,0:0:0:0:
448,192,140836,1,0,0:0:0:0:
192,192,141074,128,0,141313:0:0:0:0:
320,192,141074,1,0,0:0:0:0:
64,192,141313,128,0,141551:0:0:0:0:
448,192,141551,1,0,0:0:0:0:
320,192,141551,1,0,0:0:0:0:
192,192,141789,128,0,142265:0:0:0:0:
448,192,141789,1,0,0:0:0:0:
448,192,142027,1,0,0:0:0:0:
448,192,142265,1,0,0:0:0:0:
448,192,142503,1,0,0:0:0:0:
192,192,142503,1,0,0:0:0:0:
192,192,142741,1,0,0:0:0:0:
448,192,142741,1,0,0:0:0:0:
448,192,142979,128,0,143694:0:0:0:0:
320,192,143217,128,0,143694:0:0:0:0:
192,192,143455,128,0,143694:0:0:0:0:
64,192,143694,1,0,0:0:0:0:
64,192,143932,1,0,0:0:0:0:
320,192,143932,1,0,0:0:0:0:
448,192,143932,1,0,0:0:0:0:
192,192,143932,128,0,144170:0:0:0:0:
448,192,144170,128,0,144408:0:0:0:0:
320,192,144170,1,0,0:0:0:0:
64,192,144408,128,0,144646:0:0:0:0:
192,192,144408,1,0,0:0:0:0:
320,192,144646,128,0,145122:0:0:0:0:
448,192,144646,1,0,0:0:0:0:
64,192,144884,1,0,0:0:0:0:
64,192,145122,1,0,0:0:0:0:
192,192,145122,1,0,0:0:0:0:
448,192,145360,128,0,145598:0:0:0:0:
320,192,145360,1,0,0:0:0:0:
192,192,145598,1,0,0:0:0:0:
448,192,145836,128,0,146074:0:0:0:0:
320,192,145836,1,0,0:0:0:0:
64,192,146074,1,0,0:0:0:0:
192,192,146074,1,0,0:0:0:0:
192,192,146313,128,0,146551:0:0:0:0:
320,192,146551,1,0,0:0:0:0:
448,192,146551,1,0,0:0:0:0:
448,192,146789,128,0,147265:0:0:0:0:
320,192,146789,1,0,0:0:0:0:
64,192,147027,128,0,147265:0:0:0:0:
192,192,147027,1,0,0:0:0:0:
320,192,147265,128,0,147741:0:0:0:0:
192,192,147503,1,0,0:0:0:0:
64,192,147741,1,0,0:0:0:0:
448,192,147741,1,0,0:0:0:0:
64,192,147979,128,0,148217:0:0:0:0:
448,192,147979,1,0,0:0:0:0:
192,192,147979,1,0,0:0:0:0:
192,192,148217,128,0,148694:0:0:0:0:
320,192,148455,1,0,0:0:0:0:
448,192,148455,1,0,0:0:0:0:
448,192,148694,1,0,0:0:0:0:
64,192,148932,1,0,0:0:0:0:
192,192,148932,1,0,0:0:0:0:
448,192,149170,128,0,149646:0:0:0:0:
320,192,149170,1,0,0:0:0:0:
192,192,149408,1,0,0:0:0:0:
320,192,149408,1,0,0:0:0:0:
64,192,149646,1,0,0:0:0:0:
192,192,149884,128,0,150122:0:0:0:0:
448,192,149884,1,0,0:0:0:0:
320,192,150122,1,0,0:0:0:0:
448,192,150360,128,0,150598:0:0:0:0:
64,192,150360,1,0,0:0:0:0:
320,192,150598,1,0,0:0:0:0:
192,192,150836,1,0,0:0:0:0:
64,192,151074,1,0,0:0:0:0:
320,192,151074,1,0,0:0:0:0:
448,192,151074,1,0,0:0:0:0:
192,192,151313,1,0,0:0:0:0:
64,192,151789,1,0,0:0:0:0:
320,192,151789,1,0,0:0:0:0:
448,192,151789,1,0,0:0:0:0:
192,192,151789,1,0,0:0:0:0:
448,192,152027,128,0,152265:0:0:0:0:
320,192,152027,128,0,152265:0:0:0:0:
192,192,152027,128,0,152265:0:0:0:0:
64,192,152027,128,0,152265:0:0:0:0:
320,192,152503,128,0,152741:0:0:0:0:
192,192,152741,1,0,0:0:0:0:
448,192,152979,1,0,0:0:0:0:
448,192,153217,128,0,153455:0:0:0:0:
320,192,153455,128,0,153694:0:0:0:0:
192,192,153932,1,0,0:0:0:0:
448,192,154170,128,0,154408:0:0:0:0:
320,192,154408,1,0,0:0:0:0:
64,192,154646,128,0,154884:0:0:0:0:
448,192,154884,1,0,0:0:0:0:
320,192,154884,1,0,0:0:0:0:
448,192,155360,128,0,155598:0:0:0:0:
64,192,155598,1,0,0:0:0:0:
192,192,155598,1,0,0:0:0:0:
320,192,155836,128,0,156074:0:0:0:0:
64,192,156074,128,0,156313:0:0:0:0:
448,192,156074,1,0,0:0:0:0:
192,192,156313,1,14,0:0:0:0:
320,192,156313,1,14,0:0:0:0:
448,192,156313,1,14,0:0:0:0:
448,192,158932,1,0,0:0:0:0:
448,192,159408,1,0,0:0:0:0:
448,192,159884,1,0,0:0:0:0:
320,192,160122,128,0,162027:0:0:0:0:
448,192,160122,1,0,0:0:0:0:
192,192,162027,128,0,163932:0:0:0:0:
64,192,163932,128,0,165836:0:0:0:0:
192,192,165836,1,0,0:0:0:0:
