osu file format v14

[General]
AudioFilename: audio.mp3
AudioLeadIn: 0
PreviewTime: 1412
Countdown: 1
SampleSet: None
StackLeniency: 0.4
Mode: 0
LetterboxInBreaks: 0
WidescreenStoryboard: 1

[Editor]
DistanceSpacing: 0.7
BeatDivisor: 4
GridSize: 16
TimelineZoom: 1

[Metadata]
Title:PINGU A GO! GO!
TitleUnicode:PINGU A GO! GO!
Artist:Ken Arai
ArtistUnicode:Ken Arai
Creator:Jelljel
Version:Insane
Source:ピングー in ザ・シティ
Tags:pingu in the city noot pinguin
BeatmapID:1968995
BeatmapSetID:942858

[Difficulty]
HPDrainRate:4
CircleSize:4.2
OverallDifficulty:8
ApproachRate:8
SliderMultiplier:1
SliderTickRate:1

[Events]
//Background and Video events
0,0,"nootnoot.jpg",0,0
//Break Periods
//Storyboard Layer 0 (Background)
//Storyboard Layer 1 (Fail)
//Storyboard Layer 2 (Pass)
//Storyboard Layer 3 (Foreground)
//Storyboard Sound Samples

[TimingPoints]
635,444.444444444444,4,2,0,100,1,0
635,-100,4,2,0,100,0,0
1523,-83.3333333333333,4,2,0,100,0,0
2412,-71.4285714285714,4,2,0,100,0,0

[Colours]
Combo1 : 249,6,73
Combo2 : 192,192,192
Combo3 : 0,255,255
Combo4 : 251,189,4

[HitObjects]
186,266,635,5,0,0:0:0:0:
186,266,857,2,0,P|206:230|181:157,1,100
139,53,1523,6,0,L|219:60,1,59.9999981689454
320,72,1968,1,0,0:0:0:0:
334,87,2079,1,0,0:0:0:0:
341,106,2190,1,0,0:0:0:0:
341,126,2301,1,0,0:0:0:0:
335,146,2412,6,0,P|323:187|330:218,1,69.9999978637696
405,330,2857,2,0,B|363:338|363:338|320:325,1,69.9999978637696
244,241,3246,2,0,L|248:289,1,34.9999989318848
136,202,3523,5,0,0:0:0:0:
267,159,3746,1,0,0:0:0:0:
157,108,3968,1,0,0:0:0:0:
244,241,4190,1,0,0:0:0:0:
136,202,4412,1,0,0:0:0:0:
206,319,4634,2,0,P|259:327|292:313,1,69.9999978637696
356,254,5079,5,0,0:0:0:0:
317,126,5301,1,0,0:0:0:0:
407,180,5523,1,0,0:0:0:0:
273,213,5746,1,0,0:0:0:0:
273,213,5857,1,0,0:0:0:0:
273,213,5968,6,0,P|326:205|359:219,1,69.9999978637696
435,315,6412,2,0,P|443:262|429:229,1,69.9999978637696
398,131,6801,2,0,L|445:135,1,34.9999989318848
340,209,7079,5,0,0:0:0:0:
322,96,7301,1,0,0:0:0:0:
248,192,7523,1,0,0:0:0:0:
398,131,7746,1,0,0:0:0:0:
387,268,7968,1,0,0:0:0:0:
326,164,8190,2,0,P|318:111|332:78,1,69.9999978637696
381,26,8634,5,0,0:0:0:0:
247,45,8857,1,0,0:0:0:0:
322,96,9079,1,0,0:0:0:0:
190,127,9301,1,0,0:0:0:0:
190,127,9412,1,0,0:0:0:0:
190,127,9523,6,0,P|182:180|196:213,1,69.9999978637696
240,309,9968,2,0,L|160:302,1,69.9999978637696
81,204,10357,2,0,L|76:251,1,34.9999989318848
186,194,10634,5,0,0:0:0:0:
85,116,10857,1,0,0:0:0:0:
207,104,11079,1,0,0:0:0:0:
81,204,11301,1,0,0:0:0:0:
188,267,11523,1,0,0:0:0:0:
87,350,11746,2,0,P|79:297|93:264,1,69.9999978637696
151,202,12190,5,0,0:0:0:0:
175,335,12412,1,0,0:0:0:0:
83,282,12634,1,0,0:0:0:0:
217,261,12857,1,0,0:0:0:0:
217,261,12968,1,0,0:0:0:0:
217,261,13079,6,0,B|228:222|228:222|216:174,1,69.9999978637696
189,73,13523,2,0,P|242:65|275:79,1,69.9999978637696
334,174,13912,2,0,L|329:126,1,34.9999989318848
434,221,14190,5,0,0:0:0:0:
312,265,14412,1,0,0:0:0:0:
399,152,14634,1,0,0:0:0:0:
371,316,14857,1,0,0:0:0:0:
257,197,15079,1,0,0:0:0:0:
291,363,15301,2,0,B|225:396|159:338|159:338|82:274|19:335,1,279.999991455078
92,380,16412,5,0,0:0:0:0:
92,380,16523,1,0,0:0:0:0:
92,380,16634,2,0,B|104:342|104:342|98:308,1,69.9999978637696
66,192,17079,1,0,0:0:0:0:
66,192,17190,1,0,0:0:0:0:
66,192,17301,1,0,0:0:0:0:
176,253,17523,6,0,P|222:263|260:251,1,69.9999978637696
324,162,17968,1,0,0:0:0:0:
354,291,18190,1,0,0:0:0:0:
420,181,18412,2,0,L|413:101,1,69.9999978637696
318,11,18857,2,0,P|308:57|320:95,1,69.9999978637696
350,216,19301,2,0,L|254:207,1,69.9999978637696
156,197,19746,1,0,0:0:0:0:
237,93,19968,5,0,0:0:0:0:
237,93,20079,1,0,0:0:0:0:
237,93,20190,2,0,P|191:83|153:95,1,69.9999978637696
61,176,20634,2,0,L|68:256,1,69.9999978637696
159,344,21079,2,0,L|165:274,1,69.9999978637696
263,186,21523,2,0,P|273:232|261:270,1,69.9999978637696
151,189,21968,2,0,P|158:141|260:97,1,139.999995727539
342,162,22634,5,0,0:0:0:0:
412,52,22857,1,0,0:0:0:0:
419,203,23079,1,0,0:0:0:0:
406,223,23190,1,0,0:0:0:0:
387,239,23301,1,0,0:0:0:0:
365,249,23412,1,0,0:0:0:0:
341,252,23523,2,0,P|307:245|286:227,1,34.9999989318848
231,136,23746,5,0,0:0:0:0:
204,291,23968,1,0,0:0:0:0:
123,148,24190,1,0,0:0:0:0:
113,170,24301,2,0,P|103:198|102:225,1,34.9999989318848
109,356,24634,1,0,0:0:0:0:
15,232,24857,1,0,0:0:0:0:
162,290,25079,1,0,0:0:0:0:
176,270,25190,2,0,P|190:242|191:229,1,34.9999989318848
157,81,25523,5,0,0:0:0:0:
271,201,25746,1,0,0:0:0:0:
112,213,25968,1,0,0:0:0:0:
128,194,26079,2,0,P|143:180|164:175,1,34.9999989318848
260,295,26412,1,0,0:0:0:0:
321,143,26634,1,0,0:0:0:0:
196,249,26857,1,0,0:0:0:0:
184,270,26968,2,0,P|176:297|176:312,1,34.9999989318848
352,238,27301,5,0,0:0:0:0:
179,168,27523,1,0,0:0:0:0:
341,75,27746,1,0,0:0:0:0:
264,257,27968,1,0,0:0:0:0:
211,68,28190,1,0,0:0:0:0:
211,68,28301,1,0,0:0:0:0:
211,68,28412,2,0,P|185:66|166:72,1,34.9999989318848
100,135,28634,1,0,0:0:0:0:
195,306,28857,1,0,0:0:0:0:
195,306,28968,1,0,0:0:0:0:
195,306,29079,5,0,0:0:0:0:
281,135,29301,1,0,0:0:0:0:
118,225,29523,1,0,0:0:0:0:
312,212,29746,1,0,0:0:0:0:
312,212,30190,6,0,P|318:238|317:256,1,34.9999989318848
259,305,30412,2,0,P|253:331|254:349,1,34.9999989318848
382,296,30634,5,0,0:0:0:0:
