osu file format v14

[General]
AudioFilename: Ken Arai - NEXT TO YOU.mp3
AudioLeadIn: 0
PreviewTime: 72833
Countdown: 0
SampleSet: Soft
StackLeniency: 0.7
Mode: 0
LetterboxInBreaks: 0
WidescreenStoryboard: 0

[Editor]
Bookmarks: 1788,53333,68606,125333,142788,214788
DistanceSpacing: 1.4
BeatDivisor: 4
GridSize: 4
TimelineZoom: 1

[Metadata]
Title:NEXT TO YOU
TitleUnicode:NEXT TO YOU
Artist:Ken Arai
ArtistUnicode:Ken Arai
Creator:Rakuen
Version:Normal
Source:寄生獣 セイの格率
Tags:Kiseijuu Sei no Kakuritsu Parasyte the maxim オリジナル・サウンドトラック OST Original Soundtrack ケン アライ Xinely piano
BeatmapID:768832
BeatmapSetID:348526

[Difficulty]
HPDrainRate:3
CircleSize:3
OverallDifficulty:3
ApproachRate:4
SliderMultiplier:1.2
SliderTickRate:1

[Events]
//Background and Video events
0,0,"kiseijuu wallpaper.jpg",0,0
//Break Periods
2,108078,123151
//Storyboard Layer 0 (Background)
//Storyboard Layer 1 (Fail)
//Storyboard Layer 2 (Pass)
//Storyboard Layer 3 (Foreground)
//Storyboard Sound Samples

[TimingPoints]
970,545.454545454546,4,2,1,40,1,0
17879,-100,4,2,1,50,0,0
18424,-100,4,2,1,60,0,1
35879,-100,4,2,1,40,0,0
72424,-100,4,2,1,50,0,0
72970,-100,4,2,1,60,0,1
89879,-100,4,2,1,60,0,0
90424,-100,4,2,1,60,0,1
107879,-100,4,2,1,40,0,0
161879,-100,4,2,1,50,0,0
162424,-100,4,2,1,60,0,1
179333,-100,4,2,1,60,0,0
179879,-100,4,2,1,60,0,1
197333,-100,4,2,1,60,0,0
197606,-100,4,2,1,40,0,0

[Colours]
Combo1 : 128,0,255
Combo2 : 255,100,26
Combo3 : 255,0,128
Combo4 : 255,0,0

[HitObjects]
63,240,970,6,0,P|123:232|182:241,1,120,2|2,0:0|0:0,0:0:0:0:
255,284,1788,1,0,0:0:0:0:
329,241,2060,2,0,P|388:232|448:240,1,120,2|0,0:0|0:0,0:0:0:0:
484,164,2879,1,2,0:0:0:0:
460,84,3151,6,0,L|328:92,1,120,2|0,0:0|0:0,0:0:0:0:
296,164,3970,1,2,0:0:0:0:
329,240,4242,2,0,P|329:270|325:300,1,60,2|2,0:0|0:0,0:0:0:0:
240,292,4788,2,0,P|210:287|180:288,1,60,0|2,0:0|0:0,0:0:0:0:
96,288,5333,6,0,L|113:169,1,120,2|2,0:0|0:0,0:0:0:0:
176,112,6151,1,0,0:0:0:0:
252,76,6424,2,0,L|269:194,1,120,2|0,0:0|0:0,0:0:0:0:
232,268,7242,1,2,0:0:0:0:
280,336,7515,6,0,P|339:336|396:317,1,120,2|0,0:0|0:0,0:0:0:0:
460,260,8333,1,2,0:0:0:0:
428,184,8606,2,0,L|439:125,1,60,2|2,0:0|0:0,0:0:0:0:
360,96,9151,2,0,L|348:154,1,60,2|0,0:0|0:0,0:0:0:0:
296,220,9697,6,0,B|252:236|252:236|182:212,1,120,2|2,0:0|0:0,0:0:0:0:
100,236,10515,1,0,0:0:0:0:
28,188,10788,2,0,B|12:144|12:144|35:74,1,120,2|0,0:0|0:0,0:0:0:0:
104,28,11606,1,2,0:0:0:0:
180,64,11879,6,0,P|239:68|299:59,1,120,2|0,0:0|0:0,0:0:0:0:
376,88,12697,1,2,0:0:0:0:
396,172,12970,2,0,P|336:167|276:176,2,120,2|2|2,0:0|0:0|0:0,0:0:0:0:
452,332,14606,6,0,L|532:316,2,60,2|0|2,0:0|0:0|0:0,0:0:0:0:
380,288,15424,2,0,P|350:284|320:285,1,60,0|0,0:0|0:0,0:0:0:0:
256,340,15970,1,2,0:0:0:0:
175,315,16242,6,0,P|167:256|180:198,1,120,2|0,0:0|0:0,0:0:0:0:
240,140,17060,1,2,0:0:0:0:
324,152,17333,2,0,P|326:182|322:212,1,60,2|2,0:0|0:0,0:0:0:0:
408,216,17879,2,0,P|406:186|410:156,1,60,10|0,0:0|0:0,0:0:0:0:
436,76,18424,6,0,L|316:60,1,120,6|10,0:0|0:0,0:0:0:0:
256,116,19242,1,0,0:0:0:0:
194,60,19515,2,0,L|76:76,1,120,2|10,0:0|0:0,0:0:0:0:
36,152,20333,1,0,0:0:0:0:
56,232,20606,6,0,L|174:216,1,120,2|10,0:0|0:0,0:0:0:0:
216,292,21424,1,0,0:0:0:0:
272,352,21697,2,0,P|301:352|331:345,1,60,2|0,0:0|0:0,0:0:0:0:
404,304,22242,2,0,P|433:297|463:297,1,60,10|0,0:0|0:0,0:0:0:0:
476,212,22788,6,0,P|484:152|474:93,1,120,2|10,0:0|0:0,0:0:0:0:
408,44,23606,1,0,0:0:0:0:
324,56,23879,2,0,P|315:115|325:174,1,120,2|10,0:0|0:0,0:0:0:0:
256,220,24697,1,0,0:0:0:0:
186,174,24970,6,0,P|196:115|188:56,1,120,2|10,0:0|0:0,0:0:0:0:
108,28,25788,1,0,0:0:0:0:
32,64,26060,2,0,L|20:140,1,60,2|0,0:0|0:0,0:0:0:0:
100,160,26606,2,0,L|108:236,1,60,10|0,0:0|0:0,0:0:0:0:
56,287,27151,6,0,P|114:275|174:275,1,120,2|10,0:0|0:0,0:0:0:0:
256,296,27970,1,0,0:0:0:0:
336,320,28242,2,0,P|395:320|454:307,1,120,2|10,0:0|0:0,0:0:0:0:
496,232,29060,1,0,0:0:0:0:
480,148,29333,6,0,P|420:147|361:160,1,120,2|10,0:0|0:0,0:0:0:0:
296,108,30151,1,0,0:0:0:0:
228,156,30424,2,0,L|237:215,1,60,2|0,0:0|0:0,0:0:0:0:
164,256,30970,2,0,L|173:315,1,60,10|0,0:0|0:0,0:0:0:0:
92,340,31515,6,0,L|72:221,1,120,2|10,0:0|0:0,0:0:0:0:
120,152,32333,1,0,0:0:0:0:
204,164,32606,2,0,L|223:282,1,120,2|10,0:0|0:0,0:0:0:0:
296,324,33424,1,0,0:0:0:0:
360,268,33697,6,0,P|417:252|477:253,2,120,2|0|2,0:0|0:0|0:0,0:0:0:0:
288,224,35060,1,0,0:0:0:0:
224,168,35333,2,0,L|232:92,1,60,10|0,0:0|0:0,0:0:0:0:
172,48,35879,6,0,P|108:52|32:44,2,120,6|8|2,0:0|0:0|0:0,0:0:0:0:
256,192,37515,1,8,0:0:0:0:
340,48,38060,2,0,P|404:52|480:44,2,120,2|8|2,0:0|0:0|0:0,0:0:0:0:
184,112,39697,2,0,P|160:130|139:152,1,60,8|0,0:0|0:0,0:0:0:0:
96,224,40242,6,0,L|68:88,2,120,2|8|2,0:0|0:0|0:0,0:0:0:0:
256,272,41879,1,8,0:0:0:0:
416,224,42424,2,0,L|444:88,2,120,2|8|2,0:0|0:0|0:0,0:0:0:0:
256,272,44060,2,0,P|226:271|196:275,1,60,8|0,0:0|0:0,0:0:0:0:
124,228,44606,6,0,B|112:180|112:180|129:111,2,120,2|8|2,0:0|0:0|0:0,0:0:0:0:
256,332,46242,1,8,0:0:0:0:
388,228,46788,2,0,B|400:180|400:180|382:111,2,120,2|8|2,0:0|0:0|0:0,0:0:0:0:
256,331,48424,2,0,P|226:332|196:328,1,60,8|0,0:0|0:0,0:0:0:0:
124,284,48970,6,0,L|140:148,1,120,2|8,0:0|0:0,0:0:0:0:
292,96,50060,2,0,L|277:215,1,120,2|8,0:0|0:0,0:0:0:0:
340,272,50879,1,0,0:0:0:0:
424,288,51151,2,0,L|440:152,1,120,2|8,0:0|0:0,0:0:0:0:
372,116,51970,1,0,0:0:0:0:
292,88,52242,2,0,P|288:117|292:147,1,60,2|0,0:0|0:0,0:0:0:0:
236,208,52788,2,0,P|254:231|278:249,1,60,8|0,0:0|0:0,0:0:0:0:
320,324,53333,6,0,P|260:331|201:322,1,120,6|8,0:0|0:0,0:0:0:0:
120,344,54151,1,0,0:0:0:0:
48,300,54424,2,0,P|40:240|48:181,1,120,2|8,0:0|0:0,0:0:0:0:
116,128,55242,1,0,0:0:0:0:
188,172,55515,6,0,P|247:180|306:172,1,120,2|8,0:0|0:0,0:0:0:0:
380,128,56333,1,0,0:0:0:0:
456,164,56606,2,0,L|452:236,1,60,2|0,0:0|0:0,0:0:0:0:
372,252,57151,2,0,L|368:324,1,60,8|0,0:0|0:0,0:0:0:0:
288,340,57697,6,0,P|229:332|170:340,1,120,2|8,0:0|0:0,0:0:0:0:
96,296,58515,1,0,0:0:0:0:
72,216,58788,2,0,P|131:207|190:215,1,120,2|8,0:0|0:0,0:0:0:0:
256,160,59606,1,0,0:0:0:0:
240,76,59879,6,0,P|180:84|121:76,1,120,2|8,0:0|0:0,0:0:0:0:
60,132,60697,1,0,0:0:0:0:
72,216,60970,2,0,P|102:212|132:213,1,60,2|0,0:0|0:0,0:0:0:0:
172,288,61515,2,0,P|201:289|231:285,1,60,8|0,0:0|0:0,0:0:0:0:
296,336,62060,6,0,L|276:208,1,120,2|8,0:0|0:0,0:0:0:0:
328,148,62879,1,0,0:0:0:0:
292,72,63151,2,0,L|232:80,1,60,2|0,0:0|0:0,0:0:0:0:
208,164,63697,2,0,L|148:157,1,60,8|0,0:0|0:0,0:0:0:0:
76,200,64242,6,0,P|60:257|64:317,1,120,2|8,0:0|0:0,0:0:0:0:
144,348,65060,1,0,0:0:0:0:
211,296,65333,2,0,P|241:292|271:292,1,60,2|0,0:0|0:0,0:0:0:0:
336,240,65879,2,0,P|359:258|380:280,1,60,8|0,0:0|0:0,0:0:0:0:
456,312,66424,6,0,L|488:176,1,120,2|8,0:0|0:0,0:0:0:0:
444,120,67242,1,0,0:0:0:0:
363,123,67515,2,0,L|335:239,1,120,2|8,0:0|0:0,0:0:0:0:
256,264,68333,1,0,0:0:0:0:
192,208,68606,6,0,P|132:200|73:208,1,120,2|0,0:0|0:0,0:0:0:0:
32,48,69697,2,0,P|91:55|150:47,1,120,2|0,0:0|0:0,0:0:0:0:
300,124,70788,6,0,P|253:253|208:123,1,360,0|8,0:0|0:0,0:0:0:0:
360,52,72970,6,0,P|395:99|416:155,1,120,6|10,0:0|0:0,0:0:0:0:
380,232,73788,1,0,0:0:0:0:
296,248,74060,2,0,P|261:201|240:145,1,120,2|10,0:0|0:0,0:0:0:0:
192,76,74879,1,0,0:0:0:0:
132,136,75151,6,0,B|88:148|88:148|0:124,2,120,2|10|2,0:0|0:0|0:0,0:0:0:0:
176,208,76515,1,0,0:0:0:0:
116,264,76788,2,0,P|108:308|108:344,1,60,10|0,0:0|0:0,0:0:0:0:
184,356,77333,6,0,L|312:336,1,120,2|10,0:0|0:0,0:0:0:0:
364,280,78151,1,0,0:0:0:0:
404,204,78424,2,0,L|285:185,1,120,2|10,0:0|0:0,0:0:0:0:
204,208,79242,1,0,0:0:0:0:
136,156,79515,6,0,P|164:100|228:44,2,120,2|10|2,0:0|0:0|0:0,0:0:0:0:
80,220,80879,1,0,0:0:0:0:
116,296,81151,2,0,P|145:298|175:294,1,60,10|0,0:0|0:0,0:0:0:0:
244,343,81697,6,0,P|259:287|235:234,1,120,2|10,0:0|0:0,0:0:0:0:
164,188,82515,1,0,0:0:0:0:
104,132,82788,2,0,P|157:107|213:123,1,120,2|10,0:0|0:0,0:0:0:0:
292,160,83606,1,0,0:0:0:0:
372,128,83879,6,0,L|384:4,2,120,2|10|2,0:0|0:0|0:0,0:0:0:0:
436,184,85242,1,0,0:0:0:0:
500,240,85515,2,0,L|493:299,1,60,10|0,0:0|0:0,0:0:0:0:
424,348,86060,6,0,P|366:331|306:327,1,120,2|10,0:0|0:0,0:0:0:0:
264,256,86879,1,0,0:0:0:0:
216,188,87151,2,0,P|163:217|118:256,1,120,2|10,0:0|0:0,0:0:0:0:
36,240,87970,1,0,0:0:0:0:
8,160,88242,6,0,P|12:100|28:42,2,120,2|10|2,0:0|0:0|0:0,0:0:0:0:
92,176,89606,1,0,0:0:0:0:
156,120,89879,2,0,L|240:112,1,60,10|0,0:0|0:0,0:0:0:0:
248,36,90424,6,0,P|306:47|362:70,1,120,6|10,0:0|0:0,0:0:0:0:
364,156,91242,1,0,0:0:0:0:
292,200,91515,2,0,P|236:222|186:256,1,120,2|10,0:0|0:0,0:0:0:0:
124,312,92333,1,0,0:0:0:0:
44,284,92606,6,0,B|20:212|20:212|36:160,2,120,2|10|2,0:0|0:0|0:0,0:0:0:0:
124,312,93970,1,0,0:0:0:0:
196,268,94242,2,0,P|204:239|210:209,1,60,10|0,0:0|0:0,0:0:0:0:
288,176,94788,6,0,L|264:48,1,120,2|10,0:0|0:0,0:0:0:0:
344,28,95606,1,0,0:0:0:0:
420,64,95879,2,0,L|442:181,1,120,2|10,0:0|0:0,0:0:0:0:
364,212,96697,1,0,0:0:0:0:
288,176,96970,6,0,P|232:156|156:148,2,120,2|10|2,0:0|0:0|0:0,0:0:0:0:
280,260,98333,1,0,0:0:0:0:
204,296,98606,2,0,L|208:368,1,60,10|0,0:0|0:0,0:0:0:0:
124,352,99151,6,0,L|116:224,1,120,2|10,0:0|0:0,0:0:0:0:
48,184,99970,1,0,0:0:0:0:
16,104,100242,2,0,L|122:33,1,120,2|10,0:0|0:0,0:0:0:0:
200,56,101060,1,0,0:0:0:0:
216,140,101333,6,0,L|341:165,2,120,2|10|2,0:0|0:0|0:0,0:0:0:0:
144,180,102697,1,0,0:0:0:0:
64,204,102970,2,0,P|64:160|76:124,1,60,10|0,0:0|0:0,0:0:0:0:
68,60,103515,6,0,P|127:56|185:39,1,120,2|10,0:0|0:0,0:0:0:0:
256,84,104333,1,0,0:0:0:0:
328,40,104606,2,0,P|387:43|445:60,1,120,2|10,0:0|0:0,0:0:0:0:
460,144,105424,1,0,0:0:0:0:
396,200,105697,6,0,P|378:257|375:317,2,120,2|10|2,0:0|0:0|0:0,0:0:0:0:
344,136,107060,1,0,0:0:0:0:
280,84,107333,2,0,P|250:80|220:82,2,60,10|0|6,0:0|0:0|0:0,0:0:0:0:
368,320,125333,6,0,L|504:304,2,120,6|2|2,0:0|0:0|0:0,0:0:0:0:
256,192,126970,1,2,0:0:0:0:
144,320,127515,2,0,L|8:304,2,120,2|2|2,0:0|0:0|0:0,0:0:0:0:
255,192,129151,2,0,P|285:185|315:183,1,60,2|0,0:0|0:0,0:0:0:0:
388,140,129697,6,0,P|376:88|388:16,2,120,2|2|2,0:0|0:0|0:0,0:0:0:0:
256,248,131333,1,2,0:0:0:0:
124,140,131879,2,0,P|136:88|124:16,2,120,2|2|2,0:0|0:0|0:0,0:0:0:0:
256,248,133515,2,0,L|324:244,1,60,2|0,0:0|0:0,0:0:0:0:
336,164,134060,6,0,L|216:171,2,120,2|2|2,0:0|0:0|0:0,0:0:0:0:
500,204,135697,1,2,0:0:0:0:
448,44,136242,2,0,L|328:51,2,120,2|2|2,0:0|0:0|0:0,0:0:0:0:
336,164,137879,2,0,P|296:160|256:144,1,60,2|0,0:0|0:0,0:0:0:0:
204,196,138424,6,0,B|188:272|188:272|204:312,1,120,2|2,0:0|0:0,0:0:0:0:
364,368,139515,2,0,B|380:292|380:292|364:252,1,120,2|2,0:0|0:0,0:0:0:0:
280,244,140333,1,0,0:0:0:0:
208,288,140606,2,0,P|160:296|76:284,1,120,2|2,0:0|0:0,0:0:0:0:
48,216,141424,1,0,0:0:0:0:
84,140,141697,2,0,P|113:135|143:137,2,60,2|0|8,0:0|0:0|0:0,0:0:0:0:
81,306,142788,6,0,L|200:288,1,120,6|8,0:0|0:0,0:0:0:0:
256,224,143606,1,0,0:0:0:0:
312,288,143879,2,0,L|430:306,1,120,2|8,0:0|0:0,0:0:0:0:
480,240,144697,1,0,0:0:0:0:
472,156,144970,6,0,L|353:137,1,120,2|8,0:0|0:0,0:0:0:0:
272,148,145788,1,0,0:0:0:0:
204,195,146060,2,0,P|196:225|195:255,1,60,2|0,0:0|0:0,0:0:0:0:
116,288,146606,2,0,P|108:317|107:347,1,60,8|0,0:0|0:0,0:0:0:0:
192,356,147151,6,0,B|228:344|228:344|320:356,1,120,2|8,0:0|0:0,0:0:0:0:
376,300,147970,1,0,0:0:0:0:
356,220,148242,2,0,B|320:232|320:232|228:220,1,120,2|8,0:0|0:0,0:0:0:0:
172,172,149060,1,0,0:0:0:0:
120,108,149333,6,0,P|92:152|120:236,1,120,2|8,0:0|0:0,0:0:0:0:
100,300,150151,1,0,0:0:0:0:
168,347,150424,2,0,P|197:342|224:330,1,60,2|0,0:0|0:0,0:0:0:0:
276,264,150970,2,0,P|303:274|328:291,1,60,8|0,0:0|0:0,0:0:0:0:
396,244,151515,6,0,L|384:104,1,120,2|8,0:0|0:0,0:0:0:0:
316,76,152333,1,0,0:0:0:0:
240,112,152606,2,0,P|210:114|180:113,1,60,2|0,0:0|0:0,0:0:0:0:
100,136,153151,2,0,P|98:165|101:195,1,60,8|0,0:0|0:0,0:0:0:0:
68,272,153697,6,0,P|126:276|173:241,1,120,2|8,0:0|0:0,0:0:0:0:
184,160,154515,1,0,0:0:0:0:
168,76,154788,2,0,L|248:68,1,60,2|0,0:0|0:0,0:0:0:0:
268,144,155333,2,0,L|348:136,1,60,8|0,0:0|0:0,0:0:0:0:
379,204,155879,6,0,P|327:232|281:270,1,120,2|8,0:0|0:0,0:0:0:0:
220,328,156697,1,0,0:0:0:0:
144,292,156970,2,0,P|161:234|166:174,1,120,2|8,0:0|0:0,0:0:0:0:
124,104,157788,1,0,0:0:0:0:
168,32,158060,6,0,P|227:37|285:54,1,120,2|0,0:0|0:0,0:0:0:0:
192,196,159151,2,0,P|217:250|230:308,1,120,2|0,0:0|0:0,0:0:0:0:
80,236,160242,6,0,P|144:84|304:160,1,360,0|8,0:0|0:0,0:0:0:0:
256,304,162424,6,0,L|180:292,2,60,6|0|10,0:0|0:0|0:0,0:0:0:0:
328,348,163242,1,0,0:0:0:0:
399,303,163515,2,0,P|388:245|398:186,1,120,2|10,0:0|0:0,0:0:0:0:
432,112,164333,1,0,0:0:0:0:
396,36,164606,6,0,P|337:25|278:37,1,120,2|10,0:0|0:0,0:0:0:0:
224,100,165424,1,0,0:0:0:0:
272,172,165697,2,0,P|276:201|273:231,1,60,2|0,0:0|0:0,0:0:0:0:
196,264,166242,2,0,P|191:234|194:204,1,60,10|0,0:0|0:0,0:0:0:0:
148,136,166788,6,0,L|84:140,2,60,2|0|10,0:0|0:0|0:0,0:0:0:0:
224,100,167606,1,0,0:0:0:0:
272,172,167879,2,0,L|391:179,1,120,2|10,0:0|0:0,0:0:0:0:
448,240,168697,1,0,0:0:0:0:
424,320,168970,6,0,L|305:313,1,120,2|10,0:0|0:0,0:0:0:0:
240,260,169788,1,0,0:0:0:0:
156,256,170060,2,0,P|134:277|118:302,1,60,2|0,0:0|0:0,0:0:0:0:
48,256,170606,2,0,P|47:226|41:196,1,60,10|0,0:0|0:0,0:0:0:0:
100,136,171151,6,0,L|120:60,2,60,2|0|10,0:0|0:0|0:0,0:0:0:0:
176,172,171970,1,0,0:0:0:0:
236,111,172242,2,0,P|295:103|354:111,1,120,2|10,0:0|0:0,0:0:0:0:
424,64,173060,1,0,0:0:0:0:
488,116,173333,6,0,P|480:175|488:234,1,120,2|10,0:0|0:0,0:0:0:0:
428,296,174151,1,0,0:0:0:0:
356,252,174424,2,0,L|288:252,1,60,2|0,0:0|0:0,0:0:0:0:
276,168,174970,2,0,L|336:168,1,60,10|0,0:0|0:0,0:0:0:0:
363,87,175515,6,0,P|305:75|251:49,1,120,2|10,0:0|0:0,0:0:0:0:
176,84,176333,1,0,0:0:0:0:
188,168,176606,2,0,P|137:200|81:220,1,120,2|10,0:0|0:0,0:0:0:0:
52,300,177424,1,0,0:0:0:0:
132,328,177697,6,0,P|190:340|244:366,1,120,2|10,0:0|0:0,0:0:0:0:
316,320,178515,1,0,0:0:0:0:
371,256,178788,2,0,P|379:226|379:196,1,60,2|0,0:0|0:0,0:0:0:0:
316,144,179333,2,0,P|316:114|323:84,1,60,10|0,0:0|0:0,0:0:0:0:
388,32,179879,6,0,L|464:28,2,60,6|0|10,0:0|0:0|0:0,0:0:0:0:
404,116,180697,1,0,0:0:0:0:
420,200,180970,2,0,L|300:206,1,120,2|10,0:0|0:0,0:0:0:0:
284,124,181788,1,0,0:0:0:0:
268,40,182060,6,0,L|148:46,1,120,2|10,0:0|0:0,0:0:0:0:
88,108,182879,1,0,0:0:0:0:
60,188,183151,2,0,P|89:189|119:184,1,60,2|0,0:0|0:0,0:0:0:0:
192,232,183697,2,0,P|214:211|231:187,1,60,10|0,0:0|0:0,0:0:0:0:
200,108,184242,6,0,P|194:78|195:48,2,60,2|0|10,0:0|0:0|0:0,0:0:0:0:
284,124,185060,1,0,0:0:0:0:
352,72,185333,2,0,P|367:128|345:183,1,120,2|10,0:0|0:0,0:0:0:0:
392,256,186151,1,0,0:0:0:0:
443,324,186424,6,0,P|386:339|331:317,1,120,2|10,0:0|0:0,0:0:0:0:
272,256,187242,1,0,0:0:0:0:
312,180,187515,2,0,L|316:104,1,60,2|0,0:0|0:0,0:0:0:0:
232,100,188060,2,0,L|216:25,1,60,10|0,0:0|0:0,0:0:0:0:
136,39,188606,6,0,P|108:50|78:55,1,60,2|0,0:0|0:0,0:0:0:0:
12,108,189151,2,0,P|36:125|63:137,1,60,10|0,0:0|0:0,0:0:0:0:
83,219,189697,2,0,P|143:211|197:186,1,120,2|10,0:0|0:0,0:0:0:0:
256,124,190515,1,0,0:0:0:0:
314,186,190788,6,0,P|368:211|428:219,1,120,2|10,0:0|0:0,0:0:0:0:
476,148,191606,1,0,0:0:0:0:
456,68,191879,2,0,P|426:64|396:67,1,60,2|0,0:0|0:0,0:0:0:0:
320,32,192424,2,0,P|290:34|260:31,1,60,10|0,0:0|0:0,0:0:0:0:
180,56,192970,6,0,L|176:192,1,120,2|10,0:0|0:0,0:0:0:0:
120,240,193788,1,0,0:0:0:0:
152,316,194060,2,0,L|271:319,1,120,2|10,0:0|0:0,0:0:0:0:
324,252,194879,1,0,0:0:0:0:
260,196,195151,6,0,P|255:136|266:77,1,120,2|10,0:0|0:0,0:0:0:0:
344,40,195970,1,0,0:0:0:0:
427,55,196242,2,0,P|431:85|432:115,1,60,2|0,0:0|0:0,0:0:0:0:
484,180,196788,2,0,P|465:203|444:225,1,60,10|0,0:0|0:0,0:0:0:0:
376,176,197333,5,6,0:0:0:0:
256,192,197606,12,2,201697,0:0:0:0:
68,240,202788,6,0,P|126:252|184:239,1,120,2|0,0:0|0:0,0:0:0:0:
255,191,203606,1,2,0:0:0:0:
327,239,203879,6,0,P|385:252|444:240,1,120,2|0,0:0|0:0,0:0:0:0:
472,160,204697,1,2,0:0:0:0:
460,76,204970,2,0,P|401:63|343:75,2,120,2|2|2,0:0|0:0|0:0,0:0:0:0:
472,160,206333,5,0,0:0:0:0:
444,240,206606,2,0,L|364:236,1,60,2|0,0:0|0:0,0:0:0:0:
315,287,207151,2,0,P|300:231|323:177,1,120,2|0,0:0|0:0,0:0:0:0:
376,112,207970,1,2,0:0:0:0:
436,52,208242,6,0,P|381:29|325:44,1,120,2|0,0:0|0:0,0:0:0:0:
256,92,209060,1,2,0:0:0:0:
186,44,209333,2,0,P|130:29|76:52,2,120,2|2|2,0:0|0:0|0:0,0:0:0:0:
148,208,210970,6,0,P|147:237|155:266,1,60,2|0,0:0|0:0,0:0:0:0:
148,352,211515,2,0,L|288:340,1,120,2|0,0:0|0:0,0:0:0:0:
320,276,212333,1,2,0:0:0:0:
348,196,212606,6,0,L|228:185,1,120,2|0,0:0|0:0,0:0:0:0:
192,108,213424,1,2,0:0:0:0:
144,36,213697,2,0,P|122:57|108:83,1,60,2|2,0:0|0:0,0:0:0:0:
128,164,214242,2,0,P|135:192|135:222,1,60,2|0,0:0|0:0,0:0:0:0:
80,288,214788,5,2,0:0:0:0:
