osu file format v14

[General]
AudioFilename: Ken Arai - NEXT TO YOU.mp3
AudioLeadIn: 0
PreviewTime: 72833
Countdown: 0
SampleSet: Soft
StackLeniency: 0.7
Mode: 0
LetterboxInBreaks: 0
WidescreenStoryboard: 0

[Editor]
Bookmarks: 1788,53333,68606,125333,142788,214788
DistanceSpacing: 1.4
BeatDivisor: 4
GridSize: 4
TimelineZoom: 1.1

[Metadata]
Title:NEXT TO YOU
TitleUnicode:NEXT TO YOU
Artist:Ken Arai
ArtistUnicode:Ken Arai
Creator:Rakuen
Version:Insane
Source:寄生獣 セイの格率
Tags:Kiseijuu Sei no Kakuritsu Parasyte the maxim オリジナル・サウンドトラック OST Original Soundtrack ケン アライ Xinely piano
BeatmapID:797845
BeatmapSetID:348526

[Difficulty]
HPDrainRate:7
CircleSize:4
OverallDifficulty:7
ApproachRate:8
SliderMultiplier:1.6
SliderTickRate:1

[Events]
//Background and Video events
0,0,"kiseijuu wallpaper.jpg",0,0
//Break Periods
//Storyboard Layer 0 (Background)
//Storyboard Layer 1 (Fail)
//Storyboard Layer 2 (Pass)
//Storyboard Layer 3 (Foreground)
//Storyboard Sound Samples

[TimingPoints]
970,545.454545454546,4,2,1,40,1,0
17879,-100,4,2,1,50,0,0
18424,-100,4,2,1,60,0,1
35879,-100,4,2,1,40,0,0
72424,-100,4,2,1,50,0,0
72833,-100,4,2,1,20,0,0
72970,-100,4,2,1,60,0,1
89879,-100,4,2,1,60,0,0
90424,-100,4,2,1,60,0,1
107879,-100,4,2,1,40,0,0
161879,-100,4,2,1,50,0,0
162288,-100,4,2,1,20,0,0
162424,-90.9090909090909,4,2,1,60,0,1
179333,-90.9090909090909,4,2,1,60,0,0
179879,-90.9090909090909,4,2,1,60,0,1
197333,-90.9090909090909,4,2,1,60,0,0
197606,-100,4,2,1,40,0,0

[Colours]
Combo1 : 128,0,255
Combo2 : 255,100,26
Combo3 : 255,0,128
Combo4 : 255,0,0

[HitObjects]
312,252,970,5,2,0:0:0:0:
312,70,1242,1,0,0:0:0:0:
205,217,1515,1,2,0:0:0:0:
377,161,1788,1,0,0:0:0:0:
205,105,2060,1,2,0:0:0:0:
205,217,2333,1,0,0:0:0:0:
108,160,2606,1,0,0:0:0:0:
44,292,2879,5,2,0:0:0:0:
44,292,3015,1,0,0:0:0:0:
44,292,3151,2,0,P|83:295|123:293,1,80,2|0,0:0|0:0,0:0:0:0:
260,274,3697,2,0,P|235:243|205:217,1,80,0|2,0:0|0:0,0:0:0:0:
184,204,4106,1,0,0:0:0:0:
164,192,4242,2,0,L|148:112,1,80,2|2,0:0|0:0,0:0:0:0:
51,25,4788,2,0,L|36:104,1,80,0|2,0:0|0:0,0:0:0:0:
200,252,5333,5,2,0:0:0:0:
200,70,5605,1,0,0:0:0:0:
307,217,5878,1,2,0:0:0:0:
135,161,6151,1,0,0:0:0:0:
307,105,6423,1,2,0:0:0:0:
200,70,6697,1,0,0:0:0:0:
135,161,6970,1,0,0:0:0:0:
40,52,7242,5,2,0:0:0:0:
40,52,7379,1,0,0:0:0:0:
40,52,7515,2,0,P|79:44|115:27,1,80,2|0,0:0|0:0,0:0:0:0:
210,186,8060,2,0,P|171:178|135:161,1,80,0|2,0:0|0:0,0:0:0:0:
117,144,8470,1,0,0:0:0:0:
102,124,8606,2,0,B|54:200,1,80,2|2,0:0|0:0,0:0:0:0:
140,343,9151,2,0,B|144:264,1,80,2|0,0:0|0:0,0:0:0:0:
256,280,9697,5,2,0:0:0:0:
208,144,9970,1,0,0:0:0:0:
360,232,10242,1,2,0:0:0:0:
196,124,10515,1,0,0:0:0:0:
408,128,10788,1,2,0:0:0:0:
332,44,11060,1,0,0:0:0:0:
296,152,11333,1,0,0:0:0:0:
144,248,11606,5,2,0:0:0:0:
120,248,11742,1,0,0:0:0:0:
96,248,11879,2,0,P|88:208|93:169,1,80,2|0,0:0|0:0,0:0:0:0:
193,45,12424,2,0,P|201:84|196:124,1,80,0|2,0:0|0:0,0:0:0:0:
184,144,12833,1,0,0:0:0:0:
172,164,12970,2,0,L|260:164,1,80,2|0,0:0|0:0,0:0:0:0:
316,256,13515,1,2,0:0:0:0:
160,184,13788,1,0,0:0:0:0:
356,111,14060,6,0,P|359:72|353:32,1,80,2|0,0:0|0:0,0:0:0:0:
248,76,14606,1,2,0:0:0:0:
328,232,14879,1,0,0:0:0:0:
160,184,15151,2,0,P|120:180|80:186,2,80,2|0|0,0:0|0:0|0:0,0:0:0:0:
256,52,15970,5,2,0:0:0:0:
256,52,16106,1,0,0:0:0:0:
256,52,16242,2,0,L|344:68,1,80,2|0,0:0|0:0,0:0:0:0:
446,157,16788,2,0,L|368:172,1,80,0|2,0:0|0:0,0:0:0:0:
352,192,17197,1,0,0:0:0:0:
335,212,17333,2,0,P|296:216|256:212,1,80,2|2,0:0|0:0,0:0:0:0:
296,107,17879,2,0,P|298:67|295:28,1,80,10|0,0:0|0:0,0:0:0:0:
192,68,18424,5,6,0:0:0:0:
88,28,18697,1,0,0:0:0:0:
104,140,18970,1,10,0:0:0:0:
64,243,19243,1,0,0:0:0:0:
64,243,19379,1,0,0:0:0:0:
64,243,19515,2,0,L|124:240,1,40,2|0,0:0|0:0,0:0:0:0:
156,312,19788,2,0,L|216:309,1,40,0|0,0:0|0:0,0:0:0:0:
248,240,20060,1,10,0:0:0:0:
368,324,20333,5,2,0:0:0:0:
368,324,20470,1,0,0:0:0:0:
368,324,20606,2,0,P|360:272|376:216,1,80,2|0,0:0|0:0,0:0:0:0:
376,224,21015,1,0,0:0:0:0:
388,204,21151,1,10,0:0:0:0:
476,136,21424,1,2,0:0:0:0:
464,112,21560,1,0,0:0:0:0:
452,92,21697,6,0,L|396:84,1,40,2|0,0:0|0:0,0:0:0:0:
340,136,21970,2,0,L|284:144,1,40,2|0,0:0|0:0,0:0:0:0:
228,92,22242,2,0,L|172:84,1,40,10|0,0:0|0:0,0:0:0:0:
116,136,22515,2,0,L|60:144,1,40,2|0,0:0|0:0,0:0:0:0:
24,216,22788,5,2,0:0:0:0:
84,308,23060,1,0,0:0:0:0:
196,300,23333,1,10,0:0:0:0:
136,208,23605,1,0,0:0:0:0:
136,208,23742,1,0,0:0:0:0:
136,208,23879,2,0,P|131:188|130:168,1,40,2|0,0:0|0:0,0:0:0:0:
48,136,24151,2,0,P|53:116|62:98,1,40,0|0,0:0|0:0,0:0:0:0:
36,16,24424,1,10,0:0:0:0:
180,48,24697,5,2,0:0:0:0:
168,68,24833,1,0,0:0:0:0:
156,88,24970,2,0,L|240:88,1,80,2|0,0:0|0:0,0:0:0:0:
248,108,25379,1,0,0:0:0:0:
260,128,25515,1,10,0:0:0:0:
352,192,25788,1,2,0:0:0:0:
364,172,25924,1,0,0:0:0:0:
376,152,26060,6,0,L|368:104,1,40,2|0,0:0|0:0,0:0:0:0:
296,64,26333,2,0,L|289:103,1,40,2|0,0:0|0:0,0:0:0:0:
212,148,26606,2,0,L|204:100,1,40,10|0,0:0|0:0,0:0:0:0:
132,60,26879,2,0,L|125:99,1,40,2|0,0:0|0:0,0:0:0:0:
44,132,27151,5,2,0:0:0:0:
136,192,27424,1,0,0:0:0:0:
58,351,27697,1,10,0:0:0:0:
36,244,27970,1,0,0:0:0:0:
36,244,28106,1,0,0:0:0:0:
36,243,28242,2,0,P|55:239|75:240,1,40,2|0,0:0|0:0,0:0:0:0:
136,304,28515,2,0,P|155:304|175:301,1,40,0|0,0:0|0:0,0:0:0:0:
248,352,28788,1,10,0:0:0:0:
220,212,29060,5,2,0:0:0:0:
208,192,29197,1,0,0:0:0:0:
196,172,29333,2,0,L|108:172,1,80,2|0,0:0|0:0,0:0:0:0:
104,152,29742,1,0,0:0:0:0:
92,132,29879,1,10,0:0:0:0:
156,40,30151,1,2,0:0:0:0:
156,40,30288,1,0,0:0:0:0:
156,40,30424,6,0,P|173:30|192:24,1,40,2|0,0:0|0:0,0:0:0:0:
256,88,30697,2,0,P|275:93|293:102,1,40,2|0,0:0|0:0,0:0:0:0:
296,192,30970,2,0,P|305:209|311:228,1,40,10|0,0:0|0:0,0:0:0:0:
248,292,31243,2,0,P|242:311|233:329,1,40,2|0,0:0|0:0,0:0:0:0:
144,336,31515,5,2,0:0:0:0:
76,244,31788,1,0,0:0:0:0:
180,200,32060,1,10,0:0:0:0:
248,108,32333,1,0,0:0:0:0:
248,108,32470,1,0,0:0:0:0:
248,108,32606,2,0,L|192:100,1,40,2|0,0:0|0:0,0:0:0:0:
156,32,32879,2,0,L|100:40,1,40,0|0,0:0|0:0,0:0:0:0:
52,96,33151,1,10,0:0:0:0:
132,216,33424,5,2,0:0:0:0:
132,240,33560,1,0,0:0:0:0:
132,264,33697,1,2,0:0:0:0:
232,320,33970,1,0,0:0:0:0:
232,296,34106,2,0,L|232:268,2,20,0|0|0,0:0|0:0|0:0,0:0:0:0:
320,224,34515,5,2,0:0:0:0:
320,200,34651,1,0,0:0:0:0:
320,176,34788,1,2,0:0:0:0:
240,96,35060,1,2,0:0:0:0:
223,79,35196,2,0,L|203:59,2,20,0|0|10,0:0|0:0|0:0,0:0:0:0:
320,176,35606,1,2,0:0:0:0:
320,176,35742,1,0,0:0:0:0:
320,176,35879,6,0,P|356:180|408:176,1,80,6|0,0:0|0:0,0:0:0:0:
364,72,36424,2,0,P|328:68|276:72,1,80,8|0,0:0|0:0,0:0:0:0:
200,148,36970,1,2,0:0:0:0:
236,252,37242,1,0,0:0:0:0:
164,336,37515,1,8,0:0:0:0:
128,232,37787,1,0,0:0:0:0:
24,188,38060,6,0,L|56:104,1,80,2|0,0:0|0:0,0:0:0:0:
164,116,38606,2,0,L|196:32,1,80,8|0,0:0|0:0,0:0:0:0:
304,20,39151,1,2,0:0:0:0:
384,100,39424,1,0,0:0:0:0:
492,128,39697,1,8,0:0:0:0:
412,208,39970,1,0,0:0:0:0:
323,275,40242,6,0,P|308:239|303:199,1,80,2|0,0:0|0:0,0:0:0:0:
192,184,40788,2,0,P|207:147|231:115,1,80,8|0,0:0|0:0,0:0:0:0:
160,32,41333,2,0,L|72:20,1,80,2|0,0:0|0:0,0:0:0:0:
4,142,41879,2,0,L|84:132,1,80,8|0,0:0|0:0,0:0:0:0:
128,236,42424,6,0,P|115:273|112:313,1,80,2|0,0:0|0:0,0:0:0:0:
236,206,42970,2,0,P|218:171|191:141,1,80,8|0,0:0|0:0,0:0:0:0:
344,188,43515,2,0,P|341:227|328:265,1,80,2|0,0:0|0:0,0:0:0:0:
236,206,44060,1,8,0:0:0:0:
156,128,44333,1,0,0:0:0:0:
220,36,44606,6,0,P|259:32|299:35,1,80,2|0,0:0|0:0,0:0:0:0:
336,144,45151,2,0,P|375:147|415:143,1,80,8|0,0:0|0:0,0:0:0:0:
428,256,45697,1,2,0:0:0:0:
344,332,45970,1,0,0:0:0:0:
260,256,46242,1,8,0:0:0:0:
176,332,46515,1,0,0:0:0:0:
71,292,46788,6,0,P|64:253|70:213,1,80,2|0,0:0|0:0,0:0:0:0:
150,61,47333,2,0,P|157:100|152:140,1,80,8|0,0:0|0:0,0:0:0:0:
44,104,47879,1,2,0:0:0:0:
44,104,48151,1,0,0:0:0:0:
70,213,48424,1,8,0:0:0:0:
168,268,48697,1,0,0:0:0:0:
268,212,48970,6,0,L|254:133,1,80,2|0,0:0|0:0,0:0:0:0:
354,45,49515,2,0,L|368:124,1,80,8|0,0:0|0:0,0:0:0:0:
464,216,50060,2,0,P|447:252|422:283,1,80,2|0,0:0|0:0,0:0:0:0:
312,304,50606,1,8,0:0:0:0:
228,232,50879,1,0,0:0:0:0:
120,300,51151,5,2,0:0:0:0:
32,232,51424,1,0,0:0:0:0:
32,232,51560,2,0,L|12:232,2,20,0|0|8,0:0|0:0|0:0,0:0:0:0:
92,136,51970,1,0,0:0:0:0:
56,32,52242,5,2,0:0:0:0:
168,52,52515,1,0,0:0:0:0:
168,52,52651,2,0,L|200:52,2,20,0|0|8,0:0|0:0|0:0,0:0:0:0:
92,136,53060,1,0,0:0:0:0:
92,160,53197,1,0,0:0:0:0:
92,184,53333,6,0,P|131:189|171:184,1,80,6|0,0:0|0:0,0:0:0:0:
256,108,53879,1,8,0:0:0:0:
340,184,54151,1,0,0:0:0:0:
316,292,54424,2,0,L|224:284,1,80,2|0,0:0|0:0,0:0:0:0:
128,312,54970,1,8,0:0:0:0:
156,204,55242,1,0,0:0:0:0:
124,96,55515,6,0,P|168:92|216:108,2,80,2|0|8,0:0|0:0|0:0,0:0:0:0:
64,192,56333,1,0,0:0:0:0:
64,304,56606,1,2,0:0:0:0:
160,360,56879,1,0,0:0:0:0:
160,248,57151,1,8,0:0:0:0:
256,192,57424,1,0,0:0:0:0:
352,248,57697,6,0,P|391:252|431:248,2,80,2|0|8,0:0|0:0|0:0,0:0:0:0:
392,144,58515,1,0,0:0:0:0:
432,40,58788,2,0,P|392:35|352:39,1,80,2|0,0:0|0:0,0:0:0:0:
256,96,59333,1,8,0:0:0:0:
160,40,59606,1,0,0:0:0:0:
64,96,59879,6,0,P|59:135|63:175,2,80,2|0|8,0:0|0:0|0:0,0:0:0:0:
168,132,60697,1,0,0:0:0:0:
148,244,60970,1,2,0:0:0:0:
272,316,61242,1,0,0:0:0:0:
252,204,61515,1,8,0:0:0:0:
376,128,61788,1,0,0:0:0:0:
356,240,62060,6,0,L|452:228,2,80,2|0|8,0:0|0:0|0:0,0:0:0:0:
252,204,62879,1,0,0:0:0:0:
148,244,63151,1,2,0:0:0:0:
164,132,63424,1,0,0:0:0:0:
76,60,63697,1,8,0:0:0:0:
60,172,63970,1,0,0:0:0:0:
148,244,64242,6,0,P|184:248|256:236,2,80,2|0|8,0:0|0:0|0:0,0:0:0:0:
184,140,65060,1,0,0:0:0:0:
256,52,65333,1,2,0:0:0:0:
328,140,65606,1,0,0:0:0:0:
400,52,65879,1,8,0:0:0:0:
400,228,66151,1,0,0:0:0:0:
239,130,66424,6,0,L|259:38,2,80,2|0|8,0:0|0:0|0:0,0:0:0:0:
292,228,67242,1,0,0:0:0:0:
108,269,67515,2,0,P|142:248|180:236,1,80,2|0,0:0|0:0,0:0:0:0:
192,348,68060,1,8,0:0:0:0:
68,164,68333,1,0,0:0:0:0:
256,192,68606,5,2,0:0:0:0:
346,257,68879,1,0,0:0:0:0:
437,192,69151,1,2,0:0:0:0:
402,85,69424,1,0,0:0:0:0:
290,85,69697,1,2,0:0:0:0:
360,296,70242,5,2,0:0:0:0:
64,304,70788,5,2,0:0:0:0:
68,280,70924,1,0,0:0:0:0:
72,256,71060,1,0,0:0:0:0:
76,232,71197,1,0,0:0:0:0:
80,208,71333,2,0,L|68:140,3,40,2|0|0|0,0:0|0:0|0:0|0:0,0:0:0:0:
52,124,71879,5,2,0:0:0:0:
68,104,72015,1,0,0:0:0:0:
84,84,72151,1,0,0:0:0:0:
100,64,72288,1,0,0:0:0:0:
116,44,72424,2,0,P|176:36|256:52,1,120,10|0,0:0|0:0,0:0:0:0:
312,88,72970,5,6,0:0:0:0:
280,196,73242,1,0,0:0:0:0:
376,304,73515,1,10,0:0:0:0:
200,320,73788,1,0,0:0:0:0:
176,312,73924,1,0,0:0:0:0:
152,304,74060,2,0,L|172:252,1,40,2|0,0:0|0:0,0:0:0:0:
81,174,74333,2,0,L|96:212,1,40,0|0,0:0|0:0,0:0:0:0:
20,256,74606,1,10,0:0:0:0:
36,80,74879,5,2,0:0:0:0:
36,80,75015,1,0,0:0:0:0:
36,80,75151,2,0,P|75:76|120:80,1,80,2|0,0:0|0:0,0:0:0:0:
192,128,75560,1,0,0:0:0:0:
192,128,75697,2,0,P|231:131|271:127,1,80,10|2,0:0|0:0,0:0:0:0:
348,84,76106,1,0,0:0:0:0:
348,84,76242,6,0,L|340:28,1,40,2|0,0:0|0:0,0:0:0:0:
456,108,76515,2,0,L|450:147,1,40,2|0,0:0|0:0,0:0:0:0:
340,232,76788,2,0,L|332:176,1,40,10|0,0:0|0:0,0:0:0:0:
448,256,77061,2,0,L|442:295,1,40,2|0,0:0|0:0,0:0:0:0:
320,352,77333,5,2,0:0:0:0:
216,312,77606,1,0,0:0:0:0:
72,340,77879,1,10,0:0:0:0:
168,192,78151,1,0,0:0:0:0:
168,192,78288,1,0,0:0:0:0:
168,192,78424,2,0,P|187:192|207:189,1,40,2|0,0:0|0:0,0:0:0:0:
108,128,78697,2,0,P|88:127|68:130,1,40,0|0,0:0|0:0,0:0:0:0:
148,52,78970,1,10,0:0:0:0:
92,220,79242,5,2,0:0:0:0:
84,244,79379,1,0,0:0:0:0:
76,268,79515,2,0,L|164:264,1,80,2|0,0:0|0:0,0:0:0:0:
212,332,79924,1,0,0:0:0:0:
212,332,80060,2,0,L|300:328,1,80,10|2,0:0|0:0,0:0:0:0:
372,288,80470,1,0,0:0:0:0:
372,288,80606,6,0,P|375:268|376:248,1,40,2|0,0:0|0:0,0:0:0:0:
320,116,80879,2,0,P|316:136|316:156,1,40,2|0,0:0|0:0,0:0:0:0:
468,200,81151,2,0,P|456:183|442:168,1,40,10|0,0:0|0:0,0:0:0:0:
224,204,81424,2,0,P|235:220|249:235,1,40,2|0,0:0|0:0,0:0:0:0:
320,116,81697,5,2,0:0:0:0:
412,52,81970,1,0,0:0:0:0:
236,40,82242,1,10,0:0:0:0:
312,236,82515,1,0,0:0:0:0:
336,236,82651,1,0,0:0:0:0:
360,236,82788,2,0,L|408:224,1,40,2|0,0:0|0:0,0:0:0:0:
432,144,83060,2,0,L|393:134,1,40,0|0,0:0|0:0,0:0:0:0:
368,48,83333,1,10,0:0:0:0:
228,156,83606,5,2,0:0:0:0:
208,168,83742,1,0,0:0:0:0:
187,179,83879,2,0,P|148:175|109:164,1,80,2|0,0:0|0:0,0:0:0:0:
20,112,84288,1,0,0:0:0:0:
20,112,84424,2,0,P|51:87|86:67,1,80,10|2,0:0|0:0,0:0:0:0:
180,84,84833,1,0,0:0:0:0:
180,84,84970,6,0,P|199:89|219:91,1,40,2|0,0:0|0:0,0:0:0:0:
284,164,85242,2,0,P|301:154|317:141,1,40,2|0,0:0|0:0,0:0:0:0:
452,224,85515,2,0,P|442:206|429:190,1,40,10|0,0:0|0:0,0:0:0:0:
434,92,85787,2,0,P|414:87|395:85,1,40,2|0,0:0|0:0,0:0:0:0:
352,240,86060,5,2,0:0:0:0:
256,324,86333,1,0,0:0:0:0:
240,164,86606,1,10,0:0:0:0:
429,190,86879,1,0,0:0:0:0:
429,190,87015,1,0,0:0:0:0:
429,190,87151,2,0,L|420:136,1,40,2|0,0:0|0:0,0:0:0:0:
336,128,87424,2,0,L|327:74,1,40,0|0,0:0|0:0,0:0:0:0:
392,24,87697,1,10,0:0:0:0:
224,72,87970,5,2,0:0:0:0:
224,72,88106,1,0,0:0:0:0:
224,72,88242,1,2,0:0:0:0:
172,172,88515,1,0,0:0:0:0:
180,196,88651,2,0,L|192:228,2,20,0|0|10,0:0|0:0|0:0,0:0:0:0:
308,128,89060,5,2,0:0:0:0:
308,128,89196,1,0,0:0:0:0:
308,128,89332,1,2,0:0:0:0:
360,228,89605,1,2,0:0:0:0:
352,252,89742,2,0,L|340:284,2,20,0|0|10,0:0|0:0|0:0,0:0:0:0:
180,196,90151,1,2,0:0:0:0:
180,196,90288,1,0,0:0:0:0:
180,196,90424,5,6,0:0:0:0:
76,240,90697,1,0,0:0:0:0:
112,100,90970,1,10,0:0:0:0:
160,268,91242,1,0,0:0:0:0:
160,268,91379,1,0,0:0:0:0:
160,268,91515,2,0,L|204:272,1,40,2|0,0:0|0:0,0:0:0:0:
279,355,91788,2,0,L|240:352,1,40,0|0,0:0|0:0,0:0:0:0:
248,196,92060,1,10,0:0:0:0:
316,68,92333,5,2,0:0:0:0:
316,68,92470,1,0,0:0:0:0:
316,68,92606,2,0,L|217:53,1,80,2|0,0:0|0:0,0:0:0:0:
188,132,93015,1,0,0:0:0:0:
188,132,93151,2,0,L|89:147,1,80,10|2,0:0|0:0,0:0:0:0:
32,100,93560,1,0,0:0:0:0:
32,100,93697,6,0,P|34:80|39:60,1,40,2|0,0:0|0:0,0:0:0:0:
144,224,93970,2,0,P|156:239|166:256,1,40,2|0,0:0|0:0,0:0:0:0:
128,56,94242,2,0,P|143:43|160:33,1,40,10|0,0:0|0:0,0:0:0:0:
52,208,94515,2,0,P|32:205|12:200,1,40,2|0,0:0|0:0,0:0:0:0:
208,128,94788,5,2,0:0:0:0:
144,224,95060,1,0,0:0:0:0:
236,336,95333,1,10,0:0:0:0:
60,312,95606,1,0,0:0:0:0:
60,312,95742,1,0,0:0:0:0:
60,312,95879,2,0,P|79:315|99:315,1,40,2|0,0:0|0:0,0:0:0:0:
199,255,96151,2,0,P|179:252|160:252,1,40,0|0,0:0|0:0,0:0:0:0:
236,336,96424,1,10,0:0:0:0:
380,236,96697,5,2,0:0:0:0:
388,212,96833,1,0,0:0:0:0:
396,188,96970,2,0,P|400:148|395:108,1,80,2|0,0:0|0:0,0:0:0:0:
432,28,97379,1,0,0:0:0:0:
432,28,97515,2,0,P|392:23|352:28,1,80,10|2,0:0|0:0,0:0:0:0:
288,88,97924,1,0,0:0:0:0:
288,88,98060,6,0,L|232:76,1,40,2|0,0:0|0:0,0:0:0:0:
128,36,98333,2,0,L|168:28,1,40,2|0,0:0|0:0,0:0:0:0:
284,184,98606,2,0,L|228:172,1,40,10|0,0:0|0:0,0:0:0:0:
124,132,98879,2,0,L|163:123,1,40,2|0,0:0|0:0,0:0:0:0:
160,220,99151,5,2,0:0:0:0:
256,280,99424,1,0,0:0:0:0:
368,144,99697,1,10,0:0:0:0:
368,352,99970,1,0,0:0:0:0:
388,340,100106,1,0,0:0:0:0:
408,328,100242,2,0,L|412:288,1,40,2|0,0:0|0:0,0:0:0:0:
484,200,100515,2,0,L|488:240,1,40,0|0,0:0|0:0,0:0:0:0:
328,256,100788,1,10,0:0:0:0:
212,344,101060,5,2,0:0:0:0:
188,340,101197,1,0,0:0:0:0:
164,336,101333,2,0,P|124:338|85:347,1,80,2|0,0:0|0:0,0:0:0:0:
28,280,101742,1,0,0:0:0:0:
28,280,101879,2,0,P|18:241|16:201,1,80,10|2,0:0|0:0,0:0:0:0:
60,124,102288,1,0,0:0:0:0:
60,124,102424,6,0,P|79:122|99:123,1,40,2|0,0:0|0:0,0:0:0:0:
167,27,102697,2,0,P|169:47|168:67,1,40,2|0,0:0|0:0,0:0:0:0:
263,133,102970,2,0,P|243:135|224:134,1,40,10|0,0:0|0:0,0:0:0:0:
157,230,103242,2,0,P|155:210|157:191,1,40,2|0,0:0|0:0,0:0:0:0:
60,124,103515,5,2,0:0:0:0:
44,252,103788,1,0,0:0:0:0:
176,344,104060,1,10,0:0:0:0:
212,156,104333,1,0,0:0:0:0:
196,136,104470,1,0,0:0:0:0:
180,116,104606,2,0,P|189:98|199:81,1,40,2|0,0:0|0:0,0:0:0:0:
292,52,104879,2,0,P|302:69|311:86,1,40,0|0,0:0|0:0,0:0:0:0:
404,116,105151,1,10,0:0:0:0:
464,248,105424,5,2,0:0:0:0:
452,268,105560,1,0,0:0:0:0:
440,288,105697,1,2,0:0:0:0:
328,276,105970,1,0,0:0:0:0:
340,256,106106,2,0,L|360:224,2,20,0|0|10,0:0|0:0|0:0,0:0:0:0:
232,160,106515,5,2,0:0:0:0:
232,160,106651,1,0,0:0:0:0:
232,160,106788,2,0,P|231:140|234:120,1,40,2|0,0:0|0:0,0:0:0:0:
292,44,107060,2,0,P|306:58|318:74,1,40,2|0,0:0|0:0,0:0:0:0:
404,120,107333,1,10,0:0:0:0:
400,144,107470,1,0,0:0:0:0:
396,168,107606,1,2,0:0:0:0:
392,192,107742,1,0,0:0:0:0:
388,216,107879,5,6,0:0:0:0:
256,304,108151,1,0,0:0:0:0:
292,176,108424,1,2,0:0:0:0:
220,92,108697,5,0,0:0:0:0:
208,92,109242,1,2,0:0:0:0:
196,92,109788,1,2,0:0:0:0:
112,168,110060,5,0,0:0:0:0:
172,264,110333,1,0,0:0:0:0:
280,232,110606,1,0,0:0:0:0:
254,342,110879,5,2,0:0:0:0:
420,280,111151,1,2,0:0:0:0:
312,140,111424,1,0,0:0:0:0:
478,202,111696,1,2,0:0:0:0:
448,28,111970,1,0,0:0:0:0:
312,140,112242,5,2,0:0:0:0:
256,308,112515,1,0,0:0:0:0:
184,180,112788,1,2,0:0:0:0:
128,276,113060,5,0,0:0:0:0:
116,276,113606,1,2,0:0:0:0:
104,276,114151,1,2,0:0:0:0:
43,178,114424,5,0,0:0:0:0:
115,92,114697,1,0,0:0:0:0:
219,135,114969,1,0,0:0:0:0:
211,246,115242,1,0,0:0:0:0:
211,246,115788,5,2,0:0:0:0:
372,320,116060,1,0,0:0:0:0:
265,137,116332,1,2,0:0:0:0:
161,318,116605,5,2,0:0:0:0:
100,188,116879,1,0,0:0:0:0:
292,64,117151,1,2,0:0:0:0:
244,200,117425,1,0,0:0:0:0:
168,80,117697,5,2,0:0:0:0:
168,80,117970,1,0,0:0:0:0:
104,208,118242,1,2,0:0:0:0:
180,332,118515,1,0,0:0:0:0:
244,200,118788,5,2,0:0:0:0:
292,63,119060,1,0,0:0:0:0:
436,68,119333,1,2,0:0:0:0:
475,207,119606,1,0,0:0:0:0:
356,287,119879,5,2,0:0:0:0:
292,63,120151,1,0,0:0:0:0:
475,207,120424,1,2,0:0:0:0:
244,200,120697,1,2,0:0:0:0:
436,68,120970,5,2,0:0:0:0:
360,152,121242,1,0,0:0:0:0:
292,63,121515,1,0,0:0:0:0:
356,244,121788,5,2,0:0:0:0:
356,244,122060,1,2,0:0:0:0:
264,312,122333,1,0,0:0:0:0:
208,176,122606,1,2,0:0:0:0:
144,340,122879,1,2,0:0:0:0:
56,268,123151,5,0,0:0:0:0:
184,196,123424,1,2,0:0:0:0:
72,132,123697,1,0,0:0:0:0:
200,60,123970,1,0,0:0:0:0:
200,60,124515,5,2,0:0:0:0:
280,136,124788,2,0,L|272:228,1,80,8|2,0:0|0:0,0:0:0:0:
288,327,125333,6,0,P|323:310|356:287,1,80,6|0,0:0|0:0,0:0:0:0:
468,284,125879,2,0,P|473:244|472:204,1,80,2|0,0:0|0:0,0:0:0:0:
432,100,126424,1,2,0:0:0:0:
352,176,126697,1,0,0:0:0:0:
324,68,126970,1,2,0:0:0:0:
213,65,127243,1,0,0:0:0:0:
240,172,127515,6,0,L|212:256,1,80,2|0,0:0|0:0,0:0:0:0:
136,328,128060,2,0,L|110:252,1,80,2|0,0:0|0:0,0:0:0:0:
16,188,128606,1,2,0:0:0:0:
116,140,128879,1,0,0:0:0:0:
108,28,129151,1,2,0:0:0:0:
208,76,129424,1,0,0:0:0:0:
116,140,129697,6,0,P|111:179|116:219,1,80,2|0,0:0|0:0,0:0:0:0:
100,332,130242,2,0,P|138:336|179:331,1,80,2|0,0:0|0:0,0:0:0:0:
292,348,130788,2,0,L|304:252,1,80,2|0,0:0|0:0,0:0:0:0:
194,136,131333,2,0,L|204:216,1,80,2|0,0:0|0:0,0:0:0:0:
304,160,131879,5,2,0:0:0:0:
383,80,132151,1,0,0:0:0:0:
462,160,132424,1,2,0:0:0:0:
383,239,132697,1,0,0:0:0:0:
304,160,132970,5,2,0:0:0:0:
225,80,133242,1,0,0:0:0:0:
146,160,133515,1,2,0:0:0:0:
225,239,133788,1,0,0:0:0:0:
327,280,134060,6,0,P|367:273|404:257,1,80,2|0,0:0|0:0,0:0:0:0:
460,160,134606,2,0,P|420:153|383:137,1,80,2|0,0:0|0:0,0:0:0:0:
320,48,135151,1,2,0:0:0:0:
256,140,135424,1,0,0:0:0:0:
320,232,135697,1,2,0:0:0:0:
256,324,135970,1,0,0:0:0:0:
148,288,136242,6,0,P|144:248|147:208,1,80,2|0,0:0|0:0,0:0:0:0:
40,168,136788,2,0,P|36:128|39:88,1,80,2|0,0:0|0:0,0:0:0:0:
132,28,137333,1,2,0:0:0:0:
208,112,137606,1,0,0:0:0:0:
152,208,137879,1,2,0:0:0:0:
265,213,138152,1,0,0:0:0:0:
340,132,138424,6,0,L|328:48,1,80,2|0,0:0|0:0,0:0:0:0:
436,80,138970,2,0,L|447:159,1,80,2|0,0:0|0:0,0:0:0:0:
452,272,139515,2,0,P|412:264|372:260,1,80,2|0,0:0|0:0,0:0:0:0:
260,268,140060,1,2,0:0:0:0:
176,344,140333,1,0,0:0:0:0:
84,279,140606,6,0,P|103:245|118:208,1,80,2|0,0:0|0:0,0:0:0:0:
196,164,141015,2,0,P|185:125|169:88,1,80,2|2,0:0|0:0,0:0:0:0:
236,28,141424,1,0,0:0:0:0:
236,28,141560,2,0,L|344:16,1,80,2|2,0:0|0:0,0:0:0:0:
388,72,141970,1,0,0:0:0:0:
388,72,142106,2,0,L|363:103,1,40,2|8,0:0|0:0,0:0:0:0:
424,320,142788,6,0,P|384:316|345:304,1,80,6|0,0:0|0:0,0:0:0:0:
240,344,143333,1,8,0:0:0:0:
156,268,143606,1,0,0:0:0:0:
135,155,143879,2,0,P|174:158|213:170,1,80,2|0,0:0|0:0,0:0:0:0:
320,136,144424,1,8,0:0:0:0:
299,244,144697,1,0,0:0:0:0:
368,332,144970,6,0,L|464:324,2,80,2|0|8,0:0|0:0|0:0,0:0:0:0:
256,352,145788,1,0,0:0:0:0:
152,308,146060,1,2,0:0:0:0:
152,196,146333,1,0,0:0:0:0:
52,252,146606,1,8,0:0:0:0:
52,140,146879,1,0,0:0:0:0:
120,52,147151,6,0,P|159:47|199:52,2,80,2|0|8,0:0|0:0|0:0,0:0:0:0:
156,160,147970,1,0,0:0:0:0:
244,232,148242,2,0,P|248:271|243:311,1,80,2|0,0:0|0:0,0:0:0:0:
140,272,148788,1,8,0:0:0:0:
156,160,149060,1,0,0:0:0:0:
108,60,149333,6,0,L|8:72,2,80,2|0|8,0:0|0:0|0:0,0:0:0:0:
156,160,150151,1,0,0:0:0:0:
44,172,150424,1,2,0:0:0:0:
108,264,150697,1,0,0:0:0:0:
220,252,150970,1,8,0:0:0:0:
176,356,151242,1,0,0:0:0:0:
220,252,151515,6,0,P|256:248|312:252,2,80,2|0|8,0:0|0:0|0:0,0:0:0:0:
256,144,152333,1,0,0:0:0:0:
364,114,152606,1,2,0:0:0:0:
335,5,152879,1,0,0:0:0:0:
227,34,153151,1,8,0:0:0:0:
116,24,153424,1,0,0:0:0:0:
36,100,153697,6,0,P|28:139|30:179,2,80,2|0|8,0:0|0:0|0:0,0:0:0:0:
136,148,154515,1,0,0:0:0:0:
188,248,154788,1,2,0:0:0:0:
116,336,155060,1,0,0:0:0:0:
228,356,155333,1,8,0:0:0:0:
284,188,155606,1,0,0:0:0:0:
124,300,155879,6,0,P|117:260|121:220,2,80,2|0|8,0:0|0:0|0:0,0:0:0:0:
224,252,156697,1,0,0:0:0:0:
228,76,156970,2,0,L|144:68,1,80,2|0,0:0|0:0,0:0:0:0:
328,24,157515,1,8,0:0:0:0:
376,200,157788,1,0,0:0:0:0:
448,72,158060,5,2,0:0:0:0:
436,77,158333,1,0,0:0:0:0:
428,69,158606,1,2,0:0:0:0:
433,57,158879,1,0,0:0:0:0:
445,59,159151,1,2,0:0:0:0:
445,59,159697,5,2,0:0:0:0:
320,248,160242,5,2,0:0:0:0:
296,240,160379,1,0,0:0:0:0:
272,232,160515,1,2,0:0:0:0:
248,224,160651,1,0,0:0:0:0:
200,228,160788,5,2,0:0:0:0:
194,203,160925,1,0,0:0:0:0:
189,178,161061,1,2,0:0:0:0:
184,153,161197,1,0,0:0:0:0:
152,116,161333,5,2,0:0:0:0:
170,98,161470,1,0,0:0:0:0:
189,81,161606,1,2,0:0:0:0:
208,64,161742,1,0,0:0:0:0:
228,48,161879,6,0,L|358:48,1,120,10|0,0:0|0:0,0:0:0:0:
424,108,162424,5,6,0:0:0:0:
348,204,162697,1,0,0:0:0:0:
432,336,162970,1,10,0:0:0:0:
248,272,163242,1,0,0:0:0:0:
248,272,163379,1,0,0:0:0:0:
248,272,163515,2,0,P|226:267|205:260,1,44.0000013427735,2|0,0:0|0:0,0:0:0:0:
72,260,163788,2,0,P|90:247|110:238,1,44.0000013427735,0|0,0:0|0:0,0:0:0:0:
138,330,164060,1,10,0:0:0:0:
88,144,164333,5,2,0:0:0:0:
88,144,164470,1,0,0:0:0:0:
88,144,164606,2,0,L|116:48,1,88.000002685547,2|0,0:0|0:0,0:0:0:0:
204,96,165015,1,0,0:0:0:0:
204,96,165151,2,0,L|228:180,1,88.000002685547,10|2,0:0|0:0,0:0:0:0:
120,268,165560,1,0,0:0:0:0:
120,268,165697,6,0,P|134:251|149:235,1,44.0000013427735,2|0,0:0|0:0,0:0:0:0:
208,316,165970,2,0,P|209:337|209:359,1,44.0000013427735,2|0,0:0|0:0,0:0:0:0:
44,200,166242,2,0,P|58:183|73:167,1,44.0000013427735,10|0,0:0|0:0,0:0:0:0:
288,204,166515,2,0,P|289:225|289:247,1,44.0000013427735,2|0,0:0|0:0,0:0:0:0:
340,120,166788,5,2,0:0:0:0:
460,92,167060,1,0,0:0:0:0:
484,252,167333,1,10,0:0:0:0:
316,352,167606,1,0,0:0:0:0:
316,352,167742,1,0,0:0:0:0:
316,352,167879,2,0,L|364:344,1,44.0000013427735,2|0,0:0|0:0,0:0:0:0:
376,248,168151,2,0,L|332:240,1,44.0000013427735,0|0,0:0|0:0,0:0:0:0:
308,144,168424,1,10,0:0:0:0:
188,296,168696,5,2,0:0:0:0:
168,280,168833,1,0,0:0:0:0:
148,264,168970,2,0,P|160:221|181:183,1,88.000002685547,2|0,0:0|0:0,0:0:0:0:
272,148,169379,1,0,0:0:0:0:
272,148,169515,2,0,P|259:105|238:67,1,88.000002685547,10|2,0:0|0:0,0:0:0:0:
152,24,169924,1,0,0:0:0:0:
152,24,170060,6,0,L|92:32,1,44.0000013427735,2|0,0:0|0:0,0:0:0:0:
56,133,170333,2,0,L|100:128,1,44.0000013427735,2|0,0:0|0:0,0:0:0:0:
172,216,170606,2,0,L|112:224,1,44.0000013427735,10|0,0:0|0:0,0:0:0:0:
76,325,170879,2,0,L|119:319,1,44.0000013427735,2|0,0:0|0:0,0:0:0:0:
212,352,171151,5,2,0:0:0:0:
304,268,171424,1,0,0:0:0:0:
200,104,171697,1,10,0:0:0:0:
119,318,171970,1,0,0:0:0:0:
119,318,172106,1,0,0:0:0:0:
119,318,172242,2,0,L|113:275,1,44.0000013427735,2|0,0:0|0:0,0:0:0:0:
14,201,172515,2,0,L|20:244,1,44.0000013427735,0|0,0:0|0:0,0:0:0:0:
72,120,172788,1,10,0:0:0:0:
208,260,173060,5,2,0:0:0:0:
220,236,173197,1,0,0:0:0:0:
232,212,173333,2,0,L|200:113,1,88.000002685547,2|0,0:0|0:0,0:0:0:0:
132,52,173742,1,0,0:0:0:0:
132,52,173879,2,0,L|230:20,1,88.000002685547,10|2,0:0|0:0,0:0:0:0:
304,68,174288,1,0,0:0:0:0:
304,68,174424,6,0,P|297:89|293:110,1,44.0000013427735,2|0,0:0|0:0,0:0:0:0:
394,190,174697,2,0,P|390:169|384:148,1,44.0000013427735,2|0,0:0|0:0,0:0:0:0:
304,228,174970,2,0,P|297:249|293:270,1,44.0000013427735,10|0,0:0|0:0,0:0:0:0:
394,350,175243,2,0,P|389:328|383:307,1,44.0000013427735,2|0,0:0|0:0,0:0:0:0:
208,316,175515,5,2,0:0:0:0:
76,264,175788,1,0,0:0:0:0:
228,176,176060,1,10,0:0:0:0:
24,120,176333,1,0,0:0:0:0:
44,104,176470,1,0,0:0:0:0:
64,88,176606,2,0,P|85:84|107:83,1,44.0000013427735,2|0,0:0|0:0,0:0:0:0:
184,24,176879,2,0,P|201:36|218:51,1,44.0000013427735,0|0,0:0|0:0,0:0:0:0:
188,144,177151,1,10,0:0:0:0:
88,312,177424,5,2,0:0:0:0:
108,296,177561,1,0,0:0:0:0:
128,280,177697,1,2,0:0:0:0:
248,304,177970,1,0,0:0:0:0:
248,332,178106,2,0,L|248:360,2,22.0000006713867,0|0|10,0:0|0:0|0:0,0:0:0:0:
348,208,178515,5,2,0:0:0:0:
328,192,178652,1,0,0:0:0:0:
308,176,178788,1,2,0:0:0:0:
188,196,179060,1,2,0:0:0:0:
188,224,179196,2,0,L|188:252,2,22.0000006713867,0|0|10,0:0|0:0|0:0,0:0:0:0:
16,136,179606,1,2,0:0:0:0:
16,136,179742,1,0,0:0:0:0:
16,136,179879,5,6,0:0:0:0:
80,32,180151,1,0,0:0:0:0:
120,184,180424,1,10,0:0:0:0:
272,64,180697,1,0,0:0:0:0:
248,76,180833,1,0,0:0:0:0:
224,88,180970,2,0,P|220:109|219:131,1,44.0000013427735,2|0,0:0|0:0,0:0:0:0:
279,247,181242,2,0,P|283:225|284:204,1,44.0000013427735,0|0,0:0|0:0,0:0:0:0:
360,144,181515,1,10,0:0:0:0:
176,212,181788,5,2,0:0:0:0:
152,200,181924,1,0,0:0:0:0:
128,188,182060,2,0,P|123:144|132:101,1,88.000002685547,2|0,0:0|0:0,0:0:0:0:
200,28,182470,1,0,0:0:0:0:
200,28,182606,2,0,P|233:56|258:92,1,88.000002685547,10|2,0:0|0:0,0:0:0:0:
240,188,183015,1,0,0:0:0:0:
240,188,183151,6,0,L|296:184,1,44.0000013427735,2|0,0:0|0:0,0:0:0:0:
460,120,183424,2,0,L|404:124,1,44.0000013427735,2|0,0:0|0:0,0:0:0:0:
340,264,183697,2,0,P|356:248|376:216,1,44.0000013427735,10|0,0:0|0:0,0:0:0:0:
360,44,183970,2,0,P|344:60|324:92,1,44.0000013427735,2|0,0:0|0:0,0:0:0:0:
456,212,184242,5,2,0:0:0:0:
412,328,184515,1,0,0:0:0:0:
256,308,184788,1,10,0:0:0:0:
208,120,185060,1,0,0:0:0:0:
208,120,185197,1,0,0:0:0:0:
208,120,185333,2,0,L|252:116,1,44.0000013427735,2|0,0:0|0:0,0:0:0:0:
124,72,185606,2,0,L|95:105,1,44.0000013427735,0|0,0:0|0:0,0:0:0:0:
140,192,185879,1,10,0:0:0:0:
328,232,186151,5,2,0:0:0:0:
352,220,186288,1,0,0:0:0:0:
376,208,186424,2,0,P|371:164|376:120,1,88.000002685547,2|0,0:0|0:0,0:0:0:0:
280,36,186833,1,0,0:0:0:0:
280,36,186970,2,0,P|284:79|279:123,1,88.000002685547,10|2,0:0|0:0,0:0:0:0:
196,224,187379,1,0,0:0:0:0:
196,224,187515,6,0,P|196:202|199:180,1,44.0000013427735,2|0,0:0|0:0,0:0:0:0:
116,132,187788,2,0,P|101:115|87:98,1,44.0000013427735,2|0,0:0|0:0,0:0:0:0:
175,8,188060,2,0,P|174:30|172:52,1,44.0000013427735,10|0,0:0|0:0,0:0:0:0:
256,100,188333,2,0,P|272:85|289:71,1,44.0000013427735,2|0,0:0|0:0,0:0:0:0:
336,160,188606,5,2,0:0:0:0:
255,255,188879,1,0,0:0:0:0:
448,280,189151,1,10,0:0:0:0:
227,339,189424,1,0,0:0:0:0:
243,319,189560,1,0,0:0:0:0:
259,299,189697,2,0,L|255:255,1,44.0000013427735,2|0,0:0|0:0,0:0:0:0:
172,164,189970,2,0,L|168:208,1,44.0000013427735
344,220,190242,1,10,0:0:0:0:
344,28,190515,5,2,0:0:0:0:
320,36,190651,1,0,0:0:0:0:
296,44,190788,2,0,L|188:32,1,88.000002685547,2|0,0:0|0:0,0:0:0:0:
128,140,191197,1,0,0:0:0:0:
128,140,191333,2,0,L|215:130,1,88.000002685547,10|2,0:0|0:0,0:0:0:0:
32,144,191742,1,0,0:0:0:0:
32,144,191879,6,0,P|35:122|41:101,1,44.0000013427735,2|0,0:0|0:0,0:0:0:0:
124,228,192151,2,0,P|136:245|147:265,1,44.0000013427735,2|0,0:0|0:0,0:0:0:0:
215,129,192424,2,0,P|232:116|252:105,1,44.0000013427735,10|0,0:0|0:0,0:0:0:0:
376,208,192697,2,0,P|354:205|333:198,1,44.0000013427735,2|0,0:0|0:0,0:0:0:0:
356,96,192970,5,2,0:0:0:0:
476,24,193242,1,0,0:0:0:0:
484,200,193515,1,10,0:0:0:0:
280,140,193788,1,0,0:0:0:0:
256,130,193924,1,0,0:0:0:0:
232,122,194060,2,0,L|240:66,1,44.0000013427735,2|0,0:0|0:0,0:0:0:0:
146,38,194333,2,0,L|140:82,1,44.0000013427735
48,112,194606,1,10,0:0:0:0:
60,308,194879,5,2,0:0:0:0:
84,296,195015,1,0,0:0:0:0:
108,284,195151,1,2,0:0:0:0:
180,184,195424,1,0,0:0:0:0:
154,175,195560,2,0,L|120:163,2,22.0000006713867,0|0|10,0:0|0:0|0:0,0:0:0:0:
284,320,195970,5,2,0:0:0:0:
260,332,196106,1,0,0:0:0:0:
236,344,196242,2,0,P|228:323|224:301,1,44.0000013427735,2|0,0:0|0:0,0:0:0:0:
292,232,196515,2,0,P|301:212|314:194,1,44.0000013427735,2|0,0:0|0:0,0:0:0:0:
466,124,196788,2,0,P|445:132|424:136,1,44.0000013427735,10|0,0:0|0:0,0:0:0:0:
224,64,197060,2,0,P|243:73|261:86,1,44.0000013427735,2|0,0:0|0:0,0:0:0:0:
400,272,197333,5,6,0:0:0:0:
256,192,197470,12,2,201697,0:0:0:0:
168,252,201970,5,0,0:0:0:0:
256,320,202242,1,2,0:0:0:0:
244,176,202515,1,0,0:0:0:0:
72,216,202788,1,2,0:0:0:0:
140,128,203060,1,0,0:0:0:0:
72,40,203333,1,0,0:0:0:0:
236,104,203606,5,2,0:0:0:0:
236,104,203742,1,0,0:0:0:0:
236,104,203879,2,0,P|275:100|314:89,1,80,2|0,0:0|0:0,0:0:0:0:
420,120,204424,2,0,P|394:150|375:185,1,80,0|2,0:0|0:0,0:0:0:0:
368,208,204833,1,0,0:0:0:0:
364,232,204970,2,0,B|264:220,1,80,2|2,0:0|0:0,0:0:0:0:
228,102,205515,2,0,B|308:112,1,80,2|0,0:0|0:0,0:0:0:0:
128,156,206060,5,2,0:0:0:0:
132,44,206333,1,0,0:0:0:0:
16,136,206606,1,2,0:0:0:0:
92,296,206879,1,0,0:0:0:0:
224,136,207151,1,2,0:0:0:0:
304,216,207424,1,0,0:0:0:0:
400,156,207697,1,0,0:0:0:0:
356,328,207970,5,2,0:0:0:0:
356,328,208106,1,0,0:0:0:0:
356,328,208242,2,0,L|260:316,1,80,2|0,0:0|0:0,0:0:0:0:
136,233,208788,2,0,L|216:224,1,80,0|2,0:0|0:0,0:0:0:0:
236,208,209197,1,0,0:0:0:0:
252,188,209333,2,0,P|248:148|234:110,1,80,2|0,0:0|0:0,0:0:0:0:
140,52,209879,1,2,0:0:0:0:
40,196,210151,1,0,0:0:0:0:
204,124,210424,6,0,P|244:116|296:116,1,80,2|0,0:0|0:0,0:0:0:0:
256,224,210970,1,2,0:0:0:0:
108,128,211242,1,0,0:0:0:0:
283,114,211515,2,0,P|288:80|280:20,2,80,2|0|0,0:0|0:0|0:0,0:0:0:0:
320,268,212333,5,2,0:0:0:0:
320,268,212470,1,0,0:0:0:0:
320,268,212606,2,0,P|280:272|240:267,1,80,2|0,0:0|0:0,0:0:0:0:
136,308,213151,2,0,P|131:268|136:228,1,80,0|2,0:0|0:0,0:0:0:0:
146,206,213560,1,0,0:0:0:0:
160,186,213697,1,2,0:0:0:0:
242,110,213969,1,2,0:0:0:0:
338,166,214242,1,2,0:0:0:0:
315,275,214515,1,0,0:0:0:0:
204,286,214787,5,2,0:0:0:0:
