osu file format v14

[General]
AudioFilename: Ken Arai - NEXT TO YOU.mp3
AudioLeadIn: 0
PreviewTime: 72833
Countdown: 0
SampleSet: Soft
StackLeniency: 0.7
Mode: 0
LetterboxInBreaks: 0
WidescreenStoryboard: 0

[Editor]
Bookmarks: 1788,53333,68606,125333,142788,214788
DistanceSpacing: 1.4
BeatDivisor: 4
GridSize: 4
TimelineZoom: 1.1

[Metadata]
Title:NEXT TO YOU
TitleUnicode:NEXT TO YOU
Artist:Ken Arai
ArtistUnicode:Ken Arai
Creator:Rakuen
Version:Hard
Source:寄生獣 セイの格率
Tags:Kiseijuu Sei no Kakuritsu Parasyte the maxim オリジナル・サウンドトラック OST Original Soundtrack ケン アライ Xinely piano
BeatmapID:769316
BeatmapSetID:348526

[Difficulty]
HPDrainRate:5
CircleSize:4
OverallDifficulty:5
ApproachRate:6
SliderMultiplier:1.4
SliderTickRate:1

[Events]
//Background and Video events
0,0,"kiseijuu wallpaper.jpg",0,0
//Break Periods
//Storyboard Layer 0 (Background)
//Storyboard Layer 1 (Fail)
//Storyboard Layer 2 (Pass)
//Storyboard Layer 3 (Foreground)
//Storyboard Sound Samples

[TimingPoints]
970,545.454545454546,4,2,1,40,1,0
17879,-100,4,2,1,50,0,0
18424,-100,4,2,1,60,0,1
35879,-100,4,2,1,40,0,0
72424,-100,4,2,1,50,0,0
72970,-100,4,2,1,60,0,1
89879,-100,4,2,1,60,0,0
90424,-100,4,2,1,60,0,1
107879,-100,4,2,1,40,0,0
161879,-100,4,2,1,50,0,0
162424,-100,4,2,1,60,0,1
179333,-100,4,2,1,60,0,0
179879,-100,4,2,1,60,0,1
197333,-100,4,2,1,60,0,0
197606,-100,4,2,1,40,0,0

[Colours]
Combo1 : 128,0,255
Combo2 : 255,100,26
Combo3 : 255,0,128
Combo4 : 255,0,0

[HitObjects]
96,264,970,6,0,P|130:267|165:265,1,70,2|0,0:0|0:0,0:0:0:0:
236,336,1515,2,0,P|263:314|286:288,1,70,2|0,0:0|0:0,0:0:0:0:
304,192,2060,2,0,P|232:184|152:152,1,140,2|0,0:0|0:0,0:0:0:0:
72,148,2879,6,0,L|80:200,2,35,2|0|2,0:0|0:0|0:0,0:0:0:0:
20,64,3424,2,0,P|68:52|104:52,1,70
184,76,3970,2,0,L|236:68,2,35,2|0|2,0:0|0:0|0:0,0:0:0:0:
152,168,4515,1,2,0:0:0:0:
188,260,4788,2,0,L|276:248,1,70,0|2,0:0|0:0,0:0:0:0:
320,176,5333,6,0,P|311:142|307:107,1,70,2|0,0:0|0:0,0:0:0:0:
400,80,5879,2,0,P|416:50|438:22,1,70,2|0,0:0|0:0,0:0:0:0:
496,104,6424,2,0,L|468:264,1,140,2|0,0:0|0:0,0:0:0:0:
392,300,7242,6,0,L|400:352,2,35,2|0|2,0:0|0:0|0:0,0:0:0:0:
328,228,7788,2,0,P|293:231|259:239,1,70
172,200,8333,2,0,L|164:148,2,35,2|0|2,0:0|0:0|0:0,0:0:0:0:
112,280,8879,1,2,0:0:0:0:
19,248,9151,2,0,P|29:214|44:182,1,70,2|0,0:0|0:0,0:0:0:0:
44,84,9697,6,0,L|136:96,1,70,2|0,0:0|0:0,0:0:0:0:
160,180,10242,2,0,L|229:170,1,70,2|0,0:0|0:0,0:0:0:0:
312,224,10788,2,0,P|324:152|268:80,1,140,2|0,0:0|0:0,0:0:0:0:
212,40,11606,6,0,P|194:41|177:44,2,35,2|0|2,0:0|0:0|0:0,0:0:0:0:
292,96,12151,2,0,L|384:100,1,70
420,180,12697,2,0,P|437:178|454:175,2,35,2|0|2,0:0|0:0|0:0,0:0:0:0:
376,268,13242,1,0,0:0:0:0:
280,252,13515,2,0,L|292:172,1,70,2|0,0:0|0:0,0:0:0:0:
220,112,14060,6,0,P|151:99|82:112,1,140,2|2,0:0|0:0,0:0:0:0:
24,192,14879,1,0,0:0:0:0:
82,271,15151,2,0,P|151:284|220:271,1,140,2|0,0:0|0:0,0:0:0:0:
316,248,15970,6,0,L|320:312,2,35,2|0|2,0:0|0:0|0:0,0:0:0:0:
396,192,16515,2,0,P|430:184|465:183,1,70
496,92,17060,2,0,L|491:28,2,35,2|0|2,0:0|0:0|0:0,0:0:0:0:
400,68,17606,1,2,0:0:0:0:
312,108,17879,2,0,P|282:89|257:65,1,70,10|0,0:0|0:0,0:0:0:0:
164,40,18424,6,0,L|151:108,1,70,6|0,0:0|0:0,0:0:0:0:
60,148,18970,2,0,L|72:216,1,70,10|0,0:0|0:0,0:0:0:0:
144,280,19515,1,2,0:0:0:0:
224,220,19788,1,0,0:0:0:0:
224,220,19924,1,0,0:0:0:0:
224,220,20060,2,0,P|258:215|293:218,1,70,10|0,0:0|0:0,0:0:0:0:
314,231,20470,1,0,0:0:0:0:
331,247,20606,6,0,P|399:259|475:243,1,140,2|10,0:0|0:0,0:0:0:0:
460,148,21424,1,0,0:0:0:0:
460,148,21560,1,0,0:0:0:0:
460,148,21697,2,0,L|444:68,1,70,2|0,0:0|0:0,0:0:0:0:
360,28,22242,2,0,L|346:96,1,70,10|0,0:0|0:0,0:0:0:0:
260,144,22788,6,0,P|225:140|190:143,1,70,2|0,0:0|0:0,0:0:0:0:
124,72,23333,2,0,P|96:93|74:120,1,70,10|0,0:0|0:0,0:0:0:0:
116,208,23879,1,2,0:0:0:0:
88,300,24151,1,0,0:0:0:0:
88,300,24288,1,0,0:0:0:0:
88,300,24424,2,0,L|176:292,1,70,10|0,0:0|0:0,0:0:0:0:
182,291,24833,1,0,0:0:0:0:
206,289,24970,6,0,P|190:221|210:149,1,140,2|10,0:0|0:0,0:0:0:0:
256,68,25788,1,0,0:0:0:0:
256,68,25924,1,0,0:0:0:0:
256,68,26060,2,0,L|344:76,1,70,2|0,0:0|0:0,0:0:0:0:
368,164,26606,2,0,L|436:152,1,70,10|0,0:0|0:0,0:0:0:0:
496,228,27151,5,2,0:0:0:0:
448,316,27424,1,0,0:0:0:0:
360,268,27697,1,10,0:0:0:0:
263,296,27970,1,0,0:0:0:0:
168,320,28242,2,0,P|167:285|175:251,1,70,2|0,0:0|0:0,0:0:0:0:
184,228,28651,1,0,0:0:0:0:
197,207,28788,1,10,0:0:0:0:
236,120,29060,1,0,0:0:0:0:
236,120,29197,1,0,0:0:0:0:
236,120,29333,6,0,L|76:124,1,140,2|10,0:0|0:0,0:0:0:0:
32,200,30151,1,0,0:0:0:0:
32,200,30288,1,0,0:0:0:0:
32,200,30424,2,0,P|31:235|37:270,1,70,2|0,0:0|0:0,0:0:0:0:
137,361,30970,2,0,P|138:326|132:292,1,70,10|0,0:0|0:0,0:0:0:0:
172,204,31515,6,0,L|311:207,1,140,2|10,0:0|0:0,0:0:0:0:
384,276,32333,1,0,0:0:0:0:
476,240,32606,2,0,P|480:205|476:170,1,70,2|0,0:0|0:0,0:0:0:0:
468,147,33015,1,0,0:0:0:0:
455,125,33151,1,10,0:0:0:0:
376,68,33424,1,0,0:0:0:0:
355,81,33560,1,0,0:0:0:0:
332,92,33697,6,0,P|272:104|180:88,2,140,2|0|2,0:0|0:0|0:0,0:0:0:0:
408,156,35060,1,0,0:0:0:0:
332,220,35333,1,10,0:0:0:0:
408,284,35606,1,0,0:0:0:0:
332,220,35879,6,0,L|184:220,1,140,6|8,0:0|0:0,0:0:0:0:
128,144,36697,1,0,0:0:0:0:
164,52,36970,2,0,L|304:52,1,140,2|8,0:0|0:0,0:0:0:0:
364,128,37788,1,0,0:0:0:0:
332,220,38060,6,0,P|396:220|456:160,2,140,2|8|2,0:0|0:0|0:0,0:0:0:0:
256,156,39424,1,0,0:0:0:0:
172,208,39697,2,0,P|164:242|166:277,1,70,8|0,0:0|0:0,0:0:0:0:
228,352,40242,6,0,L|372:340,1,140,2|8,0:0|0:0,0:0:0:0:
436,268,41060,1,0,0:0:0:0:
480,180,41333,2,0,L|340:168,1,140,2|8,0:0|0:0,0:0:0:0:
256,120,42151,1,0,0:0:0:0:
171,168,42424,6,0,L|32:180,2,140,2|8|2,0:0|0:0|0:0,0:0:0:0:
240,240,43788,1,0,0:0:0:0:
312,308,44060,2,0,P|346:313|381:308,1,70,8|0,0:0|0:0,0:0:0:0:
468,259,44606,6,0,P|475:190|460:122,1,140,2|8,0:0|0:0,0:0:0:0:
388,60,45424,1,0,0:0:0:0:
296,92,45697,2,0,P|288:161|303:229,1,140,2|8,0:0|0:0,0:0:0:0:
224,288,46515,1,0,0:0:0:0:
156,216,46788,6,0,P|86:208|18:223,2,140,2|8|2,0:0|0:0|0:0,0:0:0:0:
200,128,48151,1,0,0:0:0:0:
236,36,48424,2,0,L|305:32,1,70,8|0,0:0|0:0,0:0:0:0:
340,124,48970,6,0,L|480:132,1,140,2|8,0:0|0:0,0:0:0:0:
500,228,49788,1,0,0:0:0:0:
452,312,50060,2,0,L|312:304,1,140,2|8,0:0|0:0,0:0:0:0:
292,208,50879,1,0,0:0:0:0:
339,124,51151,6,0,P|401:91|468:68,2,140,2|8|2,0:0|0:0|0:0,0:0:0:0:
256,72,52515,1,0,0:0:0:0:
172,124,52788,2,0,P|141:106|109:91,1,70,8|0,0:0|0:0,0:0:0:0:
28,144,53333,6,0,L|44:300,1,140,6|8,0:0|0:0,0:0:0:0:
128,332,54151,1,0,0:0:0:0:
196,260,54424,2,0,L|335:245,1,140,2|8,0:0|0:0,0:0:0:0:
400,320,55242,1,0,0:0:0:0:
484,268,55515,6,0,P|458:203|468:134,1,140,2|8,0:0|0:0,0:0:0:0:
408,56,56333,1,0,0:0:0:0:
316,24,56606,2,0,P|281:19|246:24,1,70,2|0,0:0|0:0,0:0:0:0:
188,104,57151,2,0,P|153:108|118:104,1,70,8|0,0:0|0:0,0:0:0:0:
84,196,57697,6,0,B|132:212|132:212|220:197,1,140,2|8,0:0|0:0,0:0:0:0:
288,128,58515,1,0,0:0:0:0:
380,164,58788,2,0,B|394:252|394:252|378:300,1,140,2|8,0:0|0:0,0:0:0:0:
288,340,59606,1,0,0:0:0:0:
208,284,59879,6,0,P|139:271|70:283,1,140,2|8,0:0|0:0,0:0:0:0:
32,192,60697,1,0,0:0:0:0:
76,104,60970,2,0,L|145:110,1,70,2|0,0:0|0:0,0:0:0:0:
204,192,61515,2,0,L|273:180,1,70,8|0,0:0|0:0,0:0:0:0:
368,212,62060,6,0,P|361:281|333:345,1,140,2|8,0:0|0:0,0:0:0:0:
236,348,62879,1,0,0:0:0:0:
156,292,63151,2,0,L|64:296,1,70,2|0,0:0|0:0,0:0:0:0:
60,200,63697,2,0,L|129:196,1,70,8|0,0:0|0:0,0:0:0:0:
224,172,64242,6,0,P|217:102|189:38,1,140,2|8,0:0|0:0,0:0:0:0:
92,28,65060,1,0,0:0:0:0:
59,119,65333,2,0,P|94:123|129:117,1,70,2|0,0:0|0:0,0:0:0:0:
189,38,65879,2,0,P|223:32|258:35,1,70,8|0,0:0|0:0,0:0:0:0:
228,128,66424,6,0,L|208:280,1,140,2|8,0:0|0:0,0:0:0:0:
276,340,67242,1,0,0:0:0:0:
360,287,67515,2,0,P|394:284|429:287,1,70,2|0,0:0|0:0,0:0:0:0:
456,192,68060,2,0,P|421:195|386:192,1,70,8|0,0:0|0:0,0:0:0:0:
420,100,68606,5,2,0:0:0:0:
228,140,69151,1,0,0:0:0:0:
360,287,69697,1,2,0:0:0:0:
420,100,70242,1,0,0:0:0:0:
256,192,70788,12,8,72424,0:0:0:0:
112,236,72970,6,0,P|145:225|179:220,1,70,6|0,0:0|0:0,0:0:0:0:
212,312,73515,2,0,P|243:328|271:349,1,70,10|0,0:0|0:0,0:0:0:0:
356,304,74060,1,2,0:0:0:0:
316,212,74333,1,0,0:0:0:0:
316,212,74470,1,0,0:0:0:0:
316,212,74606,2,0,L|336:116,1,70,10|0,0:0|0:0,0:0:0:0:
324,119,75015,1,0,0:0:0:0:
311,98,75151,6,0,P|244:83|175:95,1,140,2|10,0:0|0:0,0:0:0:0:
100,160,75970,1,0,0:0:0:0:
100,160,76106,1,0,0:0:0:0:
100,160,76242,2,0,B|88:208|88:208|95:227,1,70,2|0,0:0|0:0,0:0:0:0:
255,200,76788,2,0,B|207:188|207:188|188:196,1,70,10|0,0:0|0:0,0:0:0:0:
220,287,77333,6,0,P|215:322|219:357,1,70,2|0,0:0|0:0,0:0:0:0:
312,324,77879,2,0,P|334:297|361:275,1,70,10|0,0:0|0:0,0:0:0:0:
404,364,78424,1,2,0:0:0:0:
480,300,78697,1,0,0:0:0:0:
480,300,78833,1,0,0:0:0:0:
480,300,78970,2,0,L|464:208,1,70,10|0,0:0|0:0,0:0:0:0:
444,224,79379,1,0,0:0:0:0:
421,215,79515,6,0,L|393:67,1,140,2|10,0:0|0:0,0:0:0:0:
300,56,80333,1,0,0:0:0:0:
300,56,80470,1,0,0:0:0:0:
300,56,80606,2,0,P|265:60|230:57,1,70,2|0,0:0|0:0,0:0:0:0:
122,149,81151,2,0,P|157:152|192:148,1,70,10|0,0:0|0:0,0:0:0:0:
268,208,81697,5,2,0:0:0:0:
223,294,81970,1,0,0:0:0:0:
292,364,82242,1,10,0:0:0:0:
380,319,82515,1,0,0:0:0:0:
364,222,82788,2,0,P|404:216|448:224,1,70,2|0,0:0|0:0,0:0:0:0:
433,219,83197,1,0,0:0:0:0:
433,219,83333,1,10,0:0:0:0:
480,132,83606,1,0,0:0:0:0:
460,116,83742,1,0,0:0:0:0:
440,100,83879,6,0,L|296:100,1,140,2|10,0:0|0:0,0:0:0:0:
228,168,84697,1,0,0:0:0:0:
228,168,84833,1,0,0:0:0:0:
228,168,84970,2,0,P|193:169|158:166,1,70,2|0,0:0|0:0,0:0:0:0:
24,159,85515,2,0,P|48:133|76:111,1,70,10|0,0:0|0:0,0:0:0:0:
104,20,86060,6,0,L|252:40,1,140,2|10,0:0|0:0,0:0:0:0:
304,116,86879,1,0,0:0:0:0:
285,212,87151,2,0,L|215:220,1,70,2|0,0:0|0:0,0:0:0:0:
215,220,87560,1,0,0:0:0:0:
215,220,87697,1,10,0:0:0:0:
144,288,87970,1,0,0:0:0:0:
144,288,88106,1,0,0:0:0:0:
144,288,88242,6,0,L|60:276,2,70,2|0|10,0:0|0:0|0:0,0:0:0:0:
216,221,89060,1,0,0:0:0:0:
216,221,89197,1,0,0:0:0:0:
216,221,89333,2,0,P|220:186|216:151,1,70,2|0,0:0|0:0,0:0:0:0:
176,64,89879,2,0,P|210:67|245:63,1,70,10|0,0:0|0:0,0:0:0:0:
340,44,90424,6,0,L|336:124,1,70,6|0,0:0|0:0,0:0:0:0:
252,164,90970,2,0,L|268:242,1,70,10|0,0:0|0:0,0:0:0:0:
352,284,91515,1,2,0:0:0:0:
420,216,91788,1,0,0:0:0:0:
436,196,91924,1,0,0:0:0:0:
452,176,92060,2,0,P|448:132|456:96,1,70,10|0,0:0|0:0,0:0:0:0:
462,84,92470,1,0,0:0:0:0:
474,63,92606,6,0,P|406:46|338:59,1,140,2|10,0:0|0:0,0:0:0:0:
256,112,93424,1,0,0:0:0:0:
256,112,93560,1,0,0:0:0:0:
256,112,93697,2,0,L|168:100,1,70,2|0,0:0|0:0,0:0:0:0:
58,193,94242,2,0,L|128:184,1,70,10|0,0:0|0:0,0:0:0:0:
180,268,94788,6,0,P|176:302|179:337,1,70,2|0,0:0|0:0,0:0:0:0:
272,304,95333,2,0,P|275:269|272:234,1,70,10|0,0:0|0:0,0:0:0:0:
196,172,95879,1,2,0:0:0:0:
160,80,96151,1,0,0:0:0:0:
160,80,96288,1,0,0:0:0:0:
160,80,96424,2,0,P|194:76|229:80,1,70,10|0,0:0|0:0,0:0:0:0:
251,91,96833,1,0,0:0:0:0:
271,105,96970,6,0,B|311:121|375:105|375:105|353:131,1,140,2|10,0:0|0:0,0:0:0:0:
344,228,97788,1,0,0:0:0:0:
344,228,97924,1,0,0:0:0:0:
344,228,98060,2,0,L|416:224,1,70,2|0,0:0|0:0,0:0:0:0:
440,320,98606,2,0,L|370:323,1,70,10|0,0:0|0:0,0:0:0:0:
272,304,99151,5,2,0:0:0:0:
244,212,99424,1,0,0:0:0:0:
148,188,99697,1,10,0:0:0:0:
176,280,99970,1,0,0:0:0:0:
104,343,100242,2,0,P|69:348|35:342,1,70,2|0,0:0|0:0,0:0:0:0:
17,324,100651,1,0,0:0:0:0:
4,302,100788,1,10,0:0:0:0:
80,240,101060,1,0,0:0:0:0:
91,218,101197,1,0,0:0:0:0:
101,195,101333,6,0,B|149:179|149:179|245:199,1,140,2|10,0:0|0:0,0:0:0:0:
300,272,102151,1,0,0:0:0:0:
289,294,102288,1,0,0:0:0:0:
278,316,102424,2,0,L|362:312,1,70,2|0,0:0|0:0,0:0:0:0:
453,216,102970,2,0,L|384:220,1,70,10|0,0:0|0:0,0:0:0:0:
296,176,103515,6,0,P|288:106|304:39,1,140,2|10,0:0|0:0,0:0:0:0:
212,12,104333,1,0,0:0:0:0:
156,92,104606,2,0,L|86:88,1,70,2|0,0:0|0:0,0:0:0:0:
67,104,105015,1,0,0:0:0:0:
49,120,105151,1,10,0:0:0:0:
112,204,105424,1,0,0:0:0:0:
112,228,105560,1,0,0:0:0:0:
112,252,105697,6,0,P|181:265|250:254,1,140,2|10,0:0|0:0,0:0:0:0:
304,172,106515,1,0,0:0:0:0:
304,172,106651,1,0,0:0:0:0:
304,172,106788,2,0,P|299:137|303:102,1,70,2|0,0:0|0:0,0:0:0:0:
396,136,107333,2,0,P|401:171|397:206,1,70,10|0,0:0|0:0,0:0:0:0:
320,268,107879,6,0,L|232:264,2,70,6|0|2,0:0|0:0|0:0,0:0:0:0:
300,172,108697,2,0,L|144:164,2,140,0|2|2,0:0|0:0|0:0,0:0:0:0:
344,84,110060,6,0,P|377:73|412:70,2,70
396,168,110879,2,0,P|406:201|409:236,1,70,2|2,0:0|0:0,0:0:0:0:
312,220,111424,2,0,L|244:208,1,70,0|2,0:0|0:0,0:0:0:0:
144,192,111970,1,0,0:0:0:0:
80,264,112242,6,0,P|45:268|10:262,2,70,2|0|2,0:0|0:0|0:0,0:0:0:0:
48,172,113060,2,0,P|31:104|46:36,2,140,0|2|2,0:0|0:0|0:0,0:0:0:0:
144,192,114424,6,0,L|224:188,1,70
244,96,114970,2,0,L|174:99,1,70
172,296,115788,2,0,P|201:314|228:336,2,70,2|0|2,0:0|0:0|0:0,0:0:0:0:
84,252,116606,6,0,L|96:172,1,70,2|0,0:0|0:0,0:0:0:0:
8,140,117151,2,0,L|18:70,1,70,2|0,0:0|0:0,0:0:0:0:
108,36,117697,1,2,0:0:0:0:
172,112,117970,1,0,0:0:0:0:
236,188,118242,2,0,P|270:184|304:175,1,70,2|0,0:0|0:0,0:0:0:0:
392,224,118788,6,0,L|381:293,2,70,2|0|2,0:0|0:0|0:0,0:0:0:0:
468,164,119606,1,0,0:0:0:0:
448,68,119879,2,0,P|418:49|391:27,1,70,2|0,0:0|0:0,0:0:0:0:
292,24,120424,2,0,P|300:58|303:92,1,70,2|2,0:0|0:0,0:0:0:0:
240,168,120970,6,0,L|72:152,1,140,2|0,0:0|0:0,0:0:0:0:
44,236,121788,1,2,0:0:0:0:
99,316,122060,2,0,P|122:289|138:258,1,70,2|0,0:0|0:0,0:0:0:0:
232,280,122606,1,2,0:0:0:0:
276,192,122879,1,2,0:0:0:0:
208,120,123151,6,0,P|173:115|138:119,2,70,0|2|0,0:0|0:0|0:0,0:0:0:0:
256,32,123970,2,0,L|408:32,1,140,0|2,0:0|0:0,0:0:0:0:
480,84,124788,2,0,P|484:118|481:153,1,70,8|2,0:0|0:0,0:0:0:0:
460,248,125333,6,0,P|405:291|361:345,2,140,6|2|2,0:0|0:0|0:0,0:0:0:0:
399,169,126697,1,0,0:0:0:0:
308,204,126970,2,0,P|303:169|308:134,1,70,2|0,0:0|0:0,0:0:0:0:
328,40,127515,6,0,L|168:40,2,140,2|2|2,0:0|0:0|0:0,0:0:0:0:
388,116,128879,1,0,0:0:0:0:
364,212,129151,2,0,L|294:212,1,70,2|0,0:0|0:0,0:0:0:0:
220,276,129697,6,0,P|196:212|236:132,2,140,2|2|2,0:0|0:0|0:0,0:0:0:0:
144,340,131060,1,0,0:0:0:0:
48,316,131333,2,0,P|52:280|64:247,1,70,2|0,0:0|0:0,0:0:0:0:
4,172,131879,6,0,P|68:152|144:196,1,140,2|2,0:0|0:0,0:0:0:0:
63,248,132697,1,0,0:0:0:0:
112,332,132970,2,0,L|184:324,1,70,2|0,0:0|0:0,0:0:0:0:
200,228,133515,1,2,0:0:0:0:
216,132,133788,1,0,0:0:0:0:
304,176,134060,6,0,L|282:326,2,140,2|2|2,0:0|0:0|0:0,0:0:0:0:
400,204,135424,1,0,0:0:0:0:
480,148,135697,2,0,L|470:78,1,70,2|0,0:0|0:0,0:0:0:0:
384,32,136242,6,0,P|312:40|236:28,2,140,2|2|2,0:0|0:0|0:0,0:0:0:0:
360,128,137606,1,0,0:0:0:0:
268,168,137879,2,0,L|258:237,1,70,2|0,0:0|0:0,0:0:0:0:
244,336,138424,6,0,B|314:351|314:291|376:310,2,140,2|2|2,0:0|0:0|0:0,0:0:0:0:
257,237,139788,1,0,0:0:0:0:
288,144,140060,2,0,P|253:141|218:146,1,70,2|0,0:0|0:0,0:0:0:0:
128,184,140606,6,0,P|123:149|126:114,1,70,2|0,0:0|0:0,0:0:0:0:
172,28,141151,2,0,L|260:36,1,70,2|0,0:0|0:0,0:0:0:0:
320,96,141697,1,2,0:0:0:0:
404,48,141970,2,0,L|388:4,2,35,0|0|8,0:0|0:0|0:0,0:0:0:0:
372,240,142788,6,0,P|303:233|234:244,1,140,6|8,0:0|0:0,0:0:0:0:
152,296,143606,1,0,0:0:0:0:
64,256,143879,2,0,P|52:187|60:117,1,140,2|8,0:0|0:0,0:0:0:0:
128,48,144697,1,0,0:0:0:0:
204,112,144970,6,0,P|273:111|340:130,1,140,2|8,0:0|0:0,0:0:0:0:
316,224,145788,1,0,0:0:0:0:
344,316,146060,2,0,L|432:308,1,70,2|0,0:0|0:0,0:0:0:0:
485,205,146606,2,0,L|416:212,1,70,8|0,0:0|0:0,0:0:0:0:
316,224,147151,6,0,P|324:155|302:89,1,140,2|8,0:0|0:0,0:0:0:0:
212,52,147970,1,0,0:0:0:0:
152,128,148242,2,0,P|143:196|165:262,1,140,2|8,0:0|0:0,0:0:0:0:
256,304,149060,1,0,0:0:0:0:
316,224,149333,6,0,B|404:208|404:208|449:229,1,140,2|8,0:0|0:0,0:0:0:0:
484,136,150151,1,0,0:0:0:0:
444,48,150424,2,0,P|409:46|374:41,1,70,2|0,0:0|0:0,0:0:0:0:
320,124,150970,2,0,P|285:122|250:117,1,70,8|0,0:0|0:0,0:0:0:0:
160,84,151515,6,0,L|132:236,1,140,2|8,0:0|0:0,0:0:0:0:
156,316,152333,1,0,0:0:0:0:
240,364,152606,2,0,P|274:364|309:357,1,70,2|0,0:0|0:0,0:0:0:0:
304,260,153151,2,0,P|329:235|348:206,1,70,8|0,0:0|0:0,0:0:0:0:
408,128,153697,6,0,B|360:109|360:109|273:125,1,140,2|8,0:0|0:0,0:0:0:0:
204,196,154515,1,0,0:0:0:0:
116,156,154788,2,0,P|111:121|115:86,1,70,2|0,0:0|0:0,0:0:0:0:
28,200,155333,2,0,P|49:227|77:248,1,70,8|0,0:0|0:0,0:0:0:0:
64,348,155879,6,0,L|212:328,1,140,2|8,0:0|0:0,0:0:0:0:
256,248,156697,1,0,0:0:0:0:
200,168,156970,2,0,P|220:102|196:37,1,140,2|8,0:0|0:0,0:0:0:0:
124,103,157788,1,0,0:0:0:0:
56,172,158060,6,0,P|32:107|52:41,2,140,2|0|2,0:0|0:0|0:0,0:0:0:0:
240,100,159697,1,0,0:0:0:0:
256,192,160242,12,8,161879,0:0:0:0:
476,276,162424,6,0,P|441:280|406:278,1,70,6|0,0:0|0:0,0:0:0:0:
345,202,162970,2,0,P|310:200|275:204,1,70,10|0,0:0|0:0,0:0:0:0:
212,280,163515,1,2,0:0:0:0:
142,210,163788,1,0,0:0:0:0:
142,210,163924,1,0,0:0:0:0:
142,210,164060,1,10,0:0:0:0:
200,132,164333,1,0,0:0:0:0:
184,112,164470,1,0,0:0:0:0:
168,92,164606,6,0,L|28:92,1,140,2|10,0:0|0:0,0:0:0:0:
28,192,165424,1,0,0:0:0:0:
52,200,165560,1,0,0:0:0:0:
76,208,165697,2,0,P|80:242|75:277,1,70,2|0,0:0|0:0,0:0:0:0:
171,369,166242,2,0,P|167:334|172:300,1,70,10|0,0:0|0:0,0:0:0:0:
172,200,166788,6,0,L|256:212,1,70,2|0,0:0|0:0,0:0:0:0:
284,300,167333,2,0,L|368:289,1,70,10|0,0:0|0:0,0:0:0:0:
336,196,167879,1,2,0:0:0:0:
320,100,168151,1,0,0:0:0:0:
320,100,168288,1,0,0:0:0:0:
320,100,168424,1,10,0:0:0:0:
417,93,168697,1,0,0:0:0:0:
417,93,168833,1,0,0:0:0:0:
417,93,168970,6,0,P|394:157|336:195,1,140,2|10,0:0|0:0,0:0:0:0:
256,252,169788,1,0,0:0:0:0:
256,252,169924,1,0,0:0:0:0:
256,252,170060,2,0,P|223:239|189:232,1,70,2|0,0:0|0:0,0:0:0:0:
88,354,170606,2,0,P|101:322|108:288,1,70,10|0,0:0|0:0,0:0:0:0:
36,224,171151,6,0,L|16:140,1,70,2|0,0:0|0:0,0:0:0:0:
128,55,171697,2,0,L|112:124,1,70,10|0,0:0|0:0,0:0:0:0:
136,220,172242,1,2,0:0:0:0:
232,236,172515,1,0,0:0:0:0:
240,260,172651,1,0,0:0:0:0:
248,284,172788,1,10,0:0:0:0:
336,328,173060,1,0,0:0:0:0:
344,304,173197,1,0,0:0:0:0:
351,279,173333,6,0,P|328:216|360:144,1,140,2|10,0:0|0:0,0:0:0:0:
424,216,174151,1,0,0:0:0:0:
424,216,174288,1,0,0:0:0:0:
424,216,174424,2,0,P|439:248|446:282,1,70,2|0,0:0|0:0,0:0:0:0:
353,150,174970,2,0,P|365:118|384:89,1,70,10|0,0:0|0:0,0:0:0:0:
280,216,175515,6,0,L|140:148,1,140,2|10,0:0|0:0,0:0:0:0:
68,200,176333,1,0,0:0:0:0:
39,295,176606,2,0,P|74:297|108:289,1,70,2|0,0:0|0:0,0:0:0:0:
131,279,177015,1,0,0:0:0:0:
151,266,177151,1,10,0:0:0:0:
248,276,177424,1,0,0:0:0:0:
252,300,177560,1,0,0:0:0:0:
255,323,177697,6,0,P|324:336|392:321,1,140,2|10,0:0|0:0,0:0:0:0:
428,232,178515,1,0,0:0:0:0:
432,208,178651,1,0,0:0:0:0:
436,184,178788,1,2,0:0:0:0:
372,112,179060,1,0,0:0:0:0:
288,60,179333,1,10,0:0:0:0:
282,156,179605,1,0,0:0:0:0:
272,252,179879,6,0,P|237:253|202:249,1,70,6|0,0:0|0:0,0:0:0:0:
140,176,180424,2,0,P|105:171|70:172,1,70,10|0,0:0|0:0,0:0:0:0:
100,263,180970,1,2,0:0:0:0:
164,336,181242,1,0,0:0:0:0:
164,336,181379,1,0,0:0:0:0:
164,336,181515,1,10,0:0:0:0:
256,300,181788,1,0,0:0:0:0:
256,300,181924,1,0,0:0:0:0:
256,300,182060,6,0,P|272:232|256:164,1,140,2|10,0:0|0:0,0:0:0:0:
164,132,182879,1,0,0:0:0:0:
164,132,183015,1,0,0:0:0:0:
164,132,183151,2,0,L|94:138,1,70,2|0,0:0|0:0,0:0:0:0:
192,36,183697,2,0,L|261:42,1,70,10|0,0:0|0:0,0:0:0:0:
379,112,184242,6,0,P|345:117|312:128,1,70,2|0,0:0|0:0,0:0:0:0:
386,276,184788,2,0,P|380:241|371:208,1,70,10|0,0:0|0:0,0:0:0:0:
287,260,185333,1,2,0:0:0:0:
203,308,185606,1,0,0:0:0:0:
203,332,185742,1,0,0:0:0:0:
203,356,185879,1,10,0:0:0:0:
107,336,186151,1,0,0:0:0:0:
107,312,186288,1,0,0:0:0:0:
107,288,186424,6,0,P|87:232|119:156,1,140,2|10,0:0|0:0,0:0:0:0:
187,228,187242,1,0,0:0:0:0:
187,228,187379,1,0,0:0:0:0:
187,228,187515,2,0,P|221:224|256:226,1,70,2|0,0:0|0:0,0:0:0:0:
372,138,188060,2,0,P|337:142|303:140,1,70,10|0,0:0|0:0,0:0:0:0:
227,80,188606,6,0,L|237:10,1,70,2|0,0:0|0:0,0:0:0:0:
131,100,189151,2,0,L|141:169,1,70,10|0,0:0|0:0,0:0:0:0:
39,64,189697,1,2,0:0:0:0:
15,160,189970,1,0,0:0:0:0:
15,160,190106,1,0,0:0:0:0:
15,160,190242,1,10,0:0:0:0:
84,232,190515,1,0,0:0:0:0:
108,232,190651,1,0,0:0:0:0:
131,232,190788,6,0,P|151:165|130:99,1,140,2|10,0:0|0:0,0:0:0:0:
48,44,191606,1,0,0:0:0:0:
68,28,191742,1,0,0:0:0:0:
88,12,191879,2,0,L|168:12,1,70,2|0,0:0|0:0,0:0:0:0:
294,84,192424,2,0,L|224:84,1,70,10|0,0:0|0:0,0:0:0:0:
184,172,192970,6,0,B|136:156|80:168|80:168|101:140,1,140,2|10,0:0|0:0,0:0:0:0:
128,260,193788,1,0,0:0:0:0:
191,336,194060,2,0,P|226:333|261:326,1,70,2|0,0:0|0:0,0:0:0:0:
261,326,194470,1,0,0:0:0:0:
261,326,194606,1,10,0:0:0:0:
300,236,194879,1,0,0:0:0:0:
292,212,195015,1,0,0:0:0:0:
284,188,195151,6,0,L|428:188,1,140,2|10,0:0|0:0,0:0:0:0:
448,92,195970,1,0,0:0:0:0:
424,92,196106,1,0,0:0:0:0:
400,92,196242,1,2,0:0:0:0:
328,24,196515,1,0,0:0:0:0:
256,92,196788,1,10,0:0:0:0:
184,160,197060,1,0,0:0:0:0:
164,64,197333,5,6,0:0:0:0:
256,192,197470,12,2,201697,0:0:0:0:
148,147,202242,6,0,P|136:180|135:215,1,70,2|0,0:0|0:0,0:0:0:0:
164,312,202788,2,0,P|231:296|301:303,1,140,2|0,0:0|0:0,0:0:0:0:
392,340,203606,1,2,0:0:0:0:
392,340,203742,1,0,0:0:0:0:
392,340,203879,6,0,B|412:292|412:292|388:204,1,140,2|0,0:0|0:0,0:0:0:0:
339,120,204697,1,2,0:0:0:0:
339,120,204833,1,0,0:0:0:0:
339,120,204970,2,0,P|304:115|269:119,1,70,2|2,0:0|0:0,0:0:0:0:
191,64,205515,2,0,P|170:91|155:123,1,70,2|0,0:0|0:0,0:0:0:0:
67,164,206060,6,0,L|83:256,1,70,2|0,0:0|0:0,0:0:0:0:
175,252,206606,2,0,L|159:344,1,70,2|0,0:0|0:0,0:0:0:0:
256,356,207151,2,0,P|324:340|420:348,1,140,2|0,0:0|0:0,0:0:0:0:
436,252,207970,1,2,0:0:0:0:
436,252,208106,1,0,0:0:0:0:
436,252,208242,6,0,B|464:168|464:168|448:112,1,140,2|0,0:0|0:0,0:0:0:0:
368,64,209060,1,2,0:0:0:0:
368,64,209197,1,0,0:0:0:0:
368,64,209333,2,0,B|318:78|318:78|234:50,1,140,2|2,0:0|0:0,0:0:0:0:
144,84,210151,1,0,0:0:0:0:
88,164,210424,6,0,P|154:180|216:151,1,140,2|2,0:0|0:0,0:0:0:0:
272,68,211242,1,0,0:0:0:0:
368,64,211515,2,0,L|352:212,1,140,2|0,0:0|0:0,0:0:0:0:
264,244,212333,1,2,0:0:0:0:
264,244,212470,1,0,0:0:0:0:
264,244,212606,6,0,L|248:104,1,140,2|0,0:0|0:0,0:0:0:0:
160,60,213424,1,2,0:0:0:0:
160,60,213560,1,0,0:0:0:0:
160,60,213697,2,0,P|141:89|127:121,1,70,2|2,0:0|0:0,0:0:0:0:
164,212,214242,2,0,P|176:244|184:278,1,70,2|0,0:0|0:0,0:0:0:0:
108,340,214788,5,2,0:0:0:0:
