osu file format v14

[General]
AudioFilename: Ken Arai - HYPNOTIK.mp3
AudioLeadIn: 0
PreviewTime: 99542
Countdown: 1
SampleSet: Normal
StackLeniency: 0.7
Mode: 0
LetterboxInBreaks: 0
EpilepsyWarning: 1
WidescreenStoryboard: 1

[Editor]
Bookmarks: 77599
DistanceSpacing: 0.9
BeatDivisor: 8
GridSize: 16
TimelineZoom: 2

[Metadata]
Title:HYPNOTIK
TitleUnicode:HYPNOTIK
Artist:Ken Arai
ArtistUnicode:Ken Arai
Creator:hulululu-lulu
Version:~Hardish
Source:Parasyte -the maxim-
Tags:Anime Electronic
BeatmapID:1166364
BeatmapSetID:550554

[Difficulty]
HPDrainRate:5
CircleSize:5
OverallDifficulty:5
ApproachRate:7
SliderMultiplier:0.999999999999999
SliderTickRate:2

[Events]
//Background and Video events
0,0,"calm.png",0,0
//Break Periods
2,132314,141157
//Storyboard Layer 0 (Background)
//Storyboard Layer 1 (Fail)
//Storyboard Layer 2 (Pass)
//Storyboard Layer 3 (Foreground)
//Storyboard Sound Samples

[TimingPoints]
77600,342.857142857143,4,1,0,100,1,0
99542,-50,4,1,0,100,0,0
143428,-50,4,1,0,100,0,1
165371,-50,4,1,0,100,0,0

[Colours]
Combo1 : 64,0,128
Combo2 : 255,128,128
Combo3 : 128,255,128
Combo4 : 21,109,255
Combo5 : 255,236,100
Combo6 : 192,192,192
Combo7 : 82,82,82

[HitObjects]
224,160,77601,5,0,0:0:0:0:
144,80,77942,1,0,0:0:0:0:
368,80,78457,6,0,L|368:144,1,50,0|0,0:0|0:0,0:0:0:0:
368,208,78971,5,0,0:0:0:0:
320,256,79314,1,0,0:0:0:0:
368,304,79657,1,0,0:0:0:0:
320,352,79999,1,0,0:0:0:0:
144,304,80342,5,0,0:0:0:0:
224,224,80685,1,0,0:0:0:0:
368,304,81199,54,0,L|368:240,1,50
368,176,81714,5,0,0:0:0:0:
416,128,82057,1,0,0:0:0:0:
368,80,82399,1,0,0:0:0:0:
416,32,82742,1,0,0:0:0:0:
368,80,83085,5,0,0:0:0:0:
288,160,83428,1,0,0:0:0:0:
144,80,83942,6,0,L|144:144,1,50,0|0,0:0|0:0,0:0:0:0:
144,208,84457,53,0,0:0:0:0:
192,256,84799,1,0,0:0:0:0:
144,304,85142,1,0,0:0:0:0:
192,352,85485,1,0,0:0:0:0:
288,224,85828,5,0,0:0:0:0:
368,304,86171,1,0,0:0:0:0:
368,160,86685,2,0,L|368:96,1,50,0|0,0:0|0:0,0:0:0:0:
304,112,87199,2,0,L|304:176,2,50,0|0|0,0:0|0:0|0:0,0:0:0:0:
304,48,87885,1,0,0:0:0:0:
240,48,88228,1,0,0:0:0:0:
176,48,88571,6,0,L|176:160,1,99.9999999999999,0|0,0:0|0:0,0:0:0:0:
176,272,89599,1,0,0:0:0:0:
176,336,89942,1,0,0:0:0:0:
240,336,90285,1,0,0:0:0:0:
336,336,90628,2,0,L|400:336,1,50,0|0,0:0|0:0,0:0:0:0:
416,336,90971,1,0,0:0:0:0:
416,272,91314,5,0,0:0:0:0:
352,272,91657,1,0,0:0:0:0:
256,272,92171,2,0,L|192:272,1,50,0|0,0:0|0:0,0:0:0:0:
144,272,92685,1,0,0:0:0:0:
144,160,93371,1,0,0:0:0:0:
144,96,93714,1,0,0:0:0:0:
208,96,94057,53,0,0:0:0:0:
256,144,94399,1,0,0:0:0:0:
352,240,95085,1,0,0:0:0:0:
288,240,95428,1,0,0:0:0:0:
352,240,95771,1,0,0:0:0:0:
416,240,96114,1,0,0:0:0:0:
448,176,96457,1,0,0:0:0:0:
448,112,96799,5,0,0:0:0:0:
320,112,97142,1,0,0:0:0:0:
192,112,97485,1,0,0:0:0:0:
64,112,97828,1,0,0:0:0:0:
256,192,98171,12,0,98857,0:0:0:0:
256,192,99542,5,0,0:0:0:0:
208,80,99884,6,0,P|176:96|144:160,1,100,0|0,0:0|0:0,0:0:0:0:
144,240,100227,54,0,P|160:272|224:304,1,100
304,304,100570,6,0,P|336:288|368:224,1,100,0|0,0:0|0:0,0:0:0:0:
256,192,100914,5,0,0:0:0:0:
304,80,101257,6,0,P|336:96|368:160,1,100,0|0,0:0|0:0,0:0:0:0:
368,240,101599,54,0,P|352:272|288:304,1,100
208,304,101942,6,0,P|176:288|144:224,1,100,0|0,0:0|0:0,0:0:0:0:
256,192,102285,5,0,0:0:0:0:
192,160,102628,6,0,P|160:144|128:80,1,100,0|0,0:0|0:0,0:0:0:0:
208,80,102971,54,0,L|320:80,1,99.9999999999999
384,96,103314,6,0,P|368:128|304:160,1,100,0|0,0:0|0:0,0:0:0:0:
256,192,103657,5,0,0:0:0:0:
192,224,103999,6,0,P|160:240|128:304,1,100,0|0,0:0|0:0,0:0:0:0:
208,304,104342,54,0,L|320:304,1,99.9999999999999
384,288,104685,6,0,P|368:256|304:224,1,100,0|0,0:0|0:0,0:0:0:0:
256,192,105028,5,0,0:0:0:0:
192,128,105371,2,0,B|208:32|256:48|240:96,1,99.9999999999999,0|0,0:0|0:0,0:0:0:0:
256,96,105714,2,0,B|240:144|288:160|304:64,1,99.9999999999999,0|0,0:0|0:0,0:0:0:0:
320,80,106057,2,0,P|384:48|416:80,1,99.9999999999999,0|0,0:0|0:0,0:0:0:0:
432,112,106399,5,0,0:0:0:0:
384,176,106742,2,0,P|384:208|448:240,1,99.9999999999999,0|0,0:0|0:0,0:0:0:0:
448,256,107085,2,0,P|464:288|416:304,1,99.9999999999999,0|0,0:0|0:0,0:0:0:0:
400,304,107428,2,0,P|368:272|304:304,1,99.9999999999999,0|0,0:0|0:0,0:0:0:0:
272,240,107771,53,0,0:0:0:0:
224,176,108114,2,0,B|192:176|160:144|224:96|224:96,1,99.9999999999999,0|0,0:0|0:0,0:0:0:0:
224,96,108457,2,0,B|240:64|256:64|288:128,1,99.9999999999999,0|0,0:0|0:0,0:0:0:0:
304,128,108799,2,0,B|336:160|352:128|352:64,1,99.9999999999999,0|0,0:0|0:0,0:0:0:0:
400,144,109142,6,0,L|400:256,1,99.9999999999999,0|0,0:0|0:0,0:0:0:0:
400,272,109485,1,0,0:0:0:0:
400,304,109657,1,0,0:0:0:0:
400,336,109828,1,0,0:0:0:0:
368,336,109999,1,0,0:0:0:0:
336,336,110171,1,0,0:0:0:0:
256,336,110514,6,0,B|256:288|192:256,1,99.9999999999999,0|0,0:0|0:0,0:0:0:0:
256,272,110857,6,0,B|256:224|320:192,1,99.9999999999999,0|0,0:0|0:0,0:0:0:0:
256,208,111199,54,0,B|256:160|192:128,1,99.9999999999999
256,144,111542,6,0,B|256:96|320:64,1,99.9999999999999,0|0,0:0|0:0,0:0:0:0:
256,96,111886,6,0,B|222:129|244:197,1,99.9999999999999,0|0,0:0|0:0,0:0:0:0:
211,141,112229,6,0,B|177:174|109:152,1,99.9999999999999,0|0,0:0|0:0,0:0:0:0:
165,187,112571,54,0,B|131:220|153:288,1,99.9999999999999
120,232,112914,6,0,B|86:265|18:243,1,99.9999999999999,0|0,0:0|0:0,0:0:0:0:
64,288,113257,6,0,B|112:288|144:224,1,99.9999999999999,0|0,0:0|0:0,0:0:0:0:
128,288,113600,6,0,B|176:288|208:352,1,99.9999999999999,0|0,0:0|0:0,0:0:0:0:
192,288,113942,54,0,B|240:288|272:224,1,99.9999999999999
256,288,114285,6,0,B|304:288|336:352,1,99.9999999999999,0|0,0:0|0:0,0:0:0:0:
304,288,114628,6,0,B|270:254|202:276,1,99.9999999999999,0|0,0:0|0:0,0:0:0:0:
258,242,114971,6,0,B|224:208|246:140,1,99.9999999999999,0|0,0:0|0:0,0:0:0:0:
213,198,115313,54,0,B|179:164|111:186,1,99.9999999999999
168,153,115656,6,0,B|134:119|156:51,1,99.9999999999999,0|0,0:0|0:0,0:0:0:0:
96,80,115999,6,0,L|175:159,1,99.9999999999999,0|0,0:0|0:0,0:0:0:0:
208,112,116342,2,0,L|287:191,1,99.9999999999999,0|0,0:0|0:0,0:0:0:0:
240,224,116685,2,0,L|319:303,1,99.9999999999999,0|0,0:0|0:0,0:0:0:0:
352,256,117028,2,0,L|431:335,1,99.9999999999999,0|0,0:0|0:0,0:0:0:0:
416,80,117371,6,0,L|336:159,1,99.9999999999999,0|0,0:0|0:0,0:0:0:0:
304,112,117714,2,0,L|224:191,1,99.9999999999999,0|0,0:0|0:0,0:0:0:0:
272,224,118057,2,0,L|192:303,1,99.9999999999999,0|0,0:0|0:0,0:0:0:0:
159,255,118400,2,0,L|80:335,1,99.9999999999999,0|0,0:0|0:0,0:0:0:0:
80,192,118742,53,0,0:0:0:0:
256,192,119085,1,0,0:0:0:0:
432,192,119428,1,0,0:0:0:0:
256,192,119771,1,0,0:0:0:0:
256,32,120114,5,0,0:0:0:0:
256,64,120285,2,0,L|256:112,3,33.3333333333333,0|0|0|0,0:0|0:0|0:0|0:0,0:0:0:0:
256,128,120628,1,0,0:0:0:0:
256,160,120799,1,0,0:0:0:0:
256,224,121142,1,0,0:0:0:0:
256,96,121485,5,0,0:0:0:0:
160,192,121828,1,0,0:0:0:0:
256,288,122171,1,0,0:0:0:0:
352,192,122514,1,0,0:0:0:0:
352,192,122685,1,0,0:0:0:0:
352,192,122857,21,0,0:0:0:0:
256,96,123199,85,0,0:0:0:0:
160,192,123542,1,0,0:0:0:0:
256,288,123885,1,0,0:0:0:0:
256,288,124057,1,0,0:0:0:0:
256,288,124228,5,0,0:0:0:0:
352,192,124571,37,0,0:0:0:0:
256,96,124914,1,0,0:0:0:0:
160,192,125257,1,0,0:0:0:0:
160,192,125428,1,0,0:0:0:0:
160,192,125599,69,0,0:0:0:0:
256,288,125942,37,0,0:0:0:0:
352,192,126285,1,0,0:0:0:0:
256,96,126628,1,0,0:0:0:0:
256,96,126799,1,0,0:0:0:0:
256,96,126971,69,0,0:0:0:0:
256,192,127314,37,0,0:0:0:0:
256,288,127657,1,0,0:0:0:0:
256,192,127999,1,0,0:0:0:0:
160,192,128342,1,0,0:0:0:0:
256,192,128685,1,0,0:0:0:0:
352,192,129028,1,0,0:0:0:0:
256,192,129371,1,0,0:0:0:0:
352,96,129714,1,0,0:0:0:0:
160,96,130057,1,0,0:0:0:0:
160,288,130399,1,0,0:0:0:0:
352,288,130742,1,0,0:0:0:0:
352,288,130914,1,0,0:0:0:0:
352,288,131085,1,0,0:0:0:0:
256,288,131428,1,0,0:0:0:0:
256,224,131599,2,0,L|256:160,4,50,0|0|0|0|0,0:0|0:0|0:0|0:0|0:0,0:0:0:0:
256,144,132114,1,0,0:0:0:0:
208,240,142057,5,0,0:0:0:0:
304,144,142314,1,0,0:0:0:0:
256,192,142571,1,0,0:0:0:0:
304,240,142828,2,0,L|352:288,1,50,0|0,0:0|0:0,0:0:0:0:
368,304,143085,1,0,0:0:0:0:
256,192,143428,21,0,0:0:0:0:
304,80,143771,85,0,0:0:0:0:
208,80,143943,1,0,0:0:0:0:
256,32,144114,1,0,0:0:0:0:
256,128,144286,1,0,0:0:0:0:
208,176,144457,22,0,L|208:288,1,99.9999999999999
304,272,144799,2,0,L|304:160,1,99.9999999999999,0|0,0:0|0:0,0:0:0:0:
304,112,145142,69,0,0:0:0:0:
208,112,145485,1,0,0:0:0:0:
400,112,145828,1,0,0:0:0:0:
304,112,146171,21,0,0:0:0:0:
240,112,146514,85,0,0:0:0:0:
208,112,146686,1,0,0:0:0:0:
176,112,146857,1,0,0:0:0:0:
144,112,147028,1,0,0:0:0:0:
112,112,147200,1,0,0:0:0:0:
208,272,147542,5,0,0:0:0:0:
272,272,147885,85,0,0:0:0:0:
304,272,148057,1,0,0:0:0:0:
336,272,148228,1,0,0:0:0:0:
368,272,148399,1,0,0:0:0:0:
400,272,148571,1,0,0:0:0:0:
256,192,148914,5,0,0:0:0:0:
208,144,149257,70,0,L|112:96,1,99.9999999999999
112,144,149599,2,0,L|112:256,1,99.9999999999999,0|0,0:0|0:0,0:0:0:0:
112,288,149942,2,0,L|208:240,1,99.9999999999999,0|0,0:0|0:0,0:0:0:0:
304,240,150285,2,0,L|400:288,1,99.9999999999999,0|0,0:0|0:0,0:0:0:0:
400,240,150627,2,0,L|400:128,1,99.9999999999999,0|0,0:0|0:0,0:0:0:0:
400,80,150971,1,0,0:0:0:0:
256,192,151314,1,0,0:0:0:0:
256,192,151657,21,0,0:0:0:0:
192,160,151999,85,0,0:0:0:0:
192,224,152170,1,0,0:0:0:0:
128,160,152342,1,0,0:0:0:0:
128,224,152513,1,0,0:0:0:0:
128,288,152685,1,0,0:0:0:0:
256,192,153028,5,0,0:0:0:0:
320,160,153370,85,0,0:0:0:0:
320,224,153541,1,0,0:0:0:0:
384,160,153713,1,0,0:0:0:0:
384,224,153884,1,0,0:0:0:0:
384,288,154056,1,0,0:0:0:0:
336,192,154399,70,0,L|256:272,1,99.9999999999999
256,112,154742,6,0,L|336:192,1,99.9999999999999,0|0,0:0|0:0,0:0:0:0:
176,192,155085,54,0,L|256:112,1,99.9999999999999
256,272,155428,38,0,L|176:192,1,99.9999999999999
336,192,155771,54,0,L|256:272,1,99.9999999999999
256,112,156114,38,0,L|336:192,1,99.9999999999999
176,192,156457,86,0,L|256:112,1,99.9999999999999
256,272,156800,6,0,L|176:192,1,99.9999999999999
176,48,157485,5,0,0:0:0:0:
144,64,157657,1,0,0:0:0:0:
112,96,157828,1,0,0:0:0:0:
96,128,157999,1,0,0:0:0:0:
96,176,158171,1,0,0:0:0:0:
336,48,158857,1,0,0:0:0:0:
368,64,159028,1,0,0:0:0:0:
400,96,159199,1,0,0:0:0:0:
416,128,159371,1,0,0:0:0:0:
416,176,159542,1,0,0:0:0:0:
256,192,159885,5,0,0:0:0:0:
208,144,160228,86,0,L|128:64,1,99.9999999999999
304,144,160571,86,0,L|384:64,1,99.9999999999999
304,240,160914,6,0,L|384:320,1,99.9999999999999
208,240,161257,86,0,L|128:320,1,99.9999999999999
208,336,161599,6,0,L|320:336,1,99.9999999999999
400,240,161942,86,0,L|400:128,1,99.9999999999999
304,48,162285,6,0,L|192:48,1,99.9999999999999
112,144,162628,86,0,L|112:256,1,99.9999999999999
160,320,162971,22,0,B|672:384|384:32|288:32,1,599.999999999999
256,192,164171,1,0,0:0:0:0:
144,256,164342,6,0,L|144:144,1,99.9999999999999,0|0,0:0|0:0,0:0:0:0:
256,192,164685,6,0,L|256:80,1,99.9999999999999,0|0,0:0|0:0,0:0:0:0:
368,256,165028,6,0,L|368:144,1,99.9999999999999,0|0,0:0|0:0,0:0:0:0:
368,64,165371,53,0,0:0:0:0:
304,64,165542,5,0,0:0:0:0:
208,64,165885,5,0,0:0:0:0:
112,64,166228,5,0,0:0:0:0:
112,160,166571,5,0,0:0:0:0:
112,256,166914,53,0,0:0:0:0:
208,256,167257,5,0,0:0:0:0:
208,352,167599,2,0,L|96:352,1,99.9999999999999,0|0,0:0|0:0,0:0:0:0:
304,352,167942,5,0,0:0:0:0:
304,256,168285,5,0,0:0:0:0:
400,256,168628,53,0,0:0:0:0:
400,160,168971,5,0,0:0:0:0:
304,160,169314,5,0,0:0:0:0:
304,256,169657,5,0,0:0:0:0:
304,352,169999,53,0,0:0:0:0:
400,352,170342,2,0,L|400:240,1,99.9999999999999,0|0,0:0|0:0,0:0:0:0:
496,352,170685,5,0,0:0:0:0:
496,256,171028,5,0,0:0:0:0:
400,256,171371,5,0,0:0:0:0:
496,256,171714,1,0,0:0:0:0:
496,160,172057,1,0,0:0:0:0:
400,160,172399,53,0,0:0:0:0:
496,160,172742,1,0,0:0:0:0:
496,64,173085,1,0,0:0:0:0:
400,64,173599,5,0,0:0:0:0:
400,64,173771,1,0,0:0:0:0:
304,64,174114,1,0,0:0:0:0:
208,64,174457,1,0,0:0:0:0:
208,160,174799,1,0,0:0:0:0:
208,64,175142,1,0,0:0:0:0:
112,64,175485,1,0,0:0:0:0:
112,64,175828,1,0,0:0:0:0:
256,192,176342,5,0,0:0:0:0:
208,144,176685,2,0,L|96:144,1,99.9999999999999,0|0,0:0|0:0,0:0:0:0:
112,208,177199,1,0,0:0:0:0:
112,272,177371,2,0,L|224:272,1,99.9999999999999,0|0,0:0|0:0,0:0:0:0:
272,272,177714,2,0,L|384:272,1,99.9999999999999,0|0,0:0|0:0,0:0:0:0:
432,208,178228,1,0,0:0:0:0:
432,112,178571,1,0,0:0:0:0:
320,80,179085,5,0,0:0:0:0:
304,80,179257,1,0,0:0:0:0:
304,144,179428,1,0,0:0:0:0:
288,144,179599,1,0,0:0:0:0:
224,112,179771,1,0,0:0:0:0:
128,112,180114,1,0,0:0:0:0:
112,112,180285,1,0,0:0:0:0:
96,112,180457,1,0,0:0:0:0:
80,112,180628,1,0,0:0:0:0:
64,112,180799,2,0,L|64:224,1,99.9999999999999,0|0,0:0|0:0,0:0:0:0:
64,304,181314,1,0,0:0:0:0:
144,336,181828,53,0,0:0:0:0:
160,336,181999,1,0,0:0:0:0:
192,336,182171,1,0,0:0:0:0:
224,336,182342,1,0,0:0:0:0:
224,272,182514,5,0,0:0:0:0:
240,272,182685,1,0,0:0:0:0:
272,272,182857,1,0,0:0:0:0:
304,272,183028,1,0,0:0:0:0:
272,336,183199,53,0,0:0:0:0:
240,336,183371,1,0,0:0:0:0:
192,336,183542,1,0,0:0:0:0:
144,336,183714,1,0,0:0:0:0:
176,272,183885,53,0,0:0:0:0:
208,272,184057,1,0,0:0:0:0:
256,272,184228,1,0,0:0:0:0:
304,272,184399,1,0,0:0:0:0:
368,272,184571,5,0,0:0:0:0:
256,272,184914,1,0,0:0:0:0:
256,160,185257,1,0,0:0:0:0:
256,48,185599,1,0,0:0:0:0:
192,48,185942,2,0,L|128:48,2,50,0|0|0,0:0|0:0|0:0,0:0:0:0:
320,160,186285,2,0,L|384:160,2,50,0|0|0,0:0|0:0|0:0,0:0:0:0:
256,224,186628,6,0,L|256:288,6,50
144,224,187314,37,0,0:0:0:0:
80,256,187657,2,0,P|80:192|112:160,1,99.9999999999999,0|0,0:0|0:0,0:0:0:0:
176,128,188171,1,0,0:0:0:0:
256,96,188342,1,0,0:0:0:0:
368,64,188685,6,0,L|480:64,1,99.9999999999999,0|0,0:0|0:0,0:0:0:0:
464,128,189028,6,0,L|352:128,1,99.9999999999999,0|0,0:0|0:0,0:0:0:0:
368,192,189371,6,0,L|480:192,1,99.9999999999999,0|0,0:0|0:0,0:0:0:0:
416,256,189714,1,0,0:0:0:0:
256,288,190057,53,0,0:0:0:0:
224,352,190399,2,0,P|288:352|320:320,1,99.9999999999999,0|0,0:0|0:0,0:0:0:0:
336,224,190914,1,0,0:0:0:0:
400,304,191085,1,0,0:0:0:0:
416,224,191428,6,0,L|416:112,1,99.9999999999999,0|0,0:0|0:0,0:0:0:0:
480,160,191771,6,0,L|480:48,1,99.9999999999999,0|0,0:0|0:0,0:0:0:0:
352,128,192114,6,0,L|240:128,1,99.9999999999999,0|0,0:0|0:0,0:0:0:0:
416,64,192457,54,0,L|304:64,1,99.9999999999999
176,64,192799,5,0,0:0:0:0:
112,32,193142,2,0,P|112:96|144:128,1,99.9999999999999,0|0,0:0|0:0,0:0:0:0:
208,128,193657,2,0,P|272:128|304:160,1,99.9999999999999,0|0,0:0|0:0,0:0:0:0:
256,320,194171,69,0,0:0:0:0:
240,304,194342,1,0,0:0:0:0:
112,192,194514,1,0,0:0:0:0:
128,176,194685,1,0,0:0:0:0:
256,64,194857,1,0,0:0:0:0:
272,80,195028,1,0,0:0:0:0:
384,192,195199,1,0,0:0:0:0:
368,208,195371,1,0,0:0:0:0:
256,192,195542,53,0,0:0:0:0:
304,96,195885,54,0,L|192:96,1,99.9999999999999
208,288,196399,6,0,L|320:288,1,99.9999999999999,0|0,0:0|0:0,0:0:0:0:
432,288,196914,5,0,0:0:0:0:
432,96,197257,1,0,0:0:0:0:
368,256,197599,1,0,0:0:0:0:
368,128,197942,1,0,0:0:0:0:
304,224,198285,5,0,0:0:0:0:
304,160,198628,2,0,B|240:160|240:224,1,99.9999999999999,0|0,0:0|0:0,0:0:0:0:
240,304,199142,53,0,0:0:0:0:
240,320,199314,1,0,0:0:0:0:
144,320,199657,5,0,0:0:0:0:
64,256,199999,5,0,0:0:0:0:
64,240,200171,1,0,0:0:0:0:
64,224,200342,1,0,0:0:0:0:
64,208,200514,1,0,0:0:0:0:
64,192,200685,1,0,0:0:0:0:
128,80,201028,5,0,0:0:0:0:
128,16,201371,2,0,B|64:16|64:80,1,99.9999999999999,0|0,0:0|0:0,0:0:0:0:
64,160,201885,1,0,0:0:0:0:
80,160,202057,1,0,0:0:0:0:
192,160,202399,54,0,L|192:48,1,99.9999999999999
256,32,202742,6,0,L|256:144,1,99.9999999999999,0|0,0:0|0:0,0:0:0:0:
320,160,203085,6,0,L|320:48,1,99.9999999999999,0|0,0:0|0:0,0:0:0:0:
384,32,203428,6,0,L|384:144,1,99.9999999999999,0|0,0:0|0:0,0:0:0:0:
384,224,203771,53,0,0:0:0:0:
304,320,204114,6,0,L|192:320,1,99.9999999999999,0|0,0:0|0:0,0:0:0:0:
208,80,204628,2,0,L|320:80,1,99.9999999999999,0|0,0:0|0:0,0:0:0:0:
352,256,205142,6,0,L|352:144,1,99.9999999999999,0|0,0:0|0:0,0:0:0:0:
288,144,205485,6,0,L|288:256,1,99.9999999999999,0|0,0:0|0:0,0:0:0:0:
224,256,205828,54,0,L|224:144,1,99.9999999999999
160,144,206171,6,0,L|160:256,1,99.9999999999999,0|0,0:0|0:0,0:0:0:0:
160,304,206514,5,0,0:0:0:0:
368,288,206857,1,0,0:0:0:0:
352,80,207199,1,0,0:0:0:0:
144,96,207542,1,0,0:0:0:0:
256,192,207885,6,0,L|256:128,2,50,0|0|0,0:0|0:0|0:0,0:0:0:0:
256,128,208228,53,0,0:0:0:0:
256,112,208399,1,0,0:0:0:0:
256,96,208571,6,0,L|256:32,6,50,0|0|0|0|0|0|0,0:0|0:0|0:0|0:0|0:0|0:0|0:0,0:0:0:0:
256,192,209257,5,0,0:0:0:0:
202,254,209599,2,0,P|216:357|217:358,1,99.9999999999999,0|0,0:0|0:0,0:0:0:0:
267,324,209942,2,0,P|291:270|336:240,1,99.9999999999999,0|0,0:0|0:0,0:0:0:0:
374,282,210285,2,0,P|430:227|422:200,1,99.9999999999999,0|0,0:0|0:0,0:0:0:0:
432,128,210628,5,0,0:0:0:0:
352,176,210971,54,0,L|240:176,1,99.9999999999999
304,112,211314,2,0,L|192:112,1,99.9999999999999,0|0,0:0|0:0,0:0:0:0:
192,176,211657,2,0,L|80:176,1,99.9999999999999,0|0,0:0|0:0,0:0:0:0:
96,112,211999,2,0,P|48:128|32:192,1,99.9999999999999,0|0,0:0|0:0,0:0:0:0:
32,240,212342,6,0,L|96:320,1,99.9999999999999
112,240,212685,6,0,L|176:320,1,99.9999999999999
192,240,213027,6,0,L|256:320,1,99.9999999999999
400,192,213371,54,0,L|400:80,1,99.9999999999999
352,48,213714,2,0,L|240:48,1,99.9999999999999
304,112,214057,2,0,L|192:112,1,99.9999999999999
256,176,214399,2,0,L|144:176,1,99.9999999999999
256,240,214742,5,0,0:0:0:0:
192,240,214914,2,0,L|80:240,2,99.9999999999999,0|0|0,0:0|0:0|0:0,0:0:0:0:
256,240,215428,1,0,0:0:0:0:
304,240,215599,1,0,0:0:0:0:
352,240,215771,1,0,0:0:0:0:
400,240,215942,1,0,0:0:0:0:
448,160,216114,6,0,L|384:80,1,99.9999999999999
368,160,216457,6,0,L|304:80,1,99.9999999999999
288,160,216799,54,0,L|224:80,1,99.9999999999999
208,160,217142,6,0,L|144:80,1,99.9999999999999
0,144,217485,5,0,0:0:0:0:
128,144,217828,1,0,0:0:0:0:
128,272,218171,1,0,0:0:0:0:
256,272,218514,1,0,0:0:0:0:
384,272,218857,6,0,L|448:272,2,50
480,272,219199,69,0,0:0:0:0:
480,272,219371,1,0,0:0:0:0:
480,336,219542,22,0,L|416:336,2,50
384,336,219885,69,0,0:0:0:0:
384,336,220057,1,0,0:0:0:0:
288,336,220228,5,0,0:0:0:0:
240,336,220399,1,0,0:0:0:0:
192,336,220571,2,0,L|112:256,1,99.9999999999999
96,224,220914,5,0,0:0:0:0:
96,176,221085,1,0,0:0:0:0:
144,176,221257,2,0,L|256:176,1,99.9999999999999
288,176,221599,53,0,0:0:0:0:
288,128,221771,1,0,0:0:0:0:
320,96,221942,2,0,L|400:16,1,99.9999999999999
432,16,222285,5,0,0:0:0:0:
480,16,222457,1,0,0:0:0:0:
464,64,222628,2,0,L|384:144,1,99.9999999999999
384,176,222971,5,0,0:0:0:0:
384,224,223142,1,0,0:0:0:0:
384,272,223314,2,0,L|272:272,1,99.9999999999999
240,272,223657,5,0,0:0:0:0:
240,224,223828,1,0,0:0:0:0:
208,192,223999,2,0,L|128:112,1,99.9999999999999
96,112,224342,53,0,0:0:0:0:
48,112,224514,1,0,0:0:0:0:
48,64,224685,2,0,L|160:64,1,99.9999999999999
192,64,225028,5,0,0:0:0:0:
240,64,225199,1,0,0:0:0:0:
240,16,225371,2,0,L|352:16,1,99.9999999999999
320,112,225714,6,0,L|288:208,1,99.9999999999999,0|0,0:0|0:0,0:0:0:0:
288,206,226057,2,0,L|255:95,1,99.9999999999999,0|0,0:0|0:0,0:0:0:0:
260,110,226399,2,0,L|223:207,1,99.9999999999999,0|0,0:0|0:0,0:0:0:0:
225,204,226742,2,0,L|191:95,1,99.9999999999999,0|0,0:0|0:0,0:0:0:0:
192,272,227085,6,0,L|224:368,1,99.9999999999999,0|0,0:0|0:0,0:0:0:0:
224,366,227428,2,0,L|256:255,1,99.9999999999999,0|0,0:0|0:0,0:0:0:0:
252,270,227770,2,0,L|288:367,1,99.9999999999999,0|0,0:0|0:0,0:0:0:0:
287,364,228113,2,0,L|320:255,1,99.9999999999999,0|0,0:0|0:0,0:0:0:0:
400,272,228457,53,0,0:0:0:0:
480,352,228799,5,0,0:0:0:0:
112,272,229142,5,0,0:0:0:0:
32,352,229485,5,0,0:0:0:0:
256,192,229828,69,0,0:0:0:0:
256,224,229999,6,0,L|256:288,2,50
256,304,230342,5,0,0:0:0:0:
256,272,230514,54,0,L|256:208,2,50
256,192,230857,85,0,0:0:0:0:
256,192,231028,1,0,0:0:0:0:
256,192,231199,1,0,0:0:0:0:
