osu file format v14

[General]
AudioFilename: reset game.mp3
AudioLeadIn: 0
PreviewTime: 272915
Countdown: 0
SampleSet: None
StackLeniency: 0.7
Mode: 0
LetterboxInBreaks: 1
WidescreenStoryboard: 0

[Editor]
Bookmarks: 9875,232915,450925,561816
DistanceSpacing: 0.6
BeatDivisor: 4
GridSize: 4
TimelineZoom: 1

[Metadata]
Title:Reset GAME
TitleUnicode:Reset GAME
Artist:Kemu
ArtistUnicode:Kemu
Creator:Gratz
Version:Six Trillion Years and Overnight Story
Source:
Tags:
BeatmapID:1183863
BeatmapSetID:559808

[Difficulty]
HPDrainRate:5
CircleSize:4
OverallDifficulty:7
ApproachRate:9
SliderMultiplier:2
SliderTickRate:1

[Events]
//Background and Video events
0,0,"4.jpg",0,0
//Break Periods
2,634016,644466
2,732266,732966
2,760766,761466
//Storyboard Layer 0 (Background)
//Storyboard Layer 1 (Fail)
//Storyboard Layer 2 (Pass)
//Storyboard Layer 3 (Foreground)
//Storyboard Sound Samples

[TimingPoints]
9875.35722281006,300,4,2,1,60,1,0
19925,-200,4,2,1,60,0,0
28925,-133.333333333333,4,2,1,60,0,0
38525,-100,4,2,1,60,0,0
48275,-100,4,1,1,60,0,1
65075,-100,4,2,1,60,0,0
66875,-100,4,2,3,60,0,0
67475,-100,4,2,1,60,0,0
77525,-200,4,2,1,60,0,0
86525,-133.333333333333,4,2,1,60,0,0
96125,-100,4,2,1,60,0,0
105875,-100,4,1,1,60,0,1
122675,-100,4,2,1,60,0,0
125075,300,7,2,1,60,1,0
148175,300,4,2,1,60,1,0
150425,-100,4,2,1,60,0,0
158975,-100,4,1,1,60,0,1
159975,-100,4,1,1,60,0,0
160775,300,4,2,1,60,1,0
179975,-100,4,1,1,60,0,1
203975,-100,4,2,1,60,0,0
205775,-100,4,2,3,60,0,0
206375,-100,4,2,1,60,0,0
224975,-80,4,1,1,60,0,1
225575,-100,4,2,1,60,0,0
232915,312.5,4,1,1,60,1,0
242915,-100,4,2,1,60,0,0
244165,-100,4,2,3,60,0,0
245415,-133.333333333333,4,2,1,60,0,0
245571,-133.333333333333,4,2,3,60,0,0
247915,-100,4,2,1,60,0,0
248071,-100,4,2,3,60,0,0
250415,-133.333333333333,4,2,1,60,0,0
250571,-133.333333333333,4,2,3,60,0,0
252915,-100,4,2,1,60,0,0
253071,-100,4,2,3,60,0,0
255258,-133.333333333333,4,2,1,60,0,0
255571,-133.333333333333,4,2,3,60,0,0
257915,-100,4,2,1,60,0,0
258071,-100,4,2,3,60,0,0
260415,-100,4,2,1,60,0,0
262290,-133.333333333333,4,2,1,60,0,0
271508,-133.333333333333,4,1,1,60,0,0
272915,-100,4,1,1,60,0,1
282290,-100,4,1,0,45,0,1
282368,-100,4,1,1,60,0,1
284165,-100,4,1,0,45,0,1
284243,-100,4,1,1,60,0,1
284790,-100,4,1,0,45,0,1
284868,-100,4,1,1,60,0,1
291665,-100,4,2,1,60,0,0
292602,-80,4,1,1,60,0,1
292915,-100,4,1,1,60,0,0
302915,-100,4,2,1,60,0,0
303071,-100,4,2,3,60,0,0
305415,-133.333333333333,4,2,1,60,0,0
305571,-133.333333333333,4,2,3,60,0,0
307915,-100,4,2,1,60,0,0
308071,-100,4,2,3,60,0,0
310415,-133.333333333333,4,2,1,60,0,0
310571,-133.333333333333,4,2,3,60,0,0
312915,-100,4,2,1,60,0,0
313071,-100,4,2,3,60,0,0
315415,-133.333333333333,4,2,1,60,0,0
315571,-133.333333333333,4,2,3,60,0,0
317915,-100,4,2,1,60,0,0
318071,-100,4,2,3,60,0,0
320415,-100,4,2,1,60,0,0
322915,-133.333333333333,4,2,1,60,0,0
331508,-133.333333333333,4,1,1,60,0,0
332915,-100,4,1,1,60,0,1
341040,-100,4,1,0,35,0,1
341118,-100,4,1,1,60,0,1
348540,-100,4,1,0,35,0,1
348618,-100,4,1,1,60,0,1
349165,-100,4,1,0,35,0,1
349243,-100,4,1,1,60,0,1
351665,-100,4,2,1,60,0,0
352602,-80,4,1,1,60,0,1
352915,-133.333333333333,4,2,1,60,0,0
362446,-133.333333333333,4,1,1,45,0,0
362758,-100,4,1,1,45,0,0
371665,-100,4,1,1,52,0,0
372290,-100,4,1,1,60,0,0
382290,312.5,4,1,1,60,1,0
391665,-133.333333333333,4,1,1,60,0,0
392290,-80,4,1,1,60,0,1
401665,-80,4,1,0,45,0,1
401743,-80,4,1,1,60,0,1
412290,-80,4,2,1,60,0,0
413540,-80,4,1,1,60,0,1
413852,-100,4,1,1,60,0,0
422915,-100,4,1,0,45,0,0
422993,-100,4,1,1,60,0,0
431040,-100,4,1,0,45,0,0
431118,-100,4,1,1,60,0,0
431665,-100,4,1,0,45,0,0
431743,-100,4,1,1,60,0,0
437290,-100,4,2,1,45,0,0
437602,-100,4,2,1,40,0,0
437915,-100,4,2,1,35,0,0
438227,-100,4,2,1,30,0,0
438540,-100,4,2,1,25,0,0
438852,-100,4,2,1,20,0,0
439165,-100,4,2,1,15,0,0
439477,-100,4,2,1,10,0,0
439790,-100,4,2,1,5,0,0
450925,315.789473684211,4,1,3,60,1,0
453451,-100,4,2,3,60,0,0
455346,-100,4,1,3,60,0,0
461188,-133.333333333333,4,2,3,60,0,0
470661,-133.333333333333,4,1,3,60,0,0
476188,-133.333333333333,4,2,3,60,0,0
479661,-133.333333333333,4,1,3,60,0,0
481240,-133.333333333333,4,2,3,60,0,0
491030,-200,4,2,3,60,0,0
491346,-100,4,1,3,60,0,1
500030,-100,4,1,3,60,0,0
501451,-100,4,1,3,60,0,1
509030,-100,4,1,3,60,0,0
516609,-100,4,2,3,60,0,0
520240,-100,4,1,3,60,0,0
521661,-100,4,1,3,60,0,1
529240,-100,4,1,3,60,0,0
536819,-100,4,2,3,60,0,0
538714,-100,4,1,3,60,0,0
544398,-100,4,2,3,60,0,0
561816,375,4,2,3,60,1,0
573066,-100,4,2,3,60,0,0
573816,-100,4,2,3,60,0,0
584691,-100,4,2,3,60,0,0
606066,-200,4,2,3,60,0,0
607191,-133.333333333333,4,2,3,60,0,0
607566,-100,4,2,3,60,0,0
607941,-80,4,2,3,60,0,0
609066,-100,4,2,3,60,0,0
609816,-100,4,2,3,60,0,1
633066,-100,4,2,3,60,0,0
645066,-200,4,2,3,60,0,0
650316,-133.333333333333,4,2,3,60,0,0
656128,-200,4,2,3,60,0,0
657816,-100,4,2,3,60,0,0
678066,-200,4,2,3,60,0,0
679191,-133.333333333333,4,2,3,60,0,0
679566,-100,4,2,3,60,0,0
679941,-80,4,2,3,60,0,0
680316,-100,4,2,3,60,0,0
681816,-100,4,2,3,60,0,1
705066,-100,4,2,3,60,0,0
708816,-200,4,2,3,60,0,0
709191,-133.333333333333,4,2,3,60,0,0
709566,-100,4,2,3,60,0,0
709941,-80,4,2,3,60,0,0
710316,-100,4,2,3,60,0,0
716691,-100,4,2,3,60,0,0
717816,-100,4,2,3,60,0,0
733566,-133.333333333333,4,2,3,60,0,0
738816,-133.333333333333,4,2,3,60,0,0
740316,-100,4,2,3,60,0,1
760566,-100,4,2,3,60,0,0

[Colours]
Combo1 : 255,140,198
Combo2 : 102,255,102
Combo3 : 255,255,128

[HitObjects]
67,125,561816,5,0,1:0:0:0:
67,125,562003,1,0,1:0:0:0:
384,36,562566,2,0,P|406:82|438:127,1,100,0|2,0:0|0:0,0:0:0:0:
400,227,562941,2,0,P|378:181|346:136,1,100,4|8,0:3|0:3,0:0:0:0:
418,321,563316,5,0,1:0:0:0:
418,321,563503,1,0,1:0:0:0:
329,38,564066,2,0,P|307:84|275:129,1,100,0|2,0:0|0:0,0:0:0:0:
313,229,564441,2,0,P|335:183|367:138,1,100,8|4,0:3|0:3,0:0:0:0:
295,323,564816,5,0,1:0:0:0:
295,323,565003,1,0,1:0:0:0:
160,38,565566,2,0,P|182:84|214:129,1,100,0|2,0:0|0:0,0:0:0:0:
176,229,565941,2,0,P|154:183|122:138,1,100,4|4,0:3|0:3,0:0:0:0:
177,334,566316,5,0,1:0:0:0:
177,334,566691,1,0,1:0:0:0:
265,288,566878,1,0,1:0:0:0:
353,335,567066,2,0,P|360:285|342:231,1,100,0|0,1:0|1:0,0:0:0:0:
444,219,567441,2,0,P|416:173|368:142,1,100,0|0,1:0|1:0,0:0:0:0:
262,123,567816,5,4,0:0:0:0:
349,221,568003,1,0,0:0:0:0:
385,72,568191,2,0,P|440:74|498:64,1,100,0|2,0:0|0:0,0:0:0:0:
261,201,568566,6,0,P|206:199|148:209,1,100,8|2,0:0|0:0,0:0:0:0:
132,210,568847,1,0,0:0:0:0:
103,218,568941,1,0,0:0:0:0:
16,291,569128,1,2,0:0:0:0:
183,36,569316,6,0,L|131:122,1,100,0|8,0:0|0:0,0:0:0:0:
49,160,569691,1,0,0:0:0:0:
60,64,569878,1,2,0:0:0:0:
5,228,570066,6,0,L|109:282,1,100,8|2,0:0|0:0,0:0:0:0:
120,288,570347,1,0,0:0:0:0:
146,302,570441,1,0,0:0:0:0:
259,242,570628,1,10,0:0:0:0:
345,333,570816,6,0,P|380:285|387:241,1,100,4|0,0:0|0:0,0:0:0:0:
389,215,571097,1,0,0:0:0:0:
384,185,571191,1,0,0:0:0:0:
287,259,571378,6,0,P|278:200|293:158,1,100,8|0,0:3|0:0,0:0:0:0:
303,134,571659,1,0,0:0:0:0:
322,110,571753,1,0,0:0:0:0:
470,258,571941,6,0,P|476:198|460:157,1,100,8|0,0:3|0:0,0:0:0:0:
450,134,572222,1,0,0:0:0:0:
430,110,572316,1,0,0:0:0:0:
211,134,572503,6,0,P|233:78|266:49,1,100,4|0,0:3|0:0,0:0:0:0:
287,33,572784,1,0,0:0:0:0:
316,22,572878,1,0,0:0:0:0:
424,60,573066,5,0,0:0:0:0:
317,158,573441,1,0,0:0:0:0:
434,266,573816,6,0,P|351:256|266:350,1,200,4|2,0:0|0:0,0:0:0:0:
376,365,574378,1,0,1:0:0:0:
450,183,574566,2,0,P|455:133|447:83,2,100,8|0|2,0:0|0:0|0:0,0:0:0:0:
367,131,575128,1,0,1:0:0:0:
291,68,575316,6,0,P|240:74|177:62,1,100
10,139,575691,2,0,P|59:119|103:73,1,100,2|0,0:0|1:0,0:0:0:0:
131,185,576066,2,0,L|142:299,1,100,8|2,0:0|0:0,0:0:0:0:
202,365,576441,1,2,0:0:0:0:
53,287,576628,1,0,0:0:0:0:
217,211,576816,6,0,P|295:255|407:199,1,200,0|2,1:0|0:0,0:0:0:0:
432,121,577378,1,0,1:0:0:0:
300,104,577566,2,0,L|190:118,1,100,8|0,0:0|0:0,0:0:0:0:
348,328,577941,2,0,L|458:314,1,100,2|0,0:0|1:0,0:0:0:0:
310,252,578316,5,0,0:0:0:0:
136,334,578691,1,2,0:0:0:0:
15,173,579066,1,8,0:0:0:0:
144,206,579253,1,2,0:0:0:0:
28,254,579441,1,2,0:0:0:0:
91,141,579628,1,0,0:0:0:0:
103,273,579816,6,0,P|182:296|256:210,1,200,0|2,1:0|0:0,0:0:0:0:
223,45,580378,1,0,1:0:0:0:
165,115,580566,2,0,P|160:169|174:217,2,100,8|0|2,0:0|0:0|0:0,0:0:0:0:
250,157,581128,1,0,1:0:0:0:
307,86,581316,6,0,B|414:120|392:45|509:94,1,200,0|2,0:0|0:0,0:0:0:0:
355,13,581878,1,0,1:0:0:0:
448,166,582066,2,0,P|463:223|452:275,1,100,8|2,0:0|0:0,0:0:0:0:
373,223,582441,2,0,P|363:273|332:314,1,100,2|0,0:0|0:0,0:0:0:0:
280,226,582816,6,0,P|256:144|304:42,1,200,0|2,1:0|0:0,0:0:0:0:
133,87,583378,2,0,P|75:96|17:86,2,100,0|8|0,1:0|0:0|0:0,0:0:0:0:
213,18,583941,1,2,0:0:0:0:
213,18,584128,1,0,1:0:0:0:
213,18,584691,5,8,0:0:0:0:
168,146,584878,1,8,0:0:0:0:
282,231,585066,1,0,1:3:0:0:
391,151,585253,1,0,1:3:0:0:
355,17,585441,2,0,P|412:39|460:40,1,100,8|4,1:3|1:3,0:0:0:0:
318,91,585816,6,0,L|214:112,1,100,4|0,1:2|0:0,0:0:0:0:
96,94,586191,1,0,0:0:0:0:
222,227,586378,1,0,1:0:0:0:
12,220,586566,2,0,L|116:199,1,100,2|0,0:3|0:0,0:0:0:0:
197,314,586941,1,0,0:0:0:0:
110,287,587128,1,0,1:0:0:0:
281,257,587316,6,0,P|296:311|290:365,1,100,0|2,0:0|0:3,0:0:0:0:
285,155,587691,2,0,P|270:101|276:47,1,100,0|0,0:0|1:0,0:0:0:0:
349,207,588066,2,0,P|403:202|456:218,1,100,2|0,0:3|0:0,0:0:0:0:
392,282,588441,1,0,0:0:0:0:
490,152,588628,1,0,0:0:0:0:
319,128,588816,6,0,P|227:141|171:41,1,200,0|0,1:0|0:0,0:0:0:0:
261,57,589378,1,0,1:0:0:0:
280,226,589566,2,0,L|294:334,2,100,2|0|0,0:3|0:0|0:0,0:0:0:0:
261,57,590128,1,0,1:0:0:0:
206,214,590316,6,0,P|177:261|131:285,1,100,0|2,0:0|0:3,0:0:0:0:
342,189,590691,2,0,P|381:222|447:230,1,100,0|0,0:0|1:0,0:0:0:0:
417,147,591066,1,2,0:3:0:0:
348,289,591253,1,2,0:3:0:0:
272,157,591441,2,0,L|170:132,1,100,0|2,0:0|0:3,0:0:0:0:
42,188,591816,6,0,P|113:259|204:219,1,200,4|0,1:2|0:0,0:0:0:0:
272,157,592378,1,0,1:0:0:0:
338,80,592566,2,0,P|421:49|492:120,1,200,2|0,0:3|0:0,0:0:0:0:
406,141,593128,1,0,1:0:0:0:
349,216,593316,6,0,P|347:267|353:324,2,100,0|2|0,0:0|0:3|0:0,0:0:0:0:
272,157,593878,1,0,0:0:0:0:
196,108,594066,2,0,P|198:57|192:0,1,100,2|0,0:3|0:0,0:0:0:0:
82,95,594441,2,0,P|80:146|86:203,1,100,0|2,0:0|0:3,0:0:0:0:
58,292,594816,6,0,P|131:348|215:281,1,200,4|0,1:2|0:0,0:0:0:0:
226,204,595378,1,0,0:0:0:0:
135,162,595566,2,0,P|131:211|133:265,1,100,2|0,0:3|0:0,0:0:0:0:
218,121,595941,1,0,0:0:0:0:
97,79,596128,2,0,P|66:120|45:176,1,100
175,296,596503,5,8,0:0:0:0:
218,121,596691,1,8,0:0:0:0:
73,258,596878,1,8,0:0:0:0:
260,217,597066,6,0,L|276:315,1,100,0|0,1:0|1:3,0:0:0:0:
363,219,597441,1,8,1:3:0:0:
298,141,597628,1,4,1:3:0:0:
285,52,597816,6,0,L|397:83,1,100,2|0,1:2|0:0,0:0:0:0:
490,118,598191,1,0,0:0:0:0:
298,141,598378,6,0,L|368:226,1,100,2|0,1:2|0:0,0:0:0:0:
433,306,598753,1,0,0:0:0:0:
239,204,598941,5,2,1:2:0:0:
239,235,599503,1,0,0:0:0:0:
96,277,599691,1,0,0:0:0:0:
196,379,599878,1,8,1:2:0:0:
183,169,600066,6,0,P|162:225|170:275,1,100,0|0,1:0|1:0,0:0:0:0:
94,156,600441,1,4,1:3:0:0:
220,81,600628,1,4,1:3:0:0:
115,77,600816,6,0,P|59:80|16:61,1,100,2|0,1:2|0:0,0:0:0:0:
175,18,601191,1,0,0:0:0:0:
155,215,601378,6,0,P|211:218|254:199,1,100,2|0,1:2|0:0,0:0:0:0:
95,156,601753,1,0,0:0:0:0:
182,301,601941,5,2,1:2:0:0:
198,317,602503,1,0,1:3:0:0:
302,236,602691,1,0,1:3:0:0:
326,252,602784,1,0,1:0:0:0:
355,259,602878,1,0,1:0:0:0:
385,260,602972,1,0,1:0:0:0:
414,255,603066,5,0,1:3:0:0:
377,166,603253,1,8,0:0:0:0:
362,339,603441,1,8,0:3:0:0:
508,270,603628,1,4,0:3:0:0:
473,180,603816,5,2,0:0:0:0:
306,209,604566,1,2,0:0:0:0:
176,88,605316,1,2,0:0:0:0:
14,90,606066,6,0,P|47:170|123:182,1,150,4|0,0:0|0:0,0:0:0:0:
186,160,606816,6,0,P|194:195|193:232,1,50,4|0,0:0|0:0,0:0:0:0:
257,117,607191,2,0,P|274:165|277:204,1,75.0000028610231
314,68,607566,2,0,P|347:121|353:182,1,100
378,17,607941,2,0,P|417:76|428:146,1,125
346,253,608316,1,0,0:0:0:0:
346,253,609066,5,0,0:0:0:0:
480,339,609441,1,0,0:0:0:0:
346,253,609816,6,0,P|256:239|237:242,1,100,4|2,1:2|0:0,0:0:0:0:
420,197,610191,1,0,0:0:0:0:
410,347,610378,1,0,1:0:0:0:
420,197,610566,6,0,P|344:152|259:150,1,150,10|0,0:0|0:0,0:0:0:0:
238,93,610941,2,0,P|179:102|128:129,1,100,0|0,1:0|1:0,0:0:0:0:
52,192,611316,6,0,P|47:141|10:85,1,100,0|10,1:0|0:0,0:0:0:0:
134,279,611691,2,0,P|154:224|198:188,1,100,0|2,0:0|1:2,0:0:0:0:
24,302,612066,5,10,0:0:0:0:
175,351,612253,1,0,0:0:0:0:
129,192,612441,1,0,0:0:0:0:
90,351,612628,1,0,0:0:0:0:
247,313,612816,6,0,P|310:318|361:298,1,100,4|2,1:2|0:0,0:0:0:0:
396,166,613191,1,0,0:0:0:0:
420,353,613378,1,0,1:0:0:0:
500,238,613566,6,0,P|446:249|390:241,1,100,10|0,0:0|0:0,0:0:0:0:
286,145,613941,2,0,L|322:248,1,100,0|0,1:0|1:0,0:0:0:0:
211,182,614316,6,0,P|149:185|108:201,1,100,0|10,1:0|0:0,0:0:0:0:
181,276,614691,1,0,0:0:0:0:
228,89,614878,1,2,1:2:0:0:
70,122,615066,6,0,P|37:166|29:220,1,100,10|0,0:0|0:0,0:0:0:0:
48,35,615441,1,8,0:0:0:0:
76,44,615534,1,8,0:0:0:0:
105,48,615628,1,10,0:0:0:0:
135,49,615722,1,8,0:0:0:0:
165,49,615816,6,0,P|234:45|265:52,1,100,12|2,1:2|0:0,0:0:0:0:
369,45,616191,1,0,0:0:0:0:
239,162,616378,1,0,1:0:0:0:
430,144,616566,6,0,P|361:148|330:141,1,100,10|0,0:0|0:0,0:0:0:0:
369,45,616941,1,0,1:0:0:0:
389,242,617128,1,0,1:0:0:0:
488,80,617316,6,0,P|500:136|490:197,1,100,0|10,1:0|0:0,0:0:0:0:
307,184,617691,1,0,0:0:0:0:
419,134,617878,1,2,1:2:0:0:
236,123,618066,6,0,P|224:179|234:240,1,100,10|0,0:0|0:0,0:0:0:0:
329,258,618441,1,0,0:0:0:0:
185,315,618628,1,0,0:0:0:0:
338,342,618816,6,0,P|390:338|431:307,1,100,4|0,1:2|0:0,0:0:0:0:
449,289,619097,1,2,0:0:0:0:
466,264,619191,1,2,1:2:0:0:
217,113,619378,5,2,1:2:0:0:
223,142,619472,1,0,0:0:0:0:
235,169,619566,2,0,P|264:212|311:232,1,100,0|0,1:0|0:0,0:0:0:0:
337,239,619847,1,2,0:0:0:0:
367,241,619941,1,2,1:2:0:0:
296,19,620128,5,2,1:2:0:0:
291,48,620222,1,0,0:0:0:0:
285,77,620316,2,0,P|268:130|228:183,1,100,4|2,1:2|0:0,0:0:0:0:
344,170,620691,2,0,P|359:222|385:267,1,100,0|2,0:0|0:0,0:0:0:0:
281,303,621066,1,2,0:0:0:0:
371,338,621253,1,8,0:3:0:0:
192,268,621441,5,4,0:3:0:0:
366,236,621628,1,4,0:3:0:0:
181,365,621816,2,0,L|66:373,1,100
207,194,622191,5,4,0:2:0:0:
371,338,622378,1,0,0:0:0:0:
124,292,622566,2,0,L|26:246,1,100,4|0,0:2|0:0,0:0:0:0:
87,118,622941,5,0,0:0:0:0:
118,201,623128,1,0,0:0:0:0:
176,127,623316,2,0,P|226:98|272:20,1,150,0|0,1:0|0:0,0:0:0:0:
298,85,623691,2,0,P|324:132|369:151,1,100,0|0,0:0|1:0,0:0:0:0:
381,61,624066,5,10,0:0:0:0:
333,219,624253,1,0,0:0:0:0:
436,117,624441,1,0,0:0:0:0:
265,182,624628,1,0,0:0:0:0:
311,357,624816,6,0,P|384:346|421:235,1,200,4|0,1:2|0:0,0:0:0:0:
355,148,625378,1,2,1:2:0:0:
266,207,625566,6,0,P|298:254|347:268,1,100,10|0,0:2|0:0,0:0:0:0:
437,85,625941,2,0,P|405:38|356:24,1,100,0|0,1:0|1:0,0:0:0:0:
265,110,626316,5,0,1:0:0:0:
429,203,626691,1,0,1:0:0:0:
210,263,627066,2,0,P|316:236|407:311,1,200,0|0,1:0|0:0,0:0:0:0:
452,360,627628,5,0,0:0:0:0:
325,327,627816,2,0,L|214:357,1,100,4|2,1:2|0:2,0:0:0:0:
68,347,628191,5,0,0:0:0:0:
132,271,628378,1,0,1:0:0:0:
65,195,628566,2,0,L|56:87,1,100,2|0,0:2|0:0,0:0:0:0:
29,272,628941,5,0,1:0:0:0:
169,344,629128,1,0,1:0:0:0:
268,236,629316,2,0,P|324:239|368:262,1,100,0|2,1:0|0:2,0:0:0:0:
185,207,629691,2,0,P|216:166|271:149,1,100,0|2,0:0|1:2,0:0:0:0:
203,294,630066,6,0,P|120:266|108:156,1,200,2|0,0:2|0:0,0:0:0:0:
139,70,630628,1,0,0:0:0:0:
259,33,630816,6,0,P|311:37|352:68,1,100,4|0,1:2|0:0,0:0:0:0:
370,86,631097,1,2,0:0:0:0:
387,111,631191,1,2,1:2:0:0:
138,262,631378,5,2,1:2:0:0:
144,233,631472,1,0,0:0:0:0:
156,206,631566,2,0,P|185:163|232:143,1,100,0|0,1:0|0:0,0:0:0:0:
258,136,631847,1,2,0:0:0:0:
288,134,631941,1,2,1:2:0:0:
217,356,632128,5,2,1:2:0:0:
212,327,632222,1,0,0:0:0:0:
206,298,632316,2,0,P|189:245|149:192,1,100,0|2,1:0|0:2,0:0:0:0:
265,205,632691,2,0,P|280:153|306:108,1,100,0|2,0:0|0:0,0:0:0:0:
202,72,633066,1,2,0:0:0:0:
426,176,633441,5,0,0:0:0:0:
435,224,633534,1,0,0:0:0:0:
423,272,633628,1,0,0:0:0:0:
390,309,633722,1,0,0:0:0:0:
343,326,633816,1,4,0:0:0:0:
330,338,645066,5,0,0:0:0:0:
404,271,645441,1,0,0:0:0:0:
323,212,645816,2,0,L|318:96,1,100,2|0,0:0|0:0,0:0:0:0:
254,73,646378,5,0,0:0:0:0:
185,104,646566,2,0,P|127:108|78:77,1,100
29,132,647128,5,0,0:0:0:0:
89,176,647316,2,0,P|122:184|147:186,1,50,2|0,0:0|0:0,0:0:0:0:
212,175,647691,2,0,P|241:162|259:145,1,50
317,108,648066,2,0,P|373:91|431:107,1,100
456,159,648628,5,0,0:0:0:0:
469,232,648816,2,0,L|457:334,1,100,2|0,0:0|0:0,0:0:0:0:
385,308,649378,5,0,0:0:0:0:
315,337,649566,2,0,P|254:324|211:335,1,100
144,315,650128,1,0,0:0:0:0:
68,316,650316,5,2,0:0:0:0:
119,242,650503,1,0,0:0:0:0:
208,229,650691,1,0,0:0:0:0:
286,272,650878,1,0,0:0:0:0:
425,178,651066,5,0,0:0:0:0:
365,332,651253,1,0,0:0:0:0:
321,177,651441,1,0,0:0:0:0:
446,275,651628,1,0,0:0:0:0:
286,272,651816,6,0,P|217:303|140:285,1,150.000005722046,2|0,0:0|0:0,0:0:0:0:
148,199,652378,1,0,0:0:0:0:
69,153,652566,2,0,P|71:112|72:69,1,75.0000028610231
65,263,652941,2,0,P|63:304|62:347,1,75.0000028610231
148,199,653316,6,0,P|222:178|287:219,1,150.000005722046,2|0,0:0|0:0,0:0:0:0:
319,294,653878,1,0,0:0:0:0:
382,230,654066,2,0,P|429:227|473:228,1,75.0000028610231
230,282,654441,2,0,P|183:279|139:280,1,75.0000028610231
256,364,654816,6,0,P|328:368|408:348,1,150.000005722046,2|0,0:0|0:0,0:0:0:0:
389,194,655378,2,0,P|317:190|237:210,1,150.000005722046,2|0,0:0|0:0,0:0:0:0:
168,260,655941,1,2,0:0:0:0:
77,234,656128,6,0,P|85:310|147:351,1,150,2|8,0:0|1:2,0:0:0:0:
183,130,657066,1,0,0:0:0:0:
304,202,657441,1,0,0:0:0:0:
408,92,657816,6,0,P|461:166|408:263,1,200,4|0,1:2|0:0,0:0:0:0:
322,308,658378,1,0,1:0:0:0:
271,174,658566,2,0,P|332:178|378:176,1,100,2|0,0:3|0:0,0:0:0:0:
263,96,658941,1,0,1:0:0:0:
215,243,659128,1,0,1:0:0:0:
117,129,659316,6,0,P|116:76|126:25,1,100,0|2,1:0|0:3,0:0:0:0:
116,223,659691,2,0,P|117:276|107:327,1,100,0|0,0:0|1:0,0:0:0:0:
189,176,660066,2,0,P|264:170|344:265,1,200,2|0,0:3|0:0,0:0:0:0:
237,273,660628,1,0,0:0:0:0:
287,365,660816,6,0,P|212:371|132:276,1,200,0|0,1:0|0:0,0:0:0:0:
108,181,661378,1,0,1:0:0:0:
235,175,661566,2,0,P|243:232|235:279,1,100,2|0,0:3|0:0,0:0:0:0:
171,117,661941,2,0,P|163:60|171:13,1,100,0|0,1:0|1:0,0:0:0:0:
255,74,662316,6,0,P|310:87|355:71,1,100,0|2,1:0|0:3,0:0:0:0:
381,155,662691,2,0,P|425:122|439:68,1,100,0|0,0:0|1:0,0:0:0:0:
464,198,663066,2,0,L|464:303,1,100,2|2,0:3|0:3,0:0:0:0:
364,371,663441,1,0,1:0:0:0:
298,236,663628,1,2,0:3:0:0:
207,346,663816,6,0,P|119:362|54:277,1,200,4|0,1:2|0:0,0:0:0:0:
150,263,664378,1,0,1:0:0:0:
94,182,664566,2,0,P|182:166|247:251,1,200,2|0,0:3|1:0,0:0:0:0:
150,263,665128,1,0,1:0:0:0:
23,141,665316,6,0,P|17:90|24:41,1,100,0|2,1:0|0:3,0:0:0:0:
197,111,665691,1,0,0:0:0:0:
40,242,665878,1,0,1:0:0:0:
230,207,666066,2,0,P|236:258|229:307,1,100,2|0,0:3|0:0,0:0:0:0:
274,129,666441,2,0,P|315:98|361:79,1,100
424,160,666816,6,0,L|437:264,1,100,4|0,1:2|0:0,0:0:0:0:
459,365,667191,1,0,0:0:0:0:
343,211,667378,2,0,P|344:270|334:313,2,100,0|2|0,1:0|0:3|0:0,0:0:0:0:
253,253,667941,1,0,1:0:0:0:
253,253,668128,1,0,1:0:0:0:
187,310,668316,5,0,0:0:0:0:
270,166,668503,1,2,0:3:0:0:
285,331,668691,1,8,1:2:0:0:
172,204,668878,1,0,1:0:0:0:
82,352,669066,5,8,1:3:0:0:
66,179,669253,1,8,1:3:0:0:
187,310,669441,1,4,1:3:0:0:
11,271,669628,1,4,1:3:0:0:
134,120,669816,6,0,P|199:127|267:114,1,100,2|0,1:2|0:0,0:0:0:0:
342,88,670191,1,0,0:0:0:0:
486,224,670378,6,0,P|421:231|353:218,1,100,2|0,1:2|0:0,0:0:0:0:
278,192,670753,1,0,0:0:0:0:
187,310,670941,5,2,1:2:0:0:
187,310,671503,1,0,0:0:0:0:
271,278,671691,1,10,1:2:0:0:
254,362,671878,1,10,1:2:0:0:
229,199,672066,5,8,1:3:0:0:
330,339,672253,1,8,1:3:0:0:
108,302,672441,5,4,1:3:0:0:
351,260,672628,1,4,1:3:0:0:
135,209,672816,6,0,P|141:161|133:98,1,100,2|0,1:2|0:0,0:0:0:0:
100,18,673191,1,0,0:0:0:0:
226,154,673378,6,0,P|232:202|224:265,1,100,6|0,1:2|0:0,0:0:0:0:
191,345,673753,1,0,0:0:0:0:
320,190,673941,5,6,1:2:0:0:
320,190,674503,1,0,1:0:0:0:
383,91,674691,1,0,1:0:0:0:
410,101,674784,1,0,1:0:0:0:
433,119,674878,1,0,1:0:0:0:
453,141,674972,1,0,1:0:0:0:
468,166,675066,6,0,P|486:217|486:281,1,100,0|0,1:0|0:0,0:0:0:0:
399,234,675441,2,0,P|397:293|382:337,1,100,8|4,0:3|0:3,0:0:0:0:
316,262,675816,5,2,0:0:0:0:
289,78,676566,1,2,0:0:0:0:
106,46,677316,1,2,0:0:0:0:
19,209,678066,6,0,P|102:221|135:289,1,150,4|0,0:0|0:0,0:0:0:0:
147,343,678816,6,0,P|115:348|89:338,1,50,4|0,0:0|0:0,0:0:0:0:
23,345,679191,2,0,P|28:302|57:269,1,75.0000028610231
36,201,679566,2,0,P|88:201|130:231,1,100
193,176,679941,2,0,P|215:253|192:304,1,125
120,368,680316,1,0,0:0:0:0:
120,368,681066,5,0,0:0:0:0:
216,258,681441,1,0,0:0:0:0:
131,127,681816,6,0,P|193:123|236:99,1,100,4|2,1:2|0:0,0:0:0:0:
313,33,682191,1,0,0:0:0:0:
301,184,682378,1,0,1:0:0:0:
473,148,682566,6,0,P|417:139|375:108,1,100,10|0,0:0|0:0,0:0:0:0:
469,67,682941,1,0,1:0:0:0:
391,216,683128,1,0,1:0:0:0:
498,336,683316,6,0,P|414:313|345:340,1,150,0|2,1:0|0:0,0:0:0:0:
295,366,683691,2,0,P|313:314|309:261,1,100,0|2,0:0|1:2,0:0:0:0:
242,171,684066,5,10,0:0:0:0:
181,291,684253,1,0,0:0:0:0:
316,191,684441,1,0,0:0:0:0:
174,211,684628,1,8,0:0:0:0:
94,100,684816,6,0,P|44:128|0:135,1,100,4|2,1:2|0:0,0:0:0:0:
80,210,685191,2,0,P|108:260|115:304,1,100,0|0,0:0|1:0,0:0:0:0:
30,335,685566,5,10,0:0:0:0:
174,211,685753,1,0,0:0:0:0:
20,258,685941,1,0,1:0:0:0:
211,280,686128,1,0,1:0:0:0:
134,138,686316,6,0,P|137:85|134:31,1,100,0|10,1:0|0:0,0:0:0:0:
48,102,686691,1,0,0:0:0:0:
220,139,686878,1,2,1:2:0:0:
94,212,687066,2,0,P|91:265|94:319,1,100,10|0,0:0|0:0,0:0:0:0:
248,213,687441,5,8,0:0:0:0:
278,204,687534,1,8,0:0:0:0:
308,203,687628,1,8,0:0:0:0:
338,207,687722,1,8,0:0:0:0:
367,210,687816,2,0,P|390:266|387:323,1,100,4|2,1:2|0:0,0:0:0:0:
424,144,688191,5,0,0:0:0:0:
332,127,688378,1,0,1:0:0:0:
236,147,688566,2,0,P|213:203|216:260,1,100,10|0,0:0|0:0,0:0:0:0:
182,78,688941,5,0,1:0:0:0:
274,61,689128,1,0,1:0:0:0:
370,81,689316,2,0,P|393:137|390:194,1,100,0|10,1:0|0:0,0:0:0:0:
459,354,689691,2,0,P|436:298|439:241,1,100,0|2,0:0|1:2,0:0:0:0:
353,291,690066,6,0,L|237:332,1,100,10|0,0:0|0:0,0:0:0:0:
122,357,690441,1,0,0:0:0:0:
202,246,690628,1,0,0:0:0:0:
58,292,690816,6,0,P|53:235|57:187,1,100,4|0,1:2|0:0,0:0:0:0:
62,162,691097,1,2,0:0:0:0:
68,132,691191,1,2,1:2:0:0:
187,27,691378,5,2,1:2:0:0:
189,56,691472,1,0,0:0:0:0:
191,85,691566,2,0,P|196:142|192:190,1,100,0|0,1:0|0:0,0:0:0:0:
187,215,691847,1,2,0:2:0:0:
181,245,691941,1,2,1:2:0:0:
277,360,692128,5,2,1:2:0:0:
272,330,692222,1,0,0:0:0:0:
272,299,692316,2,0,P|272:247|280:197,1,100,4|2,1:2|0:0,0:0:0:0:
362,255,692691,1,0,0:0:0:0:
186,315,692878,1,2,0:0:0:0:
228,135,693066,5,2,0:0:0:0:
362,167,693253,1,8,1:2:0:0:
145,196,693441,5,8,1:3:0:0:
295,60,693628,1,4,1:3:0:0:
362,255,693816,2,0,P|373:310|366:359,1,100,0|0,1:0|1:0,0:0:0:0:
168,238,694191,5,4,0:0:0:0:
232,106,694378,1,0,0:0:0:0:
351,171,694566,2,0,P|448:183|495:155,1,150,4|0,0:0|0:0,0:0:0:0:
463,223,694941,2,0,P|454:275|456:329,1,100,0|8,0:0|0:0,0:0:0:0:
356,270,695316,6,0,P|259:258|212:286,1,150,0|2,1:0|0:0,0:0:0:0:
244,218,695691,2,0,P|253:166|251:112,1,100,0|2,0:0|1:2,0:0:0:0:
188,18,696066,5,10,0:2:0:0:
100,136,696253,1,0,0:0:0:0:
268,44,696441,1,0,0:0:0:0:
114,54,696628,1,8,0:0:0:0:
316,107,696816,6,0,P|312:168|325:216,1,100,0|2,1:0|0:2,0:0:0:0:
408,139,697191,1,0,0:0:0:0:
378,41,697378,1,0,1:0:0:0:
446,226,697566,6,0,L|482:329,1,100,10|0,0:0|0:0,0:0:0:0:
380,287,697941,2,0,L|375:386,1,100
317,226,698316,5,0,1:2:0:0:
468,162,698691,1,0,1:2:0:0:
255,105,699066,1,0,1:2:0:0:
483,26,699441,5,0,0:0:0:0:
343,26,699628,1,0,0:0:0:0:
307,161,699816,2,0,L|322:273,1,100,4|2,1:2|0:0,0:0:0:0:
414,86,700191,5,0,0:0:0:0:
274,86,700378,1,0,1:0:0:0:
238,221,700566,2,0,L|253:333,1,100,10|0,0:0|0:0,0:0:0:0:
345,145,700941,5,0,1:0:0:0:
205,145,701128,1,0,1:0:0:0:
169,280,701316,2,0,L|184:392,1,100,0|10,1:0|0:0,0:0:0:0:
86,306,701691,1,0,0:0:0:0:
117,212,701878,1,2,1:2:0:0:
144,123,702066,6,0,L|40:150,1,100,10|0,0:0|0:0,0:0:0:0:
181,35,702441,1,0,0:0:0:0:
239,112,702628,1,0,0:0:0:0:
297,39,702816,6,0,P|352:55|397:56,1,100,4|0,1:2|0:0,0:0:0:0:
424,55,703097,1,2,0:0:0:0:
453,49,703191,1,2,1:2:0:0:
255,134,703378,5,2,1:2:0:0:
227,145,703472,1,0,0:0:0:0:
198,155,703566,2,0,P|143:171|98:172,1,100,0|0,1:0|0:0,0:0:0:0:
71,171,703847,1,2,0:2:0:0:
42,165,703941,1,2,1:2:0:0:
240,276,704128,5,2,1:2:0:0:
288,288,704222,1,0,0:0:0:0:
336,277,704316,1,0,1:0:0:0:
421,156,704503,1,2,0:0:0:0:
398,325,704691,1,0,0:0:0:0:
362,111,704878,1,2,0:0:0:0:
326,356,705066,1,2,0:0:0:0:
428,79,705816,6,0,P|310:129|256:67,1,200,0|0,1:0|0:0,0:0:0:0:
346,49,706378,1,0,1:0:0:0:
480,144,706566,6,0,P|426:196|338:212,1,150,10|0,0:0|0:0,0:0:0:0:
284,209,706941,2,0,P|288:267|283:325,1,100,0|0,1:0|1:0,0:0:0:0:
206,264,707316,5,0,1:0:0:0:
317,137,707503,1,10,0:0:0:0:
158,132,707691,2,0,P|154:74|159:16,1,100,0|2,0:0|1:2,0:0:0:0:
218,184,708066,5,10,0:0:0:0:
191,197,708159,1,0,0:0:0:0:
162,205,708253,1,0,0:0:0:0:
131,206,708347,1,0,0:0:0:0:
103,193,708441,1,0,0:0:0:0:
80,173,708534,1,0,0:0:0:0:
65,146,708628,1,0,0:0:0:0:
61,116,708722,1,0,0:0:0:0:
62,85,708816,6,0,L|76:28,1,50,2|0,0:0|0:0,0:0:0:0:
151,63,709191,2,0,L|157:142,1,75.0000028610231,2|0,0:0|0:0,0:0:0:0:
244,184,709566,2,0,L|266:75,1,100,2|0,0:0|0:0,0:0:0:0:
291,74,709847,1,2,0:0:0:0:
327,65,709941,2,0,L|353:202,1,125,2|2,0:0|0:0,0:0:0:0:
490,313,710316,6,0,P|430:334|389:325,1,100,8|0,1:2|0:0,0:0:0:0:
367,315,710597,1,2,0:0:0:0:
339,303,710691,2,0,P|286:288|219:301,1,100,0|2,1:0|1:2,0:0:0:0:
213,302,710972,1,0,0:0:0:0:
185,313,711066,1,10,1:2:0:0:
155,317,711159,1,0,0:0:0:0:
124,315,711253,1,8,1:3:0:0:
95,305,711347,1,0,0:0:0:0:
70,286,711441,2,0,L|47:237,3,50,4|0|4|0,1:3|0:0|1:3|0:0,0:0:0:0:
70,220,711816,6,0,P|92:156|83:67,1,150,4|2,1:2|0:0,0:0:0:0:
67,51,712191,2,0,P|120:61|170:42,1,100,0|2,0:0|1:2,0:0:0:0:
191,39,712472,1,0,0:0:0:0:
220,34,712566,1,10,0:2:0:0:
249,34,712659,1,2,0:2:0:0:
278,38,712753,1,0,0:0:0:0:
307,45,712847,1,2,0:2:0:0:
336,52,712941,1,2,1:2:0:0:
454,56,713128,6,0,L|485:45,2,33.3333333333333,2|0|0,1:2|0:0|0:0,0:0:0:0:
454,56,713316,2,0,L|462:161,1,100,0|10,1:0|0:0,0:0:0:0:
375,144,713691,1,0,0:0:0:0:
346,134,713784,1,0,0:0:0:0:
315,132,713878,1,2,1:2:0:0:
285,139,713972,1,0,0:0:0:0:
258,152,714066,1,10,0:0:0:0:
232,167,714159,1,2,0:0:0:0:
202,169,714253,1,0,0:0:0:0:
172,164,714347,1,2,0:0:0:0:
143,154,714441,2,0,P|87:143|21:156,1,100,2|2,0:0|0:0,0:0:0:0:
84,232,714816,6,0,L|101:334,1,100,0|2,1:0|0:0,0:0:0:0:
196,365,715191,2,0,L|179:263,1,100,0|2,0:0|1:2,0:0:0:0:
208,275,715472,1,0,0:0:0:0:
238,274,715566,1,8,0:0:0:0:
267,269,715659,1,0,0:0:0:0:
295,259,715753,1,2,0:0:0:0:
322,247,715847,1,0,0:0:0:0:
350,236,715941,1,0,0:0:0:0:
379,233,716034,1,0,0:0:0:0:
408,237,716128,1,2,0:0:0:0:
436,245,716222,1,0,0:0:0:0:
463,257,716316,1,4,1:3:0:0:
375,328,716503,5,0,0:0:0:0:
375,328,716597,1,0,0:0:0:0:
375,328,716691,2,0,L|401:338,22,25,0|0|0|0|0|0|0|0|8|0|0|0|0|0|0|0|0|0|0|0|0|0|0,0:0|0:0|0:0|0:0|1:0|0:0|0:0|0:0|0:0|0:0|0:0|0:0|0:0|0:0|0:0|0:0|0:0|0:0|0:0|0:0|0:0|0:0|0:0,0:0:0:0:
375,328,717816,6,0,L|353:223,1,100,0|0,1:0|1:0,0:0:0:0:
158,233,718378,5,0,0:0:0:0:
284,236,718566,2,0,L|354:150,1,100,0|0,1:0|1:0,0:0:0:0:
329,39,718941,1,0,0:0:0:0:
202,44,719128,1,0,0:0:0:0:
304,117,719316,6,0,L|392:119,2,66.6666666666667,10|0|0,1:2|0:0|0:0,0:0:0:0:
233,151,719691,2,0,L|275:228,2,66.6666666666667,2|0|0,1:2|0:0|0:0,0:0:0:0:
166,115,720066,2,0,L|131:171,2,66.6666666666667,2|0|0,1:2|0:0|0:0,0:0:0:0:
172,36,720441,2,0,L|84:33,2,66.6666666666667,2|0|0,1:2|0:0|0:0,0:0:0:0:
172,36,720816,6,0,L|269:91,1,100,0|0,1:0|1:0,0:0:0:0:
358,144,721191,1,0,0:0:0:0:
331,27,721378,1,0,0:0:0:0:
271,156,721566,6,0,L|282:268,1,100,0|0,1:0|1:0,0:0:0:0:
299,367,721941,1,0,0:0:0:0:
360,267,722128,1,0,0:0:0:0:
147,349,722316,6,0,L|213:347,2,66.6666666666667,2|0|0,1:2|0:0|0:0,0:0:0:0:
173,211,722691,2,0,L|207:267,2,66.6666666666667,2|0|0,1:2|0:0|0:0,0:0:0:0:
306,174,723066,2,0,L|273:232,2,66.6666666666667,2|0|0,1:2|0:0|0:0,0:0:0:0:
412,264,723440,2,0,L|345:265,2,66.6666666666667,2|0|0,1:2|0:0|0:0,0:0:0:0:
373,367,723816,6,0,P|320:356|282:299,1,100,4|2,1:2|0:0,0:0:0:0:
306,174,724191,1,0,0:0:0:0:
455,341,724378,1,0,1:0:0:0:
394,162,724566,2,0,L|394:60,1,100,10|0,0:0|0:0,0:0:0:0:
483,141,724941,1,0,1:0:0:0:
353,248,725128,1,0,1:0:0:0:
482,361,725316,5,0,1:0:0:0:
426,230,725503,1,10,0:0:0:0:
300,308,725691,2,0,P|240:314|197:300,1,100,0|2,0:0|1:2,0:0:0:0:
111,292,726066,2,0,L|72:350,2,66.6666666666667,10|0|0,0:0|0:0|0:0,0:0:0:0:
124,200,726441,2,0,L|163:142,2,66.6666666666667
17,241,726816,6,0,P|42:143|8:53,1,200,4|0,1:2|0:0,0:0:0:0:
109,78,727378,1,0,1:0:0:0:
198,40,727566,2,0,L|304:37,1,100,10|0,0:0|0:0,0:0:0:0:
263,120,727941,2,0,L|365:139,1,100
431,71,728316,6,0,P|465:142|395:228,1,200,0|0,1:0|0:0,0:0:0:0:
302,206,728878,1,2,1:2:0:0:
203,212,729066,2,0,P|154:235|119:278,1,100,10|0,0:0|0:0,0:0:0:0:
204,122,729441,2,0,P|146:121|94:134,1,100
78,143,729722,1,0,0:0:0:0:
54,162,729816,1,4,0:2:0:0:
282,53,730191,5,0,0:0:0:0:
271,158,730378,1,0,1:0:0:0:
303,352,730566,5,10,0:0:0:0:
314,247,730753,1,0,0:0:0:0:
141,216,730941,5,0,1:0:0:0:
246,227,731128,1,0,1:0:0:0:
457,180,731316,6,0,P|402:181|349:173,1,100,0|10,1:0|0:0,0:0:0:0:
384,257,731691,1,0,0:0:0:0:
344,90,731878,1,2,1:2:0:0:
496,113,732066,1,10,0:0:0:0:
496,113,733566,5,0,0:0:0:0:
347,235,733941,1,0,0:0:0:0:
178,123,734316,5,0,0:0:0:0:
258,154,734503,1,0,0:0:0:0:
311,88,734691,1,0,0:0:0:0:
263,22,734878,1,0,0:0:0:0:
183,42,735066,2,0,P|121:81|60:67,1,112.500004291535,2|0,0:0|0:0,0:0:0:0:
47,71,735441,2,0,L|64:170,1,75.0000028610231
71,219,735816,5,0,0:0:0:0:
141,242,736003,1,0,0:0:0:0:
216,238,736191,1,0,0:0:0:0:
281,201,736378,1,0,0:0:0:0:
327,260,736566,1,2,0:0:0:0:
476,171,736941,5,0,0:0:0:0:
396,148,737128,1,0,0:0:0:0:
456,89,737316,1,2,0:0:0:0:
226,142,737691,5,0,0:0:0:0:
304,114,737878,1,0,0:0:0:0:
245,61,738066,2,0,L|149:62,1,75.0000028610231,2|0,0:0|0:0,0:0:0:0:
94,198,738441,2,0,L|190:199,1,75.0000028610231
327,260,738816,6,0,P|404:262|464:306,2,150.000005722046,0|0|0,1:0|1:0|1:0,0:0:0:0:
253,316,739753,1,0,0:0:0:0:
174,280,739941,2,0,L|90:298,1,75.0000028610231
66,216,740316,6,0,P|118:137|76:41,1,200,4|0,1:2|0:0,0:0:0:0:
20,125,740878,1,0,1:0:0:0:
194,64,741066,6,0,P|245:72|292:67,1,100,10|0,0:0|0:0,0:0:0:0:
399,22,741441,1,0,1:0:0:0:
329,177,741628,1,0,1:0:0:0:
508,128,741816,6,0,P|457:136|410:131,1,100,0|10,1:0|0:0,0:0:0:0:
453,216,742191,2,0,P|470:267|472:330,1,100,0|2,0:0|1:2,0:0:0:0:
382,290,742566,1,10,0:0:0:0:
44,296,742941,5,0,0:0:0:0:
133,252,743128,1,0,0:0:0:0:
222,298,743316,1,0,1:0:0:0:
177,180,743503,5,0,0:0:0:0:
148,171,743597,1,2,0:2:0:0:
119,162,743691,1,2,1:2:0:0:
166,83,743878,5,2,1:2:0:0:
137,74,743972,1,0,0:0:0:0:
108,65,744066,1,0,1:0:0:0:
240,229,744253,5,0,0:0:0:0:
269,220,744347,1,2,0:2:0:0:
298,211,744441,1,2,1:2:0:0:
251,132,744628,5,2,1:2:0:0:
280,123,744722,1,0,0:0:0:0:
309,114,744816,2,0,L|400:40,1,100,0|2,1:0|0:2,0:0:0:0:
411,148,745191,2,0,L|493:77,1,100,0|2,0:0|0:2,0:0:0:0:
500,184,745566,1,2,0:2:0:0:
398,338,745753,1,0,1:0:0:0:
345,183,745941,5,8,1:3:0:0:
484,350,746128,1,4,1:3:0:0:
449,267,746316,2,0,P|423:215|427:162,1,100,0|0,1:0|1:0,0:0:0:0:
333,100,746691,5,4,0:0:0:0:
322,348,746878,1,0,0:0:0:0:
345,270,747066,2,0,P|343:202|356:164,1,100,4|0,0:0|0:0,0:0:0:0:
460,42,747441,5,0,0:0:0:0:
448,187,747628,1,0,0:0:0:0:
376,55,747816,2,0,P|309:77|232:53,1,150,0|2,1:0|0:0,0:0:0:0:
172,23,748191,2,0,P|180:85|175:136,1,100,0|2,0:0|1:2,0:0:0:0:
99,232,748566,5,10,0:0:0:0:
94,97,748753,1,0,0:0:0:0:
178,196,748941,1,0,0:0:0:0:
45,166,749128,1,0,0:0:0:0:
80,310,749316,6,0,P|160:351|238:278,1,200,4|0,1:2|0:0,0:0:0:0:
313,212,749878,1,2,1:2:0:0:
406,231,750066,6,0,P|411:282|405:343,1,100,10|0,0:2|0:0,0:0:0:0:
451,148,750441,2,0,P|446:97|452:36,1,100,0|0,1:0|1:0,0:0:0:0:
326,204,750816,6,0,P|284:233|228:259,1,100,0|0,1:0|1:0,0:0:0:0:
334,82,751191,1,0,1:0:0:0:
384,157,751378,1,0,1:0:0:0:
256,128,751566,2,0,P|198:117|144:92,1,100,0|0,1:0|1:0,0:0:0:0:
239,39,751941,5,0,0:0:0:0:
170,191,752128,1,0,0:0:0:0:
80,68,752316,2,0,P|63:122|57:171,1,100,4|2,1:2|0:0,0:0:0:0:
165,54,752691,5,0,0:0:0:0:
247,180,752878,1,0,1:0:0:0:
101,233,753066,2,0,P|114:297|139:340,1,100,10|0,0:0|0:0,0:0:0:0:
199,269,753441,5,0,1:0:0:0:
42,323,753628,1,0,1:0:0:0:
242,347,753816,2,0,L|346:344,1,100,0|10,1:0|0:0,0:0:0:0:
422,237,754191,2,0,L|318:234,1,100,0|2,0:0|1:2,0:0:0:0:
479,343,754566,5,10,0:2:0:0:
501,260,754753,1,0,0:0:0:0:
458,77,754941,5,0,0:0:0:0:
436,160,755128,1,0,0:0:0:0:
401,13,755316,5,0,1:0:0:0:
309,147,755503,5,0,0:0:0:0:
330,125,755597,1,2,0:0:0:0:
351,104,755691,1,2,1:2:0:0:
227,110,755878,5,2,1:2:0:0:
248,88,755972,1,0,0:0:0:0:
269,67,756066,1,0,1:0:0:0:
133,129,756253,5,0,0:0:0:0:
154,151,756347,1,2,0:2:0:0:
175,172,756441,1,2,1:2:0:0:
51,166,756628,5,2,1:2:0:0:
72,188,756722,1,0,0:0:0:0:
93,209,756816,2,0,P|125:253|129:306,1,100,0|2,1:0|0:0,0:0:0:0:
224,241,757191,2,0,P|276:210|334:219,1,100,0|2,0:0|0:0,0:0:0:0:
419,272,757566,1,10,1:2:0:0:
339,306,757753,1,0,1:0:0:0:
449,194,757941,5,8,1:3:0:0:
473,345,758128,1,4,1:3:0:0:
378,157,758316,2,0,P|381:100|387:47,1,100,4|2,1:2|0:0,0:0:0:0:
350,231,758691,5,0,0:0:0:0:
278,351,758878,1,2,1:2:0:0:
284,183,759066,2,0,L|318:79,1,100,8|0,0:0|0:0,0:0:0:0:
227,236,759441,5,0,1:0:0:0:
106,317,759628,1,0,1:0:0:0:
201,154,759816,2,0,P|204:101|200:47,1,100,0|10,1:0|0:2,0:0:0:0:
41,160,760191,2,0,P|38:213|42:267,1,100,8|4,1:3|1:3,0:0:0:0:
119,103,760566,1,6,1:2:0:0:
38,66,762066,5,0,0:0:0:0:
149,175,762441,1,0,0:0:0:0:
70,314,762816,6,0,P|120:322|173:311,1,100,0|0,1:0|0:0,0:0:0:0:
196,304,763097,1,2,0:0:0:0:
224,293,763191,1,2,1:2:0:0:
477,217,763378,5,2,1:2:0:0:
448,226,763472,1,0,0:0:0:0:
418,233,763566,2,0,P|368:241|315:230,1,100,0|0,1:0|0:0,0:0:0:0:
292,223,763847,1,2,0:2:0:0:
264,212,763941,1,2,1:2:0:0:
38,123,764128,5,2,1:2:0:0:
67,132,764222,1,0,0:0:0:0:
97,139,764316,2,0,P|147:147|230:123,1,100,0|0,1:0|0:2,0:0:0:0:
263,110,764691,6,0,L|250:36,2,66.6666666666667,8|8|8,1:3|1:3|1:3,0:0:0:0:
338,124,765066,2,0,L|363:53,2,66.6666666666667,0|0|0,1:0|1:0|1:0,0:0:0:0:
379,184,765441,2,0,L|436:135,2,66.6666666666667,8|8|8,1:2|1:2|1:2,0:0:0:0:
287,212,765816,1,4,1:2:0:0:
