osu file format v14

[General]
AudioFilename: audio.mp3
AudioLeadIn: 0
PreviewTime: 393
Countdown: 1
SampleSet: Normal
StackLeniency: 0.7
Mode: 1
LetterboxInBreaks: 0
WidescreenStoryboard: 0

[Editor]
DistanceSpacing: 1
BeatDivisor: 4
GridSize: 16
TimelineZoom: 1

[Metadata]
Title:Pere Castor et sa bande
TitleUnicode:Pere Castor et sa bande
Artist:Kemar ft LaFouine
ArtistUnicode:Kemar ft LaFouine
Creator:AgentYous
Version:TaikoThug
Source:
Tags:
BeatmapID:1704284
BeatmapSetID:812531

[Difficulty]
HPDrainRate:5
CircleSize:5
OverallDifficulty:5
ApproachRate:5
SliderMultiplier:1.4
SliderTickRate:1

[Events]
//Background and Video events
0,0,"Kemar et lafouine.png",0,0
//Break Periods
//Storyboard Layer 0 (Background)
//Storyboard Layer 1 (Fail)
//Storyboard Layer 2 (Pass)
//Storyboard Layer 3 (Foreground)
//Storyboard Sound Samples

[TimingPoints]
464,428.571428571429,4,1,0,100,1,0
674,428.571428571429,4,1,0,100,1,0
4102,428.571428571429,4,1,0,100,1,0

[HitObjects]
178,164,464,1,0,0:0:0:0:
268,171,674,1,8,0:0:0:0:
416,172,888,1,0,0:0:0:0:
402,116,1102,1,8,0:0:0:0:
395,126,1316,1,8,0:0:0:0:
420,111,1531,1,0,0:0:0:0:
211,172,2388,1,0,0:0:0:0:
211,172,2602,1,0,0:0:0:0:
325,197,2816,1,8,0:0:0:0:
325,197,3031,1,8,0:0:0:0:
332,195,3138,1,8,0:0:0:0:
438,178,3245,1,0,0:0:0:0:
262,91,3866,5,0,0:0:0:0:
339,175,4077,1,8,0:0:0:0:
408,164,4288,1,0,0:0:0:0:
183,129,4499,1,8,0:0:0:0:
292,105,4711,1,8,0:0:0:0:
96,152,4922,1,0,0:0:0:0:
58,6,5602,1,0,0:0:0:0:
58,6,5816,1,8,0:0:0:0:
58,6,5923,1,8,0:0:0:0:
58,6,6030,1,8,0:0:0:0:
58,6,6137,1,8,0:0:0:0:
58,6,6244,1,8,0:0:0:0:
58,6,6352,1,8,0:0:0:0:
58,6,6459,1,8,0:0:0:0:
58,6,6566,1,8,0:0:0:0:
58,6,6673,1,0,0:0:0:0:
228,182,7102,1,0,0:0:0:0:
173,88,7316,1,0,0:0:0:0:
173,88,7530,1,8,0:0:0:0:
173,88,7959,1,8,0:0:0:0:
173,88,8173,1,8,0:0:0:0:
173,88,8387,1,0,0:0:0:0:
173,88,8816,1,0,0:0:0:0:
173,88,9030,1,0,0:0:0:0:
173,88,9137,1,0,0:0:0:0:
173,88,9244,1,0,0:0:0:0:
173,88,9459,1,0,0:0:0:0:
173,88,9673,1,8,0:0:0:0:
173,88,9780,1,0,0:0:0:0:
173,88,9887,1,0,0:0:0:0:
173,88,9994,1,8,0:0:0:0:
173,88,10102,1,8,0:0:0:0:
173,88,10316,1,8,0:0:0:0:
173,88,10423,1,8,0:0:0:0:
173,88,10530,1,8,0:0:0:0:
173,88,10744,1,0,0:0:0:0:
173,88,10959,1,8,0:0:0:0:
173,88,11066,1,8,0:0:0:0:
173,88,11173,1,8,0:0:0:0:
173,88,11387,1,0,0:0:0:0:
173,88,11602,1,8,0:0:0:0:
173,88,11709,1,8,0:0:0:0:
173,88,11816,1,8,0:0:0:0:
173,88,12030,1,8,0:0:0:0:
173,88,12137,1,8,0:0:0:0:
173,88,12244,1,8,0:0:0:0:
173,88,12459,1,8,0:0:0:0:
173,88,12673,1,8,0:0:0:0:
173,88,12780,1,8,0:0:0:0:
173,88,12887,1,8,0:0:0:0:
173,88,12994,1,8,0:0:0:0:
173,88,13102,1,8,0:0:0:0:
173,88,13209,1,8,0:0:0:0:
173,88,13316,1,8,0:0:0:0:
173,88,13423,1,8,0:0:0:0:
173,88,13530,1,8,0:0:0:0:
