osu file format v14

[General]
AudioFilename: coveroui.mp3
AudioLeadIn: 0
PreviewTime: 393
Countdown: 1
SampleSet: Normal
StackLeniency: 0.7
Mode: 1
LetterboxInBreaks: 0
WidescreenStoryboard: 1

[Editor]
DistanceSpacing: 1
BeatDivisor: 6
GridSize: 32
TimelineZoom: 2.999999

[Metadata]
Title:Pere Castor et sa bande
TitleUnicode:Pere Castor et sa bande
Artist:Kemar ft LaFouine
ArtistUnicode:Kemar ft LaFouine
Creator:AgentYous
Version:Oui's Challenge
Source:
Tags:
BeatmapID:1704609
BeatmapSetID:812531

[Difficulty]
HPDrainRate:5
CircleSize:2
OverallDifficulty:5
ApproachRate:10
SliderMultiplier:2.8
SliderTickRate:1

[Events]
//Background and Video events
0,0,"Kemar et lafouine.png",0,0
//Break Periods
//Storyboard Layer 0 (Background)
//Storyboard Layer 1 (Fail)
//Storyboard Layer 2 (Pass)
//Storyboard Layer 3 (Foreground)
//Storyboard Sound Samples

[TimingPoints]
474,428.571428571429,4,1,0,67,1,0
687,428.571428571429,4,1,0,67,1,0
4115,428.571428571429,4,1,0,67,1,0

[HitObjects]
256,192,474,5,8,0:0:0:0:
256,192,527,1,0,0:0:0:0:
256,192,581,1,0,0:0:0:0:
256,192,684,1,8,0:0:0:0:
256,192,791,1,0,0:0:0:0:
256,192,844,1,0,0:0:0:0:
256,192,898,1,8,0:0:0:0:
256,192,1005,1,8,0:0:0:0:
256,192,1112,1,0,0:0:0:0:
256,192,1219,1,0,0:0:0:0:
256,192,1326,1,8,0:0:0:0:
256,192,1380,1,8,0:0:0:0:
256,192,1434,1,0,0:0:0:0:
256,192,1541,1,8,0:0:0:0:
256,192,1755,1,0,0:0:0:0:
256,192,1862,1,0,0:0:0:0:
256,192,1969,1,0,0:0:0:0:
256,192,2184,1,0,0:0:0:0:
256,192,2398,1,8,0:0:0:0:
256,192,2451,1,8,0:0:0:0:
256,192,2505,1,0,0:0:0:0:
256,192,2612,1,8,0:0:0:0:
256,192,2719,1,0,0:0:0:0:
256,192,2826,1,8,0:0:0:0:
256,192,2880,1,8,0:0:0:0:
256,192,2934,1,8,0:0:0:0:
256,192,2987,1,8,0:0:0:0:
256,192,3041,1,0,0:0:0:0:
256,192,3148,1,0,0:0:0:0:
256,192,3255,1,0,0:0:0:0:
256,192,3469,1,0,0:0:0:0:
256,192,3684,1,0,0:0:0:0:
256,192,3898,1,0,0:0:0:0:
256,192,4005,1,0,0:0:0:0:
256,192,4059,1,0,0:0:0:0:
256,192,4112,1,8,0:0:0:0:
256,192,4219,1,8,0:0:0:0:
256,192,4326,1,0,0:0:0:0:
256,192,4433,1,0,0:0:0:0:
256,192,4540,1,8,0:0:0:0:
256,192,4594,1,8,0:0:0:0:
256,192,4647,1,0,0:0:0:0:
256,192,4754,1,8,0:0:0:0:
256,192,4862,1,0,0:0:0:0:
256,192,4915,1,0,0:0:0:0:
256,192,4969,1,8,0:0:0:0:
256,192,5183,1,8,0:0:0:0:
256,192,5290,1,8,0:0:0:0:
256,192,5397,1,0,0:0:0:0:
256,192,5612,1,0,0:0:0:0:
256,192,5826,1,8,0:0:0:0:
256,192,5879,1,8,0:0:0:0:
256,192,5933,1,0,0:0:0:0:
256,192,6040,1,8,0:0:0:0:
256,192,6147,1,0,0:0:0:0:
256,192,6254,1,8,0:0:0:0:
256,192,6308,1,8,0:0:0:0:
256,192,6362,1,8,0:0:0:0:
256,192,6415,1,8,0:0:0:0:
256,192,6469,1,0,0:0:0:0:
256,192,6576,1,0,0:0:0:0:
256,192,6683,1,0,0:0:0:0:
256,192,6897,1,0,0:0:0:0:
256,192,7112,1,8,0:0:0:0:
256,192,7219,1,0,0:0:0:0:
256,192,7272,1,0,0:0:0:0:
256,192,7326,1,8,0:0:0:0:
256,192,7433,1,0,0:0:0:0:
256,192,7540,1,8,0:0:0:0:
256,192,7594,1,8,0:0:0:0:
256,192,7647,1,0,0:0:0:0:
256,192,7754,1,0,0:0:0:0:
256,192,7862,1,0,0:0:0:0:
256,192,7969,1,8,0:0:0:0:
256,192,8076,1,0,0:0:0:0:
256,192,8183,1,8,0:0:0:0:
256,192,8290,1,0,0:0:0:0:
256,192,8397,1,8,0:0:0:0:
256,192,8451,1,8,0:0:0:0:
256,192,8504,1,0,0:0:0:0:
256,192,8611,1,0,0:0:0:0:
256,192,8719,1,0,0:0:0:0:
256,192,8826,1,8,0:0:0:0:
256,192,9040,1,0,0:0:0:0:
256,192,9147,1,0,0:0:0:0:
256,192,9254,1,8,0:0:0:0:
256,192,9308,1,8,0:0:0:0:
256,192,9362,1,0,0:0:0:0:
256,192,9469,1,8,0:0:0:0:
256,192,9576,1,0,0:0:0:0:
256,192,9683,1,8,0:0:0:0:
256,192,9737,1,8,0:0:0:0:
256,192,9790,1,8,0:0:0:0:
256,192,9844,1,8,0:0:0:0:
256,192,9897,1,0,0:0:0:0:
256,192,10004,1,0,0:0:0:0:
256,192,10112,1,8,0:0:0:0:
256,192,10326,1,0,0:0:0:0:
256,192,10540,1,0,0:0:0:0:
256,192,10754,1,8,0:0:0:0:
256,192,10808,1,8,0:0:0:0:
256,192,10862,1,8,0:0:0:0:
256,192,10915,1,8,0:0:0:0:
256,192,10969,1,0,0:0:0:0:
256,192,11183,1,0,0:0:0:0:
256,192,11397,1,8,0:0:0:0:
256,192,11540,1,0,0:0:0:0:
256,192,11683,1,0,0:0:0:0:
256,192,11826,1,8,0:0:0:0:
256,192,11879,1,8,0:0:0:0:
256,192,11933,1,8,0:0:0:0:
256,192,11987,1,8,0:0:0:0:
256,192,12040,1,0,0:0:0:0:
256,192,12147,1,0,0:0:0:0:
256,192,12254,1,8,0:0:0:0:
256,192,12397,1,0,0:0:0:0:
256,192,12540,1,0,0:0:0:0:
256,192,12683,1,8,0:0:0:0:
256,192,12737,1,8,0:0:0:0:
256,192,12790,1,8,0:0:0:0:
256,192,12844,1,8,0:0:0:0:
256,192,12897,1,0,0:0:0:0:
256,192,13004,1,0,0:0:0:0:
256,192,13112,1,8,0:0:0:0:
256,192,13254,1,0,0:0:0:0:
256,192,13397,1,0,0:0:0:0:
256,192,13540,1,4,0:0:0:0:
