osu file format v14

[General]
AudioFilename: audio.mp3
AudioLeadIn: 0
PreviewTime: 393
Countdown: 1
SampleSet: Normal
StackLeniency: 0.7
Mode: 2
LetterboxInBreaks: 0
WidescreenStoryboard: 1

[Editor]
DistanceSpacing: 1
BeatDivisor: 6
GridSize: 16
TimelineZoom: 1.3

[Metadata]
Title:Pere Castor et sa bande
TitleUnicode:Pere Castor et sa bande
Artist:Kemar ft LaFouine
ArtistUnicode:Kemar ft LaFouine
Creator:AgentYous
Version:On vole des fruits a l'etalage
Source:
Tags:
BeatmapID:1704644
BeatmapSetID:812531

[Difficulty]
HPDrainRate:5
CircleSize:5
OverallDifficulty:5
ApproachRate:9
SliderMultiplier:1.4
SliderTickRate:1

[Events]
//Background and Video events
0,0,"Kemar et lafouine.png",0,0
//Break Periods
//Storyboard Layer 0 (Background)
//Storyboard Layer 1 (Fail)
//Storyboard Layer 2 (Pass)
//Storyboard Layer 3 (Foreground)
//Storyboard Sound Samples

[TimingPoints]
464,428.571428571429,4,1,0,100,1,0
674,428.571428571429,4,1,0,100,1,0
4102,428.571428571429,4,1,0,100,1,0

[HitObjects]
94,208,464,5,0,0:0:0:0:
408,223,674,1,0,0:0:0:0:
95,122,888,1,0,0:0:0:0:
410,120,1102,1,0,0:0:0:0:
98,53,1316,1,0,0:0:0:0:
433,52,1531,2,0,P|476:48|521:41,1,70
111,100,1959,2,0,L|40:58,1,70
343,256,2388,2,0,L|423:284,1,70
121,241,2816,2,0,L|52:198,1,70
441,147,3245,1,0,0:0:0:0:
72,189,3888,1,0,0:0:0:0:
103,170,3959,1,0,0:0:0:0:
460,172,4102,1,0,0:0:0:0:
422,154,4173,1,0,0:0:0:0:
18,287,4316,1,0,0:0:0:0:
58,266,4387,1,0,0:0:0:0:
512,304,4530,1,0,0:0:0:0:
480,272,4601,1,0,0:0:0:0:
256,208,4744,1,0,0:0:0:0:
224,192,4815,1,0,0:0:0:0:
16,144,4959,2,0,B|-6:126|12:95|137:83,1,140
487,288,5816,2,0,P|459:278|456:277,1,23.3333333333333
261,247,6030,2,0,L|231:237,1,23.3333333333333
12,212,6244,2,0,L|45:198,1,23.3333333333333
243,145,6459,2,0,L|273:132,1,23.3333333333333
464,75,6673,2,0,L|506:60,1,23.3333333333333
98,271,7102,1,0,0:0:0:0:
371,220,7316,1,0,0:0:0:0:
103,157,7530,1,0,0:0:0:0:
510,298,7959,1,0,0:0:0:0:
1,202,8173,1,0,0:0:0:0:
509,111,8387,1,0,0:0:0:0:
256,192,8709,12,0,8816,0:0:0:0:
184,232,9030,5,0,0:0:0:0:
329,196,9244,1,0,0:0:0:0:
62,137,9459,1,0,0:0:0:0:
471,100,9673,1,0,0:0:0:0:
126,234,10102,1,0,0:0:0:0:
146,226,10173,1,0,0:0:0:0:
132,212,10244,1,0,0:0:0:0:
152,200,10316,1,0,0:0:0:0:
429,167,10744,1,0,0:0:0:0:
464,185,10816,1,0,0:0:0:0:
431,204,10887,1,0,0:0:0:0:
463,220,10959,1,0,0:0:0:0:
112,272,11387,1,0,0:0:0:0:
352,240,11530,1,0,0:0:0:0:
128,192,11673,1,0,0:0:0:0:
368,160,11816,1,0,0:0:0:0:
144,112,11959,1,0,0:0:0:0:
384,80,12102,1,0,0:0:0:0:
160,32,12244,1,0,0:0:0:0:
400,16,12387,1,0,0:0:0:0:
176,48,12530,1,0,0:0:0:0:
416,32,12673,1,0,0:0:0:0:
48,80,12887,1,0,0:0:0:0:
448,160,13102,1,0,0:0:0:0:
