osu file format v14

[General]
AudioFilename: audio.mp3
AudioLeadIn: 0
PreviewTime: 393
Countdown: 1
SampleSet: Normal
StackLeniency: 0.7
Mode: 1
LetterboxInBreaks: 0
WidescreenStoryboard: 1

[Editor]
DistanceSpacing: 1
BeatDivisor: 3
GridSize: 32
TimelineZoom: 1.8

[Metadata]
Title:Pere Castor et sa bande
TitleUnicode:Pere Castor et sa bande
Artist:Kemar ft LaFouine
ArtistUnicode:Kemar ft LaFouine
Creator:AgentYous
Version:Mon blaze, c'est Oui
Source:
Tags:
BeatmapID:1704608
BeatmapSetID:812531

[Difficulty]
HPDrainRate:5
CircleSize:2
OverallDifficulty:5
ApproachRate:10
SliderMultiplier:1.4
SliderTickRate:1

[Events]
//Background and Video events
0,0,"Kemar et lafouine.png",0,0
//Break Periods
//Storyboard Layer 0 (Background)
//Storyboard Layer 1 (Fail)
//Storyboard Layer 2 (Pass)
//Storyboard Layer 3 (Foreground)
//Storyboard Sound Samples

[TimingPoints]
464,428.571428571429,4,1,0,30,1,0
674,428.571428571429,4,1,0,30,1,0
4102,428.571428571429,4,1,0,30,1,0

[HitObjects]
256,192,464,5,0,0:0:0:0:
256,192,674,1,8,0:0:0:0:
256,192,888,1,0,0:0:0:0:
256,192,995,1,0,0:0:0:0:
256,192,1102,1,8,0:0:0:0:
256,192,1316,1,0,0:0:0:0:
256,192,1531,1,8,0:0:0:0:
256,192,1745,1,0,0:0:0:0:
256,192,1852,1,0,0:0:0:0:
256,192,1959,1,0,0:0:0:0:
256,192,2174,1,0,0:0:0:0:
256,192,2388,1,8,0:0:0:0:
256,192,2495,1,8,0:0:0:0:
256,192,2602,1,0,0:0:0:0:
256,192,2709,1,0,0:0:0:0:
256,192,2816,1,8,0:0:0:0:
256,192,3031,1,0,0:0:0:0:
256,192,3245,1,0,0:0:0:0:
256,192,3674,1,0,0:0:0:0:
256,192,3888,1,0,0:0:0:0:
256,192,4102,1,8,0:0:0:0:
256,192,4316,1,0,0:0:0:0:
256,192,4423,1,0,0:0:0:0:
256,192,4530,1,8,0:0:0:0:
256,192,4744,1,8,0:0:0:0:
256,192,4959,1,0,0:0:0:0:
256,192,5173,1,0,0:0:0:0:
256,192,5280,1,0,0:0:0:0:
256,192,5387,1,8,0:0:0:0:
256,192,5602,1,8,0:0:0:0:
256,192,5816,1,8,0:0:0:0:
256,192,5923,1,8,0:0:0:0:
256,192,6030,1,8,0:0:0:0:
256,192,6137,1,0,0:0:0:0:
256,192,6244,1,8,0:0:0:0:
256,192,6459,1,0,0:0:0:0:
256,192,6673,1,0,0:0:0:0:
256,192,7102,1,0,0:0:0:0:
256,192,7316,1,0,0:0:0:0:
256,192,7530,1,8,0:0:0:0:
256,192,7744,1,0,0:0:0:0:
256,192,7852,1,0,0:0:0:0:
256,192,7959,1,8,0:0:0:0:
256,192,8173,1,0,0:0:0:0:
256,192,8387,1,8,0:0:0:0:
256,192,8459,1,8,0:0:0:0:
256,192,8530,1,8,0:0:0:0:
256,192,8602,1,0,0:0:0:0:
256,192,8709,1,0,0:0:0:0:
256,192,8816,1,8,0:0:0:0:
256,192,9030,1,0,0:0:0:0:
256,192,9244,1,8,0:0:0:0:
256,192,9459,1,8,0:0:0:0:
256,192,9566,1,8,0:0:0:0:
256,192,9673,1,0,0:0:0:0:
256,192,9887,1,0,0:0:0:0:
256,192,10102,1,8,0:0:0:0:
256,192,10316,1,0,0:0:0:0:
256,192,10530,1,0,0:0:0:0:
256,192,10744,1,8,0:0:0:0:
256,192,10816,1,8,0:0:0:0:
256,192,10887,1,8,0:0:0:0:
256,192,10959,1,0,0:0:0:0:
256,192,11173,1,0,0:0:0:0:
256,192,11387,1,8,0:0:0:0:
256,192,11530,1,8,0:0:0:0:
256,192,11673,1,0,0:0:0:0:
256,192,11816,1,8,0:0:0:0:
256,192,11887,1,8,0:0:0:0:
256,192,11959,1,8,0:0:0:0:
256,192,12030,1,0,0:0:0:0:
256,192,12137,1,0,0:0:0:0:
256,192,12244,1,8,0:0:0:0:
256,192,12387,1,0,0:0:0:0:
256,192,12530,1,0,0:0:0:0:
256,192,12673,1,8,0:0:0:0:
256,192,12744,1,8,0:0:0:0:
256,192,12816,1,8,0:0:0:0:
256,192,12887,1,0,0:0:0:0:
256,192,12994,1,0,0:0:0:0:
256,192,13102,1,8,0:0:0:0:
256,192,13244,1,0,0:0:0:0:
256,192,13387,1,0,0:0:0:0:
256,192,13530,1,4,0:0:0:0:
