osu file format v14

[General]
AudioFilename: audio.mp3
AudioLeadIn: 0
PreviewTime: 393
Countdown: 1
SampleSet: Normal
StackLeniency: 0.7
Mode: 3
LetterboxInBreaks: 0
SpecialStyle: 0
WidescreenStoryboard: 1

[Editor]
DistanceSpacing: 1
BeatDivisor: 6
GridSize: 16
TimelineZoom: 1.3

[Metadata]
Title:Pere Castor et sa bande
TitleUnicode:Pere Castor et sa bande
Artist:Kemar ft LaFouine
ArtistUnicode:Kemar ft LaFouine
Creator:AgentYous
Version:Kemar se met au Piano
Source:
Tags:
BeatmapID:1704643
BeatmapSetID:812531

[Difficulty]
HPDrainRate:5
CircleSize:4
OverallDifficulty:5
ApproachRate:5
SliderMultiplier:1.4
SliderTickRate:1

[Events]
//Background and Video events
0,0,"Kemar et lafouine.png",0,0
//Break Periods
//Storyboard Layer 0 (Background)
//Storyboard Layer 1 (Fail)
//Storyboard Layer 2 (Pass)
//Storyboard Layer 3 (Foreground)
//Storyboard Sound Samples

[TimingPoints]
464,428.571428571429,4,1,0,100,1,0
674,428.571428571429,4,1,0,100,1,0
4102,428.571428571429,4,1,0,100,1,0

[HitObjects]
64,192,464,5,0,0:0:0:0:
192,192,464,128,0,674:0:0:0:0:
448,192,674,1,0,0:0:0:0:
320,192,674,128,0,888:0:0:0:0:
192,192,888,1,0,0:0:0:0:
64,192,888,128,0,1102:0:0:0:0:
320,192,1102,1,0,0:0:0:0:
448,192,1102,128,0,1531:0:0:0:0:
320,192,1316,128,0,1531:0:0:0:0:
192,192,1316,1,0,0:0:0:0:
64,192,1531,1,0,0:0:0:0:
192,192,1531,1,0,0:0:0:0:
448,192,1745,1,0,0:0:0:0:
320,192,1781,1,0,0:0:0:0:
192,192,1816,1,0,0:0:0:0:
64,192,1852,1,0,0:0:0:0:
320,192,1959,1,0,0:0:0:0:
448,192,1959,1,0,0:0:0:0:
64,192,2174,1,0,0:0:0:0:
192,192,2174,1,0,0:0:0:0:
64,192,2388,1,0,0:0:0:0:
192,192,2441,1,0,0:0:0:0:
320,192,2495,1,0,0:0:0:0:
448,192,2549,1,0,0:0:0:0:
64,192,2602,1,0,0:0:0:0:
192,192,2656,1,0,0:0:0:0:
320,192,2709,1,0,0:0:0:0:
448,192,2763,1,0,0:0:0:0:
64,192,2816,1,0,0:0:0:0:
192,192,2870,1,0,0:0:0:0:
320,192,2924,1,0,0:0:0:0:
448,192,2977,1,0,0:0:0:0:
64,192,3031,1,0,0:0:0:0:
192,192,3084,1,0,0:0:0:0:
320,192,3138,1,0,0:0:0:0:
448,192,3191,1,0,0:0:0:0:
64,192,3245,1,0,0:0:0:0:
64,192,3459,1,0,0:0:0:0:
192,192,3495,1,0,0:0:0:0:
320,192,3531,1,0,0:0:0:0:
448,192,3566,1,0,0:0:0:0:
64,192,3674,1,0,0:0:0:0:
192,192,3674,1,0,0:0:0:0:
192,192,3888,128,0,4102:0:0:0:0:
320,192,3888,128,0,4102:0:0:0:0:
64,192,4102,128,0,4316:0:0:0:0:
448,192,4102,128,0,4316:0:0:0:0:
192,192,4316,128,0,4744:0:0:0:0:
320,192,4316,128,0,4530:0:0:0:0:
64,192,4530,128,0,4744:0:0:0:0:
320,192,4744,128,0,5173:0:0:0:0:
448,192,4959,128,0,5173:0:0:0:0:
192,192,4959,128,0,5173:0:0:0:0:
64,192,4959,128,0,5173:0:0:0:0:
64,192,5387,1,0,0:0:0:0:
192,192,5387,1,0,0:0:0:0:
320,192,5387,1,0,0:0:0:0:
448,192,5387,1,0,0:0:0:0:
64,192,5566,1,0,0:0:0:0:
192,192,5602,1,0,0:0:0:0:
320,192,5637,1,0,0:0:0:0:
448,192,5673,1,0,0:0:0:0:
64,192,5816,1,0,0:0:0:0:
192,192,5869,1,0,0:0:0:0:
448,192,5923,1,0,0:0:0:0:
320,192,5977,1,0,0:0:0:0:
64,192,6030,1,0,0:0:0:0:
192,192,6084,1,0,0:0:0:0:
448,192,6137,1,0,0:0:0:0:
320,192,6191,1,0,0:0:0:0:
64,192,6244,1,0,0:0:0:0:
192,192,6298,1,0,0:0:0:0:
448,192,6352,1,0,0:0:0:0:
320,192,6405,1,0,0:0:0:0:
64,192,6459,1,0,0:0:0:0:
192,192,6512,1,0,0:0:0:0:
448,192,6566,1,0,0:0:0:0:
320,192,6619,1,0,0:0:0:0:
64,192,6673,1,0,0:0:0:0:
192,192,6887,1,0,0:0:0:0:
320,192,6887,1,0,0:0:0:0:
448,192,7102,128,0,7637:0:0:0:0:
320,192,7316,128,0,7637:0:0:0:0:
192,192,7530,128,0,7637:0:0:0:0:
64,192,7744,128,0,8602:0:0:0:0:
192,192,7959,128,0,8602:0:0:0:0:
320,192,8173,128,0,8602:0:0:0:0:
448,192,8387,128,0,8602:0:0:0:0:
64,192,8816,1,0,0:0:0:0:
320,192,8816,1,0,0:0:0:0:
192,192,8816,1,0,0:0:0:0:
448,192,8816,1,0,0:0:0:0:
64,192,9084,1,0,0:0:0:0:
192,192,9137,1,0,0:0:0:0:
320,192,9191,1,0,0:0:0:0:
448,192,9244,1,0,0:0:0:0:
320,192,9298,1,0,0:0:0:0:
192,192,9352,1,0,0:0:0:0:
64,192,9405,1,0,0:0:0:0:
192,192,9459,1,0,0:0:0:0:
320,192,9512,1,0,0:0:0:0:
448,192,9566,1,0,0:0:0:0:
320,192,9619,1,0,0:0:0:0:
192,192,9673,1,0,0:0:0:0:
64,192,9727,1,0,0:0:0:0:
192,192,9780,1,0,0:0:0:0:
320,192,10102,1,0,0:0:0:0:
448,192,10102,1,0,0:0:0:0:
192,192,10102,1,0,0:0:0:0:
64,192,10102,1,0,0:0:0:0:
448,192,10744,1,0,0:0:0:0:
320,192,10780,1,0,0:0:0:0:
192,192,10816,1,0,0:0:0:0:
64,192,10852,1,0,0:0:0:0:
448,192,10959,1,0,0:0:0:0:
320,192,10959,1,0,0:0:0:0:
320,192,11387,1,0,0:0:0:0:
448,192,11387,1,0,0:0:0:0:
64,192,11530,1,0,0:0:0:0:
192,192,11530,1,0,0:0:0:0:
320,192,11673,1,0,0:0:0:0:
448,192,11673,1,0,0:0:0:0:
192,192,11816,1,0,0:0:0:0:
64,192,11816,1,0,0:0:0:0:
320,192,11959,1,0,0:0:0:0:
448,192,11959,1,0,0:0:0:0:
64,192,12102,1,0,0:0:0:0:
192,192,12102,1,0,0:0:0:0:
320,192,12244,1,0,0:0:0:0:
448,192,12244,1,0,0:0:0:0:
64,192,12387,1,0,0:0:0:0:
192,192,12387,1,0,0:0:0:0:
320,192,12530,1,0,0:0:0:0:
448,192,12530,1,0,0:0:0:0:
64,192,12673,128,0,12816:0:0:0:0:
448,192,12816,128,0,12959:0:0:0:0:
192,192,12816,1,0,0:0:0:0:
64,192,12959,128,0,13602:0:0:0:0:
320,192,12959,1,0,0:0:0:0:
192,192,13102,128,0,13602:0:0:0:0:
320,192,13244,128,0,13602:0:0:0:0:
448,192,13387,128,0,13602:0:0:0:0:
