osu file format v14

[General]
AudioFilename: audio.mp3
AudioLeadIn: 0
PreviewTime: 393
Countdown: 1
SampleSet: Normal
StackLeniency: 0.7
Mode: 1
LetterboxInBreaks: 0
WidescreenStoryboard: 1

[Editor]
DistanceSpacing: 1
BeatDivisor: 6
GridSize: 16
TimelineZoom: 1.3

[Metadata]
Title:Pere Castor et sa bande
TitleUnicode:Pere Castor et sa bande
Artist:Kemar ft LaFouine
ArtistUnicode:Kemar ft LaFouine
Creator:AgentYous
Version:Kemar nous joue son Best Hit en Taiko [Taiko OmegaOni]
Source:
Tags:
BeatmapID:1704642
BeatmapSetID:812531

[Difficulty]
HPDrainRate:5
CircleSize:5
OverallDifficulty:5
ApproachRate:5
SliderMultiplier:2.8
SliderTickRate:1

[Events]
//Background and Video events
0,0,"Kemar et lafouine.png",0,0
//Break Periods
//Storyboard Layer 0 (Background)
//Storyboard Layer 1 (Fail)
//Storyboard Layer 2 (Pass)
//Storyboard Layer 3 (Foreground)
//Storyboard Sound Samples

[TimingPoints]
464,428.571428571429,4,1,0,100,1,0
674,428.571428571429,4,1,0,100,1,0
4102,428.571428571429,4,1,0,100,1,0

[HitObjects]
150,160,464,5,0,0:0:0:0:
393,182,674,1,8,0:0:0:0:
330,133,888,1,0,0:0:0:0:
305,59,1102,1,8,0:0:0:0:
299,49,1174,1,8,0:0:0:0:
301,48,1245,1,8,0:0:0:0:
296,44,1316,1,8,0:0:0:0:
300,39,1388,1,8,0:0:0:0:
293,41,1459,1,8,0:0:0:0:
292,41,1531,1,8,0:0:0:0:
310,194,1745,1,0,0:0:0:0:
254,125,1852,1,0,0:0:0:0:
106,165,1959,1,0,0:0:0:0:
274,288,2174,1,0,0:0:0:0:
39,78,2388,1,8,0:0:0:0:
39,78,2459,1,8,0:0:0:0:
39,78,2531,1,0,0:0:0:0:
38,88,2602,1,8,0:0:0:0:
24,82,2674,1,8,0:0:0:0:
31,82,2745,1,8,0:0:0:0:
174,137,2816,1,0,0:0:0:0:
39,87,2888,1,8,0:0:0:0:
331,239,2959,1,0,0:0:0:0:
39,87,3031,1,8,0:0:0:0:
39,87,3102,1,8,0:0:0:0:
39,87,3174,1,8,0:0:0:0:
39,87,3245,1,0,0:0:0:0:
239,107,3459,1,0,0:0:0:0:
239,107,3566,1,0,0:0:0:0:
239,107,3674,1,0,0:0:0:0:
239,107,3888,1,0,0:0:0:0:
285,210,4102,1,8,0:0:0:0:
285,210,4173,1,8,0:0:0:0:
285,210,4244,1,0,0:0:0:0:
285,210,4316,1,8,0:0:0:0:
260,206,4530,1,8,0:0:0:0:
260,206,4602,1,8,0:0:0:0:
260,206,4673,1,8,0:0:0:0:
228,100,4744,1,0,0:0:0:0:
228,100,4959,1,8,0:0:0:0:
228,100,5173,1,0,0:0:0:0:
217,21,5244,1,0,0:0:0:0:
219,28,5316,1,0,0:0:0:0:
228,100,5387,1,0,0:0:0:0:
226,100,5602,1,0,0:0:0:0:
109,131,5816,1,0,0:0:0:0:
109,131,5887,1,0,0:0:0:0:
109,131,5959,1,8,0:0:0:0:
109,131,6030,1,8,0:0:0:0:
103,33,6102,1,0,0:0:0:0:
103,33,6173,1,0,0:0:0:0:
101,34,6244,1,8,0:0:0:0:
95,29,6316,1,0,0:0:0:0:
95,29,6387,1,0,0:0:0:0:
95,29,6459,1,8,0:0:0:0:
95,29,6530,1,0,0:0:0:0:
95,31,6602,1,0,0:0:0:0:
95,33,6673,1,0,0:0:0:0:
185,209,6887,1,0,0:0:0:0:
185,209,6994,1,0,0:0:0:0:
185,209,7102,1,0,0:0:0:0:
209,191,7316,1,0,0:0:0:0:
113,145,7530,1,8,0:0:0:0:
113,145,7602,1,8,0:0:0:0:
115,151,7673,1,0,0:0:0:0:
113,145,7744,1,8,0:0:0:0:
117,149,7816,1,0,0:0:0:0:
115,149,7887,1,0,0:0:0:0:
118,148,7959,1,0,0:0:0:0:
226,260,8173,1,0,0:0:0:0:
143,157,8280,1,0,0:0:0:0:
226,260,8387,1,8,0:0:0:0:
261,189,8602,1,0,0:0:0:0:
261,189,8816,1,8,0:0:0:0:
221,187,9030,1,8,0:0:0:0:
221,187,9102,1,8,0:0:0:0:
221,187,9173,1,8,0:0:0:0:
221,187,9244,1,8,0:0:0:0:
221,187,9459,1,8,0:0:0:0:
221,187,9530,1,8,0:0:0:0:
221,187,9602,1,8,0:0:0:0:
221,187,9673,1,0,0:0:0:0:
221,187,9744,1,0,0:0:0:0:
221,187,9816,1,8,0:0:0:0:
221,187,9887,1,8,0:0:0:0:
221,187,9959,1,8,0:0:0:0:
221,187,10030,1,8,0:0:0:0:
221,187,10102,1,0,0:0:0:0:
228,160,10316,1,0,0:0:0:0:
228,160,10387,1,0,0:0:0:0:
228,160,10459,1,0,0:0:0:0:
221,187,10673,1,8,0:0:0:0:
228,160,10744,1,8,0:0:0:0:
221,187,10816,1,8,0:0:0:0:
221,187,10887,1,8,0:0:0:0:
221,187,10959,1,8,0:0:0:0:
228,160,11387,1,8,0:0:0:0:
228,160,11530,1,8,0:0:0:0:
228,160,11673,1,8,0:0:0:0:
228,160,11816,1,8,0:0:0:0:
228,160,11959,1,8,0:0:0:0:
228,160,12102,1,8,0:0:0:0:
228,160,12244,1,8,0:0:0:0:
228,160,12387,1,8,0:0:0:0:
228,160,12530,1,8,0:0:0:0:
228,160,12673,1,8,0:0:0:0:
228,160,12816,1,8,0:0:0:0:
228,160,12959,1,8,0:0:0:0:
228,160,13102,1,8,0:0:0:0:
228,160,13244,1,8,0:0:0:0:
228,160,13387,1,8,0:0:0:0:
228,160,13530,1,8,0:0:0:0:
