osu file format v14

[General]
AudioFilename: audio.mp3
AudioLeadIn: 0
PreviewTime: 393
Countdown: 1
SampleSet: Normal
StackLeniency: 0.7
Mode: 1
LetterboxInBreaks: 0
WidescreenStoryboard: 1

[Editor]
DistanceSpacing: 1
BeatDivisor: 4
GridSize: 16
TimelineZoom: 1.3

[Metadata]
Title:Pere Castor et sa bande
TitleUnicode:Pere Castor et sa bande
Artist:Kemar ft LaFouine
ArtistUnicode:Kemar ft LaFouine
Creator:AgentYous
Version:AgentYous Vs LaFouine
Source:
Tags:
BeatmapID:1704641
BeatmapSetID:812531

[Difficulty]
HPDrainRate:5
CircleSize:5
OverallDifficulty:5
ApproachRate:5
SliderMultiplier:1.4
SliderTickRate:1

[Events]
//Background and Video events
0,0,"Kemar et lafouine.png",0,0
//Break Periods
//Storyboard Layer 0 (Background)
//Storyboard Layer 1 (Fail)
//Storyboard Layer 2 (Pass)
//Storyboard Layer 3 (Foreground)
//Storyboard Sound Samples

[TimingPoints]
464,428.571428571429,4,1,0,100,1,0
674,428.571428571429,4,1,0,100,1,0
4102,428.571428571429,4,1,0,100,1,0

[HitObjects]
167,169,464,5,0,0:0:0:0:
317,153,674,1,8,0:0:0:0:
337,140,888,1,8,0:0:0:0:
337,140,995,1,8,0:0:0:0:
335,133,1102,1,8,0:0:0:0:
241,198,1316,1,0,0:0:0:0:
241,198,1531,1,8,0:0:0:0:
241,198,1638,1,0,0:0:0:0:
241,198,1852,1,8,0:0:0:0:
241,198,1959,1,0,0:0:0:0:
241,198,2174,1,8,0:0:0:0:
241,198,2281,1,0,0:0:0:0:
235,182,2495,1,8,0:0:0:0:
237,188,2602,1,0,0:0:0:0:
238,188,2709,1,0,0:0:0:0:
238,188,2816,1,8,0:0:0:0:
238,188,2924,1,0,0:0:0:0:
238,188,3031,1,8,0:0:0:0:
238,188,3138,1,8,0:0:0:0:
238,188,3245,1,0,0:0:0:0:
238,188,3459,1,0,0:0:0:0:
238,188,3566,1,0,0:0:0:0:
271,241,3674,1,8,0:0:0:0:
238,188,3888,1,8,0:0:0:0:
238,188,4102,1,8,0:0:0:0:
238,188,4209,1,0,0:0:0:0:
238,188,4423,1,8,0:0:0:0:
238,188,4530,1,0,0:0:0:0:
236,182,4744,1,8,0:0:0:0:
236,182,4852,1,0,0:0:0:0:
236,182,4959,1,8,0:0:0:0:
236,182,5173,1,8,0:0:0:0:
236,182,5280,1,8,0:0:0:0:
236,182,5387,1,8,0:0:0:0:
236,182,5602,1,0,0:0:0:0:
236,182,5816,1,8,0:0:0:0:
236,182,5923,1,0,0:0:0:0:
236,182,6030,1,0,0:0:0:0:
236,182,6137,1,8,0:0:0:0:
236,182,6244,1,0,0:0:0:0:
236,182,6352,1,8,0:0:0:0:
236,182,6459,1,8,0:0:0:0:
236,182,6566,1,8,0:0:0:0:
236,182,6673,1,0,0:0:0:0:
159,175,6887,1,0,0:0:0:0:
159,175,6994,1,0,0:0:0:0:
159,176,7102,1,0,0:0:0:0:
159,176,7316,1,0,0:0:0:0:
159,176,7530,1,8,0:0:0:0:
159,176,7637,1,0,0:0:0:0:
159,176,7744,1,0,0:0:0:0:
159,176,7852,1,8,0:0:0:0:
159,176,7959,1,0,0:0:0:0:
159,176,8066,1,0,0:0:0:0:
159,176,8173,1,8,0:0:0:0:
158,176,8280,1,0,0:0:0:0:
158,175,8387,1,8,0:0:0:0:
158,175,8602,1,8,0:0:0:0:
158,175,8709,1,8,0:0:0:0:
158,175,8816,1,8,0:0:0:0:
158,175,9030,1,0,0:0:0:0:
158,175,9137,1,0,0:0:0:0:
158,175,9244,1,8,0:0:0:0:
158,175,9459,1,8,0:0:0:0:
158,175,9566,1,8,0:0:0:0:
158,175,9673,1,0,0:0:0:0:
158,175,9887,1,0,0:0:0:0:
157,175,10102,1,8,0:0:0:0:
156,175,10316,1,8,0:0:0:0:
156,175,10423,1,8,0:0:0:0:
155,175,10530,1,8,0:0:0:0:
154,175,10744,1,0,0:0:0:0:
152,175,10959,1,8,0:0:0:0:
152,175,11066,1,0,0:0:0:0:
152,175,11173,1,0,0:0:0:0:
152,175,11280,1,8,0:0:0:0:
152,175,11387,1,8,0:0:0:0:
150,175,11602,1,0,0:0:0:0:
150,175,11816,1,8,0:0:0:0:
150,175,12030,1,8,0:0:0:0:
149,174,12244,1,8,0:0:0:0:
149,174,12459,1,8,0:0:0:0:
149,174,12566,1,8,0:0:0:0:
232,213,12673,1,8,0:0:0:0:
232,213,12780,1,0,0:0:0:0:
232,213,12887,1,0,0:0:0:0:
232,213,12994,1,8,0:0:0:0:
148,174,13102,1,8,0:0:0:0:
232,213,13209,1,0,0:0:0:0:
230,211,13316,1,8,0:0:0:0:
231,211,13423,1,8,0:0:0:0:
230,211,13530,1,0,0:0:0:0:
