osu file format v14

[General]
AudioFilename: audio.mp3
AudioLeadIn: 0
PreviewTime: 393
Countdown: 1
SampleSet: Normal
StackLeniency: 0.7
Mode: 2
LetterboxInBreaks: 0
WidescreenStoryboard: 1

[Editor]
DistanceSpacing: 1
BeatDivisor: 6
GridSize: 8
TimelineZoom: 1

[Metadata]
Title:Pere Castor et sa bande
TitleUnicode:Pere Castor et sa bande
Artist:Kemar ft LaFouine
ArtistUnicode:Kemar ft LaFouine
Creator:AgentYous
Version:414's Randoms Patterns
Source:
Tags:
BeatmapID:1705629
BeatmapSetID:812531

[Difficulty]
HPDrainRate:8
CircleSize:4
OverallDifficulty:9
ApproachRate:9
SliderMultiplier:1.4
SliderTickRate:1

[Events]
//Background and Video events
0,0,"dodo.jpg",0,0
//Break Periods
//Storyboard Layer 0 (Background)
//Storyboard Layer 1 (Fail)
//Storyboard Layer 2 (Pass)
//Storyboard Layer 3 (Foreground)
//Storyboard Sound Samples

[TimingPoints]
464,428.571428571429,4,1,0,50,1,0
674,428.571428571429,4,1,0,50,1,0
4102,428.571428571429,4,1,0,50,1,0

[HitObjects]
256,192,285,12,0,13654,0:0:0:0:
224,144,393,5,0,0:0:0:0:
112,128,603,1,8,0:0:0:0:
192,128,817,2,0,L|288:128,1,70
256,192,924,12,0,2317,0:0:0:0:
262,128,1031,6,0,L|352:128,1,70
352,128,1245,5,0,0:0:0:0:
256,128,1460,2,0,L|112:128,1,140
256,192,1567,12,0,1995,0:0:0:0:
184,128,1674,6,0,L|112:128,1,70
464,144,2317,5,8,0:0:0:0:
256,144,2531,1,0,0:0:0:0:
48,144,2745,1,0,0:0:0:0:
256,192,2853,12,0,3281,0:0:0:0:
176,144,2960,6,0,L|272:144,1,70
256,192,3388,12,0,3817,0:0:0:0:
256,192,3710,12,0,4031,0:0:0:0:
176,192,3817,6,0,L|96:192,1,70
176,192,4245,2,0,L|272:192,1,70
246,192,4459,2,0,L|320:192,1,70
320,192,4673,1,0,0:0:0:0:
224,192,4888,2,0,L|144:192,1,70
256,192,4995,12,0,5531,0:0:0:0:
400,96,5316,6,0,P|432:144|400:240,1,140
352,160,5531,1,0,0:0:0:0:
304,160,5959,2,0,L|400:160,2,70
192,160,6602,1,0,0:0:0:0:
256,192,6923,12,0,8102,0:0:0:0:
304,160,7031,6,0,L|384:160,1,70
144,144,7459,2,0,L|64:144,2,70,8|0|0,0:0|0:0|0:0,0:0:0:0:
368,64,8316,2,0,P|416:112|400:208,1,140
344,120,8531,1,0,0:0:0:0:
416,176,8745,6,0,L|272:176,1,140
352,176,8959,2,0,L|272:176,1,70
160,176,9388,2,0,L|240:176,1,70
230,176,9602,2,0,L|384:176,1,140
304,176,9816,2,0,L|400:176,1,70
256,192,10245,12,0,10888,0:0:0:0:
256,192,10352,12,0,11959,0:0:0:0:
80,56,10673,5,0,0:0:0:0:
64,64,10727,1,0,0:0:0:0:
48,88,10781,1,0,0:0:0:0:
56,120,10834,1,0,0:0:0:0:
256,192,10888,12,0,11316,0:0:0:0:
248,176,11531,6,0,L|336:176,1,70
408,184,12066,2,0,L|448:184,3,35
256,192,12602,12,0,13654,0:0:0:0:
256,192,12602,12,0,13654,0:0:0:0:
256,192,12602,12,0,13654,0:0:0:0:
256,192,12602,12,0,13654,0:0:0:0:
256,192,12602,12,0,13654,0:0:0:0:
256,192,12602,12,0,13654,0:0:0:0:
256,192,12602,12,0,13654,0:0:0:0:
256,192,12602,12,0,13654,0:0:0:0:
256,192,12602,12,0,13654,0:0:0:0:
256,192,12602,12,0,13654,0:0:0:0:
256,192,12602,12,0,13654,0:0:0:0:
256,192,12602,12,0,13654,0:0:0:0:
256,192,12602,12,0,13654,0:0:0:0:
256,192,12602,12,0,13654,0:0:0:0:
256,192,12602,12,0,13654,0:0:0:0:
256,192,12602,12,0,13654,0:0:0:0:
256,192,12602,12,0,13654,0:0:0:0:
256,192,12602,12,0,13654,0:0:0:0:
256,192,12602,12,0,13654,0:0:0:0:
256,192,12602,12,0,13654,0:0:0:0:
256,192,12602,12,0,13654,0:0:0:0:
256,192,12602,12,0,13654,0:0:0:0:
256,192,12602,12,0,13654,0:0:0:0:
256,192,12602,12,0,13654,0:0:0:0:
256,192,12602,12,0,13654,0:0:0:0:
256,192,12602,12,0,13654,0:0:0:0:
256,192,12602,12,0,13654,0:0:0:0:
256,192,12602,12,0,13654,0:0:0:0:
256,192,12602,12,0,13654,0:0:0:0:
256,192,12602,12,0,13654,0:0:0:0:
256,192,12602,12,0,13654,0:0:0:0:
256,192,12602,12,0,13654,0:0:0:0:
256,192,12602,12,0,13654,0:0:0:0:
256,192,12602,12,0,13654,0:0:0:0:
256,192,12602,12,0,13654,0:0:0:0:
256,192,12602,12,0,13654,0:0:0:0:
256,192,12602,12,0,13654,0:0:0:0:
