osu file format v14

[General]
AudioFilename: audio.mp3
AudioLeadIn: 0
PreviewTime: 33188
Countdown: 1
SampleSet: Normal
StackLeniency: 0.7
Mode: 1
LetterboxInBreaks: 0
WidescreenStoryboard: 1

[Editor]
DistanceSpacing: 1
BeatDivisor: 4
GridSize: 32
TimelineZoom: 3.550001

[Metadata]
Title:Mon Style
TitleUnicode:Mon Style
Artist:Kemar
ArtistUnicode:Kemar
Creator:Oui
Version:Muzukashii
Source:
Tags:frederik le blanko youtube rap inspecteur
BeatmapID:1705079
BeatmapSetID:812983

[Difficulty]
HPDrainRate:5
CircleSize:5
OverallDifficulty:5
ApproachRate:5
SliderMultiplier:1.4
SliderTickRate:1

[Events]
//Background and Video events
0,0,"weff.png",0,0
//Break Periods
//Storyboard Layer 0 (Background)
//Storyboard Layer 1 (Fail)
//Storyboard Layer 2 (Pass)
//Storyboard Layer 3 (Foreground)
//Storyboard Sound Samples

[TimingPoints]
46,428.571428571429,4,1,0,40,1,0
17188,500,4,1,0,80,1,0
25188,-100,4,1,0,80,0,1
33188,-100,4,1,0,80,0,0
41188,-100,4,1,0,80,0,1
49188,-100,4,1,0,80,0,0
60938,-100,4,1,0,80,0,1
71188,-100,4,1,0,80,0,0

[HitObjects]
256,192,46,12,0,8403,0:0:0:0:
256,192,8617,12,0,16760,0:0:0:0:
256,192,17188,5,0,0:0:0:0:
256,192,17438,1,0,0:0:0:0:
256,192,17688,1,8,0:0:0:0:
256,192,17938,1,0,0:0:0:0:
256,192,18188,1,0,0:0:0:0:
256,192,18688,1,8,0:0:0:0:
256,192,19188,1,0,0:0:0:0:
256,192,19438,1,8,0:0:0:0:
256,192,19688,1,0,0:0:0:0:
256,192,19938,1,8,0:0:0:0:
256,192,20188,1,0,0:0:0:0:
256,192,20688,1,8,0:0:0:0:
256,192,21188,1,0,0:0:0:0:
256,192,21688,1,8,0:0:0:0:
256,192,21938,1,0,0:0:0:0:
256,192,22188,1,8,0:0:0:0:
256,192,22688,1,0,0:0:0:0:
256,192,22938,1,8,0:0:0:0:
256,192,23188,1,0,0:0:0:0:
256,192,23438,1,8,0:0:0:0:
256,192,23688,1,0,0:0:0:0:
256,192,23938,1,0,0:0:0:0:
256,192,24188,1,8,0:0:0:0:
256,192,25188,1,8,0:0:0:0:
256,192,25313,1,8,0:0:0:0:
256,192,25438,1,8,0:0:0:0:
256,192,25688,1,8,0:0:0:0:
256,192,25938,1,0,0:0:0:0:
256,192,26188,1,8,0:0:0:0:
256,192,26688,1,0,0:0:0:0:
256,192,27188,1,0,0:0:0:0:
256,192,27313,1,0,0:0:0:0:
256,192,27438,1,0,0:0:0:0:
256,192,27688,1,8,0:0:0:0:
256,192,27938,1,0,0:0:0:0:
256,192,28188,1,8,0:0:0:0:
256,192,28688,1,0,0:0:0:0:
256,192,29188,1,8,0:0:0:0:
256,192,29313,1,8,0:0:0:0:
256,192,29438,1,8,0:0:0:0:
256,192,29688,1,8,0:0:0:0:
256,192,29938,1,0,0:0:0:0:
256,192,30188,1,8,0:0:0:0:
256,192,30688,1,0,0:0:0:0:
256,192,31188,1,0,0:0:0:0:
256,192,31313,1,0,0:0:0:0:
256,192,31438,1,0,0:0:0:0:
256,192,31688,1,8,0:0:0:0:
256,192,31938,1,0,0:0:0:0:
256,192,32188,1,8,0:0:0:0:
256,192,32688,1,0,0:0:0:0:
256,192,33188,1,0,0:0:0:0:
256,192,33438,1,8,0:0:0:0:
256,192,33563,1,8,0:0:0:0:
256,192,33688,1,8,0:0:0:0:
256,192,33938,1,0,0:0:0:0:
256,192,34188,1,0,0:0:0:0:
256,192,34688,1,8,0:0:0:0:
256,192,35188,1,0,0:0:0:0:
256,192,35438,1,8,0:0:0:0:
256,192,35563,1,8,0:0:0:0:
256,192,35688,1,8,0:0:0:0:
256,192,35938,1,8,0:0:0:0:
256,192,36188,1,0,0:0:0:0:
256,192,36688,1,8,0:0:0:0:
256,192,37188,1,0,0:0:0:0:
256,192,37438,1,8,0:0:0:0:
256,192,37563,1,8,0:0:0:0:
256,192,37688,1,8,0:0:0:0:
256,192,37938,1,0,0:0:0:0:
256,192,38188,1,0,0:0:0:0:
256,192,38438,1,8,0:0:0:0:
256,192,38688,1,8,0:0:0:0:
256,192,39188,1,8,0:0:0:0:
256,192,39438,1,8,0:0:0:0:
256,192,39563,1,8,0:0:0:0:
256,192,39688,1,8,0:0:0:0:
256,192,39938,1,8,0:0:0:0:
256,192,40188,1,0,0:0:0:0:
256,192,40438,1,8,0:0:0:0:
256,192,40688,1,0,0:0:0:0:
256,192,41188,1,8,0:0:0:0:
256,192,41313,1,8,0:0:0:0:
256,192,41438,1,8,0:0:0:0:
256,192,41688,1,8,0:0:0:0:
256,192,41938,1,0,0:0:0:0:
256,192,42188,1,8,0:0:0:0:
256,192,42688,1,0,0:0:0:0:
256,192,43188,1,0,0:0:0:0:
256,192,43313,1,0,0:0:0:0:
256,192,43438,1,0,0:0:0:0:
256,192,43688,1,8,0:0:0:0:
256,192,43938,1,0,0:0:0:0:
256,192,44188,1,8,0:0:0:0:
256,192,44688,1,0,0:0:0:0:
256,192,45188,1,8,0:0:0:0:
256,192,45313,1,8,0:0:0:0:
256,192,45438,1,8,0:0:0:0:
256,192,45688,1,8,0:0:0:0:
256,192,45938,1,0,0:0:0:0:
256,192,46188,1,8,0:0:0:0:
256,192,46688,1,0,0:0:0:0:
256,192,47188,1,0,0:0:0:0:
256,192,47313,1,0,0:0:0:0:
256,192,47438,1,0,0:0:0:0:
256,192,47688,1,8,0:0:0:0:
256,192,47938,1,0,0:0:0:0:
256,192,48188,1,8,0:0:0:0:
256,192,48688,1,0,0:0:0:0:
256,192,49188,1,0,0:0:0:0:
256,192,49688,1,8,0:0:0:0:
256,192,49938,1,0,0:0:0:0:
256,192,50188,1,8,0:0:0:0:
256,192,50688,1,0,0:0:0:0:
256,192,50938,1,0,0:0:0:0:
256,192,51188,1,8,0:0:0:0:
256,192,51688,1,8,0:0:0:0:
256,192,51938,1,8,0:0:0:0:
256,192,52188,1,0,0:0:0:0:
256,192,52438,1,8,0:0:0:0:
256,192,52688,1,0,0:0:0:0:
256,192,52938,1,0,0:0:0:0:
256,192,53188,1,8,0:0:0:0:
256,192,53688,1,8,0:0:0:0:
256,192,53938,1,0,0:0:0:0:
256,192,54188,1,8,0:0:0:0:
256,192,54688,1,8,0:0:0:0:
256,192,54938,1,8,0:0:0:0:
256,192,55188,1,0,0:0:0:0:
256,192,55688,1,0,0:0:0:0:
256,192,55938,1,0,0:0:0:0:
256,192,56188,1,8,0:0:0:0:
256,192,56438,1,0,0:0:0:0:
256,192,56938,1,8,0:0:0:0:
256,192,57188,1,0,0:0:0:0:
256,192,57688,1,8,0:0:0:0:
256,192,57938,1,0,0:0:0:0:
256,192,58188,1,8,0:0:0:0:
256,192,58688,1,0,0:0:0:0:
256,192,58938,1,0,0:0:0:0:
256,192,59188,1,8,0:0:0:0:
256,192,59438,1,8,0:0:0:0:
256,192,59563,1,8,0:0:0:0:
256,192,59688,1,8,0:0:0:0:
256,192,59938,1,8,0:0:0:0:
256,192,60188,1,0,0:0:0:0:
256,192,60688,1,8,0:0:0:0:
256,192,61188,1,0,0:0:0:0:
256,192,61688,1,8,0:0:0:0:
256,192,61938,1,0,0:0:0:0:
256,192,62188,1,0,0:0:0:0:
256,192,62438,2,0,L|256:96,2,70
256,192,63188,1,8,0:0:0:0:
256,192,63313,1,8,0:0:0:0:
256,192,63438,1,8,0:0:0:0:
256,192,63688,1,8,0:0:0:0:
256,192,63938,1,0,0:0:0:0:
256,192,64188,1,8,0:0:0:0:
256,192,64688,1,0,0:0:0:0:
256,192,65188,1,0,0:0:0:0:
256,192,65313,1,0,0:0:0:0:
256,192,65438,1,0,0:0:0:0:
256,192,65688,1,8,0:0:0:0:
256,192,65938,1,0,0:0:0:0:
256,192,66188,1,8,0:0:0:0:
256,192,66688,1,0,0:0:0:0:
256,192,67188,1,8,0:0:0:0:
256,192,67313,1,8,0:0:0:0:
256,192,67438,1,8,0:0:0:0:
256,192,67688,1,8,0:0:0:0:
256,192,67938,1,0,0:0:0:0:
256,192,68188,1,8,0:0:0:0:
256,192,68688,1,0,0:0:0:0:
256,192,69188,1,0,0:0:0:0:
256,192,69313,1,0,0:0:0:0:
256,192,69438,1,0,0:0:0:0:
256,192,69688,1,8,0:0:0:0:
256,192,69938,1,0,0:0:0:0:
256,192,70188,1,8,0:0:0:0:
256,192,70688,1,0,0:0:0:0:
256,192,71188,1,0,0:0:0:0:
256,192,71438,1,8,0:0:0:0:
256,192,71563,1,8,0:0:0:0:
256,192,71688,1,8,0:0:0:0:
256,192,71938,1,8,0:0:0:0:
256,192,72188,1,0,0:0:0:0:
256,192,72688,1,8,0:0:0:0:
256,192,72938,1,0,0:0:0:0:
256,192,73188,1,8,0:0:0:0:
256,192,73438,1,8,0:0:0:0:
256,192,73688,1,0,0:0:0:0:
256,192,73938,1,8,0:0:0:0:
256,192,74188,1,8,0:0:0:0:
256,192,74688,1,0,0:0:0:0:
256,192,75188,1,8,0:0:0:0:
256,192,75438,1,0,0:0:0:0:
256,192,75688,1,8,0:0:0:0:
256,192,75938,1,8,0:0:0:0:
256,192,76188,1,8,0:0:0:0:
256,192,76688,1,0,0:0:0:0:
256,192,77188,1,8,0:0:0:0:
256,192,77438,1,0,0:0:0:0:
256,192,77688,1,8,0:0:0:0:
256,192,77938,1,8,0:0:0:0:
256,192,78188,1,0,0:0:0:0:
256,192,78438,1,4,0:0:0:0:
