osu file format v14

[General]
AudioFilename: audio.mp3
AudioLeadIn: 0
PreviewTime: 2517
Countdown: 0
SampleSet: Normal
StackLeniency: 0.7
Mode: 1
LetterboxInBreaks: 0
WidescreenStoryboard: 1

[Editor]
DistanceSpacing: 0.7
BeatDivisor: 4
GridSize: 32
TimelineZoom: 2

[Metadata]
Title:Juste 1 Bout 2 Moi
TitleUnicode:Juste 1 Bout 2 Moi
Artist:Kemar
ArtistUnicode:Kemar
Creator:Oui
Version:Muzukashii
Source:
Tags:geronimo beats hiphop rnb youtube
BeatmapID:1548224
BeatmapSetID:733620

[Difficulty]
HPDrainRate:6
CircleSize:2
OverallDifficulty:4.5
ApproachRate:10
SliderMultiplier:2.8
SliderTickRate:1

[Events]
//Background and Video events
0,0,"bg.jpg",0,50
//Break Periods
//Storyboard Layer 0 (Background)
//Storyboard Layer 1 (Fail)
//Storyboard Layer 2 (Pass)
//Storyboard Layer 3 (Foreground)
//Storyboard Sound Samples

[TimingPoints]
-3773,967.741935483871,4,1,0,100,1,0

[HitObjects]
256,192,98,5,0,0:0:0:0:
256,192,340,1,0,0:0:0:0:
256,192,582,1,8,0:0:0:0:
256,192,824,1,0,0:0:0:0:
256,192,1550,1,8,0:0:0:0:
256,192,2517,1,0,0:0:0:0:
256,192,2759,1,0,0:0:0:0:
256,192,3001,1,8,0:0:0:0:
256,192,3485,1,8,0:0:0:0:
256,192,3969,1,4,0:0:0:0:
256,192,4453,1,0,0:0:0:0:
256,192,4695,1,0,0:0:0:0:
256,192,4937,1,8,0:0:0:0:
256,192,5421,1,0,0:0:0:0:
256,192,5904,1,0,0:0:0:0:
256,192,6146,1,0,0:0:0:0:
256,192,6267,1,0,0:0:0:0:
256,192,6388,1,0,0:0:0:0:
256,192,6872,1,8,0:0:0:0:
256,192,7356,1,8,0:0:0:0:
256,192,7598,1,0,0:0:0:0:
256,192,7840,1,0,0:0:0:0:
256,192,8324,1,0,0:0:0:0:
256,192,8566,1,0,0:0:0:0:
256,192,8687,1,0,0:0:0:0:
256,192,8808,1,0,0:0:0:0:
256,192,9292,1,8,0:0:0:0:
256,192,10259,1,0,0:0:0:0:
256,192,10501,1,0,0:0:0:0:
256,192,10743,1,8,0:0:0:0:
256,192,11227,1,0,0:0:0:0:
256,192,11469,1,8,0:0:0:0:
256,192,11711,1,4,0:0:0:0:
256,192,11953,1,0,0:0:0:0:
256,192,12074,1,0,0:0:0:0:
256,192,12195,1,0,0:0:0:0:
256,192,12679,1,8,0:0:0:0:
256,192,13162,1,0,0:0:0:0:
256,192,13646,1,0,0:0:0:0:
256,192,13888,1,8,0:0:0:0:
256,192,14130,1,0,0:0:0:0:
256,192,14614,1,8,0:0:0:0:
256,192,15098,1,0,0:0:0:0:
256,192,15340,1,8,0:0:0:0:
256,192,15824,1,8,0:0:0:0:
256,192,15945,1,8,0:0:0:0:
256,192,16066,1,8,0:0:0:0:
256,192,16308,1,0,0:0:0:0:
256,192,16550,1,8,0:0:0:0:
256,192,17033,1,8,0:0:0:0:
256,192,18001,1,0,0:0:0:0:
256,192,18243,1,0,0:0:0:0:
256,192,18485,1,8,0:0:0:0:
256,192,18969,1,8,0:0:0:0:
256,192,19211,1,8,0:0:0:0:
256,192,19453,1,4,0:0:0:0:
256,192,19695,1,8,0:0:0:0:
256,192,19816,1,8,0:0:0:0:
256,192,19937,1,8,0:0:0:0:
256,192,20421,1,8,0:0:0:0:
256,192,20904,1,0,0:0:0:0:
256,192,21388,1,0,0:0:0:0:
256,192,21630,1,8,0:0:0:0:
256,192,21872,1,0,0:0:0:0:
256,192,22356,1,8,0:0:0:0:
256,192,22840,1,0,0:0:0:0:
256,192,23082,1,8,0:0:0:0:
256,192,23324,1,0,0:0:0:0:
256,192,23808,1,0,0:0:0:0:
256,192,24050,1,0,0:0:0:0:
256,192,24171,1,0,0:0:0:0:
256,192,24292,1,0,0:0:0:0:
256,192,24533,1,12,0:0:0:0:
256,192,25259,1,0,0:0:0:0:
256,192,25743,1,0,0:0:0:0:
256,192,25985,1,0,0:0:0:0:
256,192,26227,1,8,0:0:0:0:
256,192,26711,1,8,0:0:0:0:
256,192,26953,1,8,0:0:0:0:
256,192,27195,1,0,0:0:0:0:
256,192,27437,1,0,0:0:0:0:
256,192,27558,1,0,0:0:0:0:
256,192,27679,1,0,0:0:0:0:
256,192,27921,1,0,0:0:0:0:
256,192,28162,1,8,0:0:0:0:
256,192,28646,1,8,0:0:0:0:
256,192,29130,1,0,0:0:0:0:
256,192,29614,1,0,0:0:0:0:
256,192,29856,1,0,0:0:0:0:
256,192,30098,1,8,0:0:0:0:
256,192,30582,1,0,0:0:0:0:
