osu file format v14

[General]
AudioFilename: audio.mp3
AudioLeadIn: 0
PreviewTime: 33093
Countdown: 1
SampleSet: None
StackLeniency: 0.7
Mode: 0
LetterboxInBreaks: 0
WidescreenStoryboard: 0

[Editor]
DistanceSpacing: 0.6
BeatDivisor: 4
GridSize: 8
TimelineZoom: 2.5

[Metadata]
Title:Behind These Hazel Eyes (Nightcore Remix)
TitleUnicode:Behind These Hazel Eyes (Nightcore Remix)
Artist:Kelly Clarkson
ArtistUnicode:Kelly Clarkson
Creator:Raikozen
Version:raikoplayer111
Source:
Tags:
BeatmapID:1356688
BeatmapSetID:639701

[Difficulty]
HPDrainRate:5
CircleSize:4
OverallDifficulty:7
ApproachRate:8
SliderMultiplier:1.4
SliderTickRate:1

[Events]
//Background and Video events
0,0,"CjUOpMc.jpg",0,0
//Break Periods
2,107652,112856
//Storyboard Layer 0 (Background)
//Storyboard Layer 1 (Fail)
//Storyboard Layer 2 (Pass)
//Storyboard Layer 3 (Foreground)
//Storyboard Sound Samples

[TimingPoints]
274,256.410256410256,4,1,1,70,1,0
786,256.410256410256,4,1,1,70,1,0
8991,-133.333333333333,4,2,1,50,0,0
33478,-79.9999999999999,4,1,1,50,0,0
33606,-79.9999999999999,4,1,1,70,0,1
43862,-79.9999999999999,4,1,1,70,0,0
45914,-79.9999999999999,4,1,1,70,0,1
48862,-105.263157894737,4,1,1,70,0,1
50016,-133.333333333333,4,2,1,50,0,0
74503,-66.6666666666667,4,1,1,70,0,1
84888,-66.6666666666667,4,1,1,50,0,0
86939,-66.6666666666667,4,1,1,70,0,1
107452,-66.6666666666667,4,1,1,50,0,0
115144,-100,4,1,1,50,0,0
115657,-66.6666666666667,4,1,1,80,0,1
127965,-52.6315789473684,4,1,1,80,0,1
140273,-66.6666666666667,4,1,1,80,0,1
142260,-200,4,1,1,80,0,1
142324,-200,4,1,1,50,0,0
143862,-200,4,1,1,70,0,0

[HitObjects]
192,48,274,6,0,P|184:104|192:128,1,70
320,48,530,2,0,P|328:104|320:128,1,70
200,224,786,2,0,B|240:224|256:192|256:192|272:224|315:223,1,140,0|8,0:0|0:0,0:0:0:0:
399,228,1170,1,0,0:0:0:0:
400,144,1298,1,0,0:0:0:0:
399,59,1427,1,0,0:0:0:0:
325,99,1555,6,0,P|332:213|411:274,1,210
344,328,2068,1,8,0:0:0:0:
176,352,2324,2,0,L|152:264,1,70
72,280,2580,2,0,L|96:192,1,70
176,192,2837,6,0,L|336:192,1,140,0|8,0:0|0:0,0:0:0:0:
288,112,3221,2,0,L|148:112,1,140
72,72,3606,2,0,B|40:136|40:136|40:208,1,140
43,288,3991,1,0,0:0:0:0:
125,292,4119,1,0,0:0:0:0:
208,292,4247,1,0,0:0:0:0:
291,291,4375,1,0,0:0:0:0:
374,291,4503,1,0,0:0:0:0:
375,206,4632,1,0,0:0:0:0:
376,122,4760,1,0,0:0:0:0:
312,66,4888,6,0,B|256:18|256:18|192:66,1,140,0|8,0:0|0:0,0:0:0:0:
144,120,5273,1,0,0:0:0:0:
64,120,5401,1,0,0:0:0:0:
64,40,5529,1,0,0:0:0:0:
144,40,5657,6,0,P|160:112|64:208,1,210
16,264,6170,1,0,0:0:0:0:
152,344,6427,2,0,L|224:344,1,70,8|0,0:0|0:0,0:0:0:0:
256,256,6683,2,0,L|160:256,1,70
224,168,6939,6,0,B|280:168|280:168|304:184|304:184|360:184,1,140,0|8,0:0|0:0,0:0:0:0:
432,144,7324,1,0,0:0:0:0:
504,192,7452,2,0,L|504:272,1,70
504,344,7709,1,2,0:0:0:0:
256,32,8991,6,0,L|256:160,1,105.000004005432
256,320,9503,2,0,L|256:192,1,105.000004005432,8|0,0:0|0:0,0:0:0:0:
48,176,10016,2,0,L|48:296,1,105.000004005432
128,288,10401,2,0,L|128:183,1,105.000004005432
128,104,10785,1,0,0:0:0:0:
235,342,11042,6,0,L|356:331,1,105.000004005432
503,273,11555,2,0,L|382:262,1,105.000004005432,8|0,0:0|0:0,0:0:0:0:
256,192,12068,1,0,0:0:0:0:
384,96,12324,1,0,0:0:0:0:
256,192,12580,2,0,L|360:182,1,105.000004005432,8|0,0:0|0:0,0:0:0:0:
225,67,13093,6,0,B|184:49|152:82|105:64,1,105.000004005432
0,192,13606,2,0,B|41:174|73:207|120:189,1,105.000004005432,8|0,0:0|0:0,0:0:0:0:
192,160,13991,1,0,0:0:0:0:
320,160,14247,1,0,0:0:0:0:
256,272,14503,1,0,0:0:0:0:
192,304,14632,2,0,P|256:352|320:304,1,157.500006008148,8|0,0:0|0:0,0:0:0:0:
393,313,15144,5,0,0:0:0:0:
510,202,15401,1,0,0:0:0:0:
434,180,15529,1,0,0:0:0:0:
496,24,15785,1,0,0:0:0:0:
376,64,16042,2,0,L|208:24,1,157.500006008148
144,64,16555,1,0,0:0:0:0:
79,19,16683,2,0,P|40:56|44:117,1,105.000004005432
8,256,17196,6,0,L|136:248,1,105.000004005432
256,189,17709,2,0,B|296:138|257:92,1,105.000004005432,8|0,0:0|0:0,0:0:0:0:
196,245,18093,1,0,0:0:0:0:
316,245,18350,1,0,0:0:0:0:
379,347,18606,1,0,0:0:0:0:
409,274,18734,2,0,B|448:257|478:298|522:275,1,105.000004005432,8|0,0:0|0:0,0:0:0:0:
381,180,19247,5,0,0:0:0:0:
504,64,19503,1,0,0:0:0:0:
424,64,19632,1,0,0:0:0:0:
344,64,19760,1,8,0:0:0:0:
168,96,20016,1,0,0:0:0:0:
88,96,20144,1,0,0:0:0:0:
88,264,20401,1,0,0:0:0:0:
256,263,20657,2,0,P|280:216|256:168,2,105.000004005432
144,352,21298,6,0,L|312:352,1,157.500006008148
384,352,21811,1,8,0:0:0:0:
384,208,22068,1,0,0:0:0:0:
384,280,22196,1,0,0:0:0:0:
384,352,22324,2,0,L|496:352,1,105.000004005432
488,136,22837,2,0,L|376:136,1,105.000004005432,8|0,0:0|0:0,0:0:0:0:
128,128,23350,5,0,0:0:0:0:
208,128,23479,2,0,L|208:256,1,105.000004005432
128,128,23862,1,8,0:0:0:0:
48,128,23991,2,0,L|48:0,1,105.000004005432
208,40,24375,2,0,L|376:40,1,157.500006008148
440,40,24888,1,8,0:0:0:0:
440,336,25144,1,0,0:0:0:0:
440,40,25401,5,4,0:0:0:0:
440,192,25657,2,0,L|320:192,1,105.000004005432,0|8,0:0|0:0,0:0:0:0:
32,192,26170,2,0,B|80:192|80:192|104:168|104:168|128:224|128:224|144:192|144:192|232:192,1,262.500010013581,2|0,0:0|0:0,0:0:0:0:
296,192,26939,1,0,0:0:0:0:
296,48,27196,1,8,0:0:0:0:
224,48,27324,1,0,0:0:0:0:
224,120,27452,6,0,L|344:120,1,105.000004005432
464,120,27965,1,8,0:0:0:0:
336,288,28221,2,0,B|424:240|424:240|464:360,1,210.000008010865,2|0,0:0|0:0,0:0:0:0:
488,176,28991,1,8,0:0:0:0:
280,360,29247,1,0,0:0:0:0:
208,360,29375,1,0,0:0:0:0:
136,360,29503,6,0,L|136:248,2,105.000004005432,2|0|8,0:0|0:0|0:0,0:0:0:0:
0,192,30273,2,0,L|328:192,1,315.000012016297,0|8,0:0|0:0,0:0:0:0:
480,192,31298,1,0,0:0:0:0:
480,192,31555,1,2,0:0:0:0:
480,96,31811,5,2,0:0:0:0:
480,288,32068,1,2,0:0:0:0:
256,288,32325,1,2,0:0:0:0:
32,288,32580,1,2,0:0:0:0:
256,8,33093,6,0,L|256:120,1,105.000004005432
336,176,33478,1,0,0:0:0:0:
336,176,33606,6,0,P|256:208|176:176,1,175,4|0,0:0|0:0,0:0:0:0:
80,112,33991,1,0,0:0:0:0:
0,192,34119,2,0,P|48:272|0:368,1,175,8|0,0:0|0:0,0:0:0:0:
128,304,34503,1,0,0:0:0:0:
224,368,34632,2,0,L|432:368,1,175
128,160,35144,1,8,0:0:0:0:
480,80,35401,1,0,0:0:0:0:
384,16,35529,1,0,0:0:0:0:
288,80,35657,6,0,L|288:288,1,175
32,368,36170,2,0,L|32:193,1,175,8|0,0:0|0:0,0:0:0:0:
32,80,36555,1,0,0:0:0:0:
128,288,36811,2,0,L|128:113,1,175
208,208,37196,2,0,L|208:33,1,175,8|0,0:0|0:0,0:0:0:0:
304,80,37580,1,0,0:0:0:0:
304,80,37709,6,0,P|400:64|416:64,1,87.5
512,160,37965,2,0,P|416:176|400:176,1,87.5
320,160,38221,1,8,0:0:0:0:
176,336,38478,1,0,0:0:0:0:
288,320,38606,1,0,0:0:0:0:
400,304,38734,1,0,0:0:0:0:
208,192,38991,2,0,L|32:192,1,175,0|8,0:0|0:0,0:0:0:0:
352,192,39503,1,0,0:0:0:0:
164,80,39760,5,0,0:0:0:0:
244,0,39888,1,0,0:0:0:0:
324,80,40016,2,0,L|500:80,1,175,0|8,0:0|0:0,0:0:0:0:
432,240,40529,1,0,0:0:0:0:
352,320,40657,1,0,0:0:0:0:
272,240,40785,2,0,L|96:240,2,175,0|0|8,0:0|0:0|0:0,0:0:0:0:
352,160,41427,1,0,0:0:0:0:
272,80,41555,1,8,0:0:0:0:
176,144,41683,1,0,0:0:0:0:
67,111,41811,6,0,B|79:30|181:-2|213:55,1,175,4|0,0:0|0:0,0:0:0:0:
307,7,42196,1,0,0:0:0:0:
401,70,42324,2,0,L|383:281,1,175,8|0,0:0|0:0,0:0:0:0:
294,312,42709,1,0,0:0:0:0:
198,249,42837,2,0,B|163:312|63:335|19:281,2,175,0|10|0,0:0|0:0|0:0,0:0:0:0:
29,66,43606,1,0,0:0:0:0:
25,144,43734,1,0,0:0:0:0:
22,220,43862,5,0,0:0:0:0:
255,144,44375,5,0,0:0:0:0:
3,215,44888,5,0,0:0:0:0:
265,153,45401,5,8,0:0:0:0:
163,23,45657,1,8,0:0:0:0:
168,110,45785,1,8,0:0:0:0:
174,197,45914,2,0,P|107:230|1:181,2,175,6|0|8,0:0|0:0|0:0,0:0:0:0:
373,9,46683,2,0,B|333:154|428:109|361:289,1,262.5
325,335,47196,1,8,0:0:0:0:
10,191,47452,1,8,0:0:0:0:
97,189,47580,1,0,0:0:0:0:
185,187,47709,1,0,0:0:0:0:
272,186,47837,1,0,0:0:0:0:
359,188,47965,6,0,B|414:131|385:41|312:51,1,175,0|8,0:0|0:0,0:0:0:0:
293,130,48350,2,0,B|238:187|267:277|340:267,1,175,0|8,0:0|0:0,0:0:0:0:
409,262,48734,1,8,0:0:0:0:
491,225,48862,2,0,L|502:9,1,199.499994672775
281,26,49503,1,8,0:0:0:0:
286,53,49632,1,0,0:0:0:0:
292,78,49760,1,0,0:0:0:0:
152,168,50016,5,0,0:0:0:0:
0,168,50273,1,0,0:0:0:0:
0,63,50529,2,0,L|0:175,1,105.000004005432,8|0,0:0|0:0,0:0:0:0:
152,352,51042,2,0,L|152:240,1,105.000004005432
152,352,51427,2,0,L|264:352,1,105.000004005432
336,352,51811,1,0,0:0:0:0:
504,352,52068,5,0,0:0:0:0:
504,112,52324,1,0,0:0:0:0:
504,192,52452,1,0,0:0:0:0:
504,272,52580,1,8,0:0:0:0:
504,32,52837,1,0,0:0:0:0:
504,352,53093,1,0,0:0:0:0:
504,32,53350,1,0,0:0:0:0:
440,232,53606,2,0,L|320:232,1,105.000004005432,8|0,0:0|0:0,0:0:0:0:
40,232,54119,5,0,0:0:0:0:
256,232,54375,1,0,0:0:0:0:
40,344,54632,1,8,0:0:0:0:
256,344,54888,1,0,0:0:0:0:
192,344,55016,1,0,0:0:0:0:
128,344,55144,1,0,0:0:0:0:
256,144,55401,1,0,0:0:0:0:
40,144,55657,2,0,L|168:144,1,105.000004005432,8|0,0:0|0:0,0:0:0:0:
368,56,56042,1,0,0:0:0:0:
281,56,56170,6,0,P|249:88|273:160,1,105.000004005432
320,192,56555,2,0,L|440:192,1,105.000004005432
496,272,56939,1,0,0:0:0:0:
160,272,57196,2,0,L|370:272,1,210.000008010865,0|8,0:0|0:0,0:0:0:0:
64,360,57965,1,0,0:0:0:0:
64,296,58093,1,0,0:0:0:0:
64,232,58221,5,0,0:0:0:0:
232,136,58478,1,0,0:0:0:0:
232,352,58734,1,8,0:0:0:0:
64,232,58991,1,0,0:0:0:0:
304,232,59247,2,0,L|416:232,1,105.000004005432
504,200,59632,2,0,B|528:144|448:80|392:152,1,157.500006008148
440,352,60273,5,0,0:0:0:0:
504,200,60529,1,0,0:0:0:0:
360,352,60785,1,8,0:0:0:0:
280,352,60914,2,0,L|168:352,1,105.000004005432
176,272,61298,2,0,L|288:272,1,105.000004005432
360,272,61683,2,0,L|472:272,1,105.000004005432
360,192,62068,1,0,0:0:0:0:
104,320,62324,6,0,B|64:256|88:192|160:184,1,157.500006008148
216,192,62837,1,8,0:0:0:0:
16,264,63093,1,0,0:0:0:0:
216,352,63350,1,0,0:0:0:0:
304,352,63478,1,0,0:0:0:0:
304,264,63606,1,0,0:0:0:0:
216,264,63734,1,0,0:0:0:0:
216,352,63862,1,8,0:0:0:0:
384,352,64119,1,0,0:0:0:0:
120,352,64375,6,0,L|120:240,1,105.000004005432
24,152,64760,2,0,L|24:273,2,105.000004005432
104,88,65401,2,0,B|168:72|216:112|272:80,1,157.500006008148
344,88,65914,1,8,0:0:0:0:
480,272,66170,1,0,0:0:0:0:
416,272,66298,1,0,0:0:0:0:
352,272,66427,5,4,0:0:0:0:
496,192,66683,2,0,L|384:192,1,105.000004005432,0|8,0:0|0:0,0:0:0:0:
272,360,67196,2,0,L|488:360,1,210.000008010865
160,360,67965,1,8,0:0:0:0:
32,136,68221,1,0,0:0:0:0:
96,136,68349,1,0,0:0:0:0:
160,136,68478,5,0,0:0:0:0:
16,216,68734,2,0,L|128:216,1,105.000004005432,0|8,0:0|0:0,0:0:0:0:
240,48,69247,2,0,L|24:48,1,210.000008010865,0|8,0:0|0:0,0:0:0:0:
320,48,70016,1,0,0:0:0:0:
320,352,70273,1,0,0:0:0:0:
472,352,70529,5,0,0:0:0:0:
176,352,70785,2,0,L|48:352,1,105.000004005432,0|8,0:0|0:0,0:0:0:0:
16,152,71298,2,0,B|56:88|128:64|208:112|200:184|168:208|80:216,1,315.000012016297,0|8,0:0|0:0,0:0:0:0:
40,32,72324,1,0,0:0:0:0:
32,352,72580,5,2,0:0:0:0:
480,352,72837,1,2,0:0:0:0:
472,32,73093,1,2,0:0:0:0:
40,32,73350,1,2,0:0:0:0:
32,352,73606,1,2,0:0:0:0:
496,192,74119,6,0,L|384:192,1,105.000004005432
192,208,74503,1,0,0:0:0:0:
280,160,74632,6,0,P|320:256|224:344,1,210.000008010865,4|0,0:0|0:0,0:0:0:0:
128,312,75016,1,0,0:0:0:0:
40,224,75144,2,0,P|36:123|120:68,1,210.000008010865,8|0,0:0|0:0,0:0:0:0:
240,112,75529,1,0,0:0:0:0:
360,56,75657,2,0,L|346:265,1,210.000008010865
448,344,76042,1,0,0:0:0:0:
512,232,76170,1,8,0:0:0:0:
0,232,76427,1,0,0:0:0:0:
64,344,76555,1,0,0:0:0:0:
165,265,76683,6,0,L|152:56,1,210.000008010865
272,24,77068,1,0,0:0:0:0:
352,120,77196,2,0,L|339:329,1,210.000008010865,8|0,0:0|0:0,0:0:0:0:
456,376,77580,1,0,0:0:0:0:
232,264,77837,1,0,0:0:0:0:
0,368,78093,1,0,0:0:0:0:
120,328,78221,2,0,P|152:208|96:136,1,210.000008010865,8|8,0:0|0:0,0:0:0:0:
216,88,78606,1,8,0:0:0:0:
120,16,78734,6,0,P|40:40|32:184,1,210.000008010865,4|0,0:0|0:0,0:0:0:0:
200,288,79247,2,0,L|448:288,1,210.000008010865,8|0,0:0|0:0,0:0:0:0:
504,200,79632,1,0,0:0:0:0:
504,328,79760,1,0,0:0:0:0:
256,88,80016,1,0,0:0:0:0:
368,32,80144,1,0,0:0:0:0:
488,88,80272,1,8,0:0:0:0:
24,88,80529,1,0,0:0:0:0:
136,32,80657,1,0,0:0:0:0:
256,88,80785,5,0,0:0:0:0:
24,368,81042,1,0,0:0:0:0:
24,88,81298,1,8,0:0:0:0:
256,368,81555,1,0,0:0:0:0:
256,240,81683,2,0,L|256:16,1,210.000008010865
144,88,82068,2,0,P|120:144|144:192,1,105.000004005432,8|0,0:0|0:0,0:0:0:0:
377,182,82324,2,0,P|391:133|368:88,1,105.000004005432,8|0,0:0|0:0,0:0:0:0:
256,16,82580,1,8,0:0:0:0:
256,144,82709,1,8,0:0:0:0:
256,272,82837,5,4,0:0:0:0:
480,16,83093,1,0,0:0:0:0:
40,16,83350,2,0,L|40:256,1,210.000008010865,8|0,0:0|0:0,0:0:0:0:
144,296,83734,1,0,0:0:0:0:
248,224,83862,2,0,L|248:14,1,210.000008010865
24,344,84375,1,8,0:0:0:0:
464,208,84632,1,0,0:0:0:0:
368,296,84760,1,0,0:0:0:0:
488,344,84888,1,2,0:0:0:0:
256,192,85016,12,0,86170,0:0:0:0:
360,160,86427,5,2,0:0:0:0:
360,288,86555,1,2,0:0:0:0:
272,376,86683,1,2,0:0:0:0:
144,384,86812,1,2,0:0:0:0:
24,344,86939,2,0,P|3:211|59:115,1,210.000008010865,4|0,0:0|0:0,0:0:0:0:
152,96,87324,1,0,0:0:0:0:
112,0,87452,2,0,L|120:128,1,105.000004005432,8|0,0:0|0:0,0:0:0:0:
208,192,87709,6,0,P|320:176|208:72,1,315.000012016297
152,96,88221,1,8,0:0:0:0:
392,368,88478,1,0,0:0:0:0:
488,312,88606,1,0,0:0:0:0:
472,216,88734,1,0,0:0:0:0:
368,184,88862,1,0,0:0:0:0:
350,287,88991,6,0,P|248:312|136:256,1,210.000008010865,0|8,0:0|0:0,0:0:0:0:
88,192,89375,1,0,0:0:0:0:
112,88,89503,1,0,0:0:0:0:
200,32,89632,1,0,0:0:0:0:
304,64,89760,1,8,0:0:0:0:
312,168,89888,1,0,0:0:0:0:
232,232,90016,2,0,L|392:232,1,140.000005340576
432,192,90273,6,0,L|432:104,5,70.0000026702882,8|0|0|0|0|0,0:0|0:0|0:0|0:0|0:0|0:0,0:0:0:0:
504,208,90785,5,0,0:0:0:0:
488,360,91042,5,0,0:0:0:0:
112,67,91298,5,0,0:0:0:0:
118,167,91427,1,0,0:0:0:0:
131,266,91555,1,8,0:0:0:0:
318,110,91811,5,0,0:0:0:0:
312,210,91940,1,0,0:0:0:0:
299,310,92068,1,8,0:0:0:0:
212,79,92324,5,0,0:0:0:0:
212,179,92452,1,0,0:0:0:0:
212,279,92580,1,8,0:0:0:0:
504,56,92837,6,0,B|400:-64|256:96|328:160|392:176|480:176|512:120,1,420.000016021729
496,328,93606,2,0,P|432:304|368:320,1,105.000004005432,8|0,0:0|0:0,0:0:0:0:
320,344,93862,2,0,P|216:352|200:344,1,105.000004005432
144,312,94119,5,0,0:0:0:0:
112,32,94375,1,8,0:0:0:0:
104,88,94503,1,0,0:0:0:0:
96,144,94632,1,8,0:0:0:0:
88,192,94760,1,0,0:0:0:0:
80,248,94888,1,8,0:0:0:0:
72,304,95016,1,0,0:0:0:0:
64,360,95144,1,4,0:0:0:0:
376,71,95401,5,0,0:0:0:0:
336,165,95529,1,0,0:0:0:0:
370,265,95657,1,8,0:0:0:0:
222,30,95914,5,0,0:0:0:0:
262,124,96042,1,0,0:0:0:0:
229,225,96170,1,8,0:0:0:0:
47,138,96427,5,0,0:0:0:0:
155,131,96555,1,0,0:0:0:0:
262,124,96683,1,8,0:0:0:0:
16,320,96939,6,0,B|80:305|80:305|101:277|101:277|144:327|144:327|166:305|166:305|287:279,1,315.000012016297
368,264,97452,1,8,0:0:0:0:
464,56,97709,6,0,L|464:144,5,70.0000026702882
384,40,98221,1,8,0:0:0:0:
56,128,98478,1,0,0:0:0:0:
56,128,98563,1,0,0:0:0:0:
56,128,98649,1,0,0:0:0:0:
56,128,98734,1,8,0:0:0:0:
248,312,98991,1,8,0:0:0:0:
208,24,99247,5,4,0:0:0:0:
16,256,99503,5,0,0:0:0:0:
144,240,99632,1,0,0:0:0:0:
272,224,99760,1,8,0:0:0:0:
0,88,100016,5,0,0:0:0:0:
128,104,100144,1,0,0:0:0:0:
256,120,100273,1,8,0:0:0:0:
8,360,100529,5,0,0:0:0:0:
136,344,100658,1,0,0:0:0:0:
264,328,100786,1,8,0:0:0:0:
488,240,101042,6,0,B|504:168|440:96|336:200|360:280|368:392|424:352,1,315.000012016297
488,336,101555,1,0,0:0:0:0:
496,32,101811,1,8,0:0:0:0:
232,144,102068,1,0,0:0:0:0:
104,24,102324,1,0,0:0:0:0:
112,104,102452,1,0,0:0:0:0:
120,184,102580,1,8,0:0:0:0:
240,16,102837,1,8,0:0:0:0:
208,368,103093,6,0,B|24:456|-24:288|64:224|232:288,1,420.000016021729
456,344,103862,1,8,0:0:0:0:
341,36,104119,5,0,0:0:0:0:
349,116,104247,1,0,0:0:0:0:
357,196,104375,1,8,0:0:0:0:
317,28,104632,5,0,0:0:0:0:
325,116,104760,1,0,0:0:0:0:
334,203,104888,1,8,0:0:0:0:
292,19,105144,5,0,0:0:0:0:
300,117,105272,1,0,0:0:0:0:
310,215,105400,5,8,0:0:0:0:
443,27,105657,1,2,0:0:0:0:
174,57,105914,1,2,0:0:0:0:
464,153,106170,1,2,0:0:0:0:
141,169,106427,1,2,0:0:0:0:
485,289,106683,1,2,0:0:0:0:
111,303,106939,2,0,P|175:323|226:304,1,105.000004005432,10|0,0:0|0:0,0:0:0:0:
141,169,107196,2,0,P|77:149|26:168,1,105.000004005432,10|0,0:0|0:0,0:0:0:0:
15,351,107452,5,4,0:0:0:0:
469,24,113606,5,0,0:0:0:0:
484,101,113862,1,0,0:0:0:0:
448,214,114119,1,0,0:0:0:0:
290,352,114375,1,0,0:0:0:0:
30,304,114631,1,0,0:0:0:0:
30,304,115144,6,0,P|108:278|177:316,1,140
256,352,115529,1,0,0:0:0:0:
256,352,115657,6,0,L|256:96,1,210.000008010865
144,48,116042,1,0,0:0:0:0:
160,192,116170,1,8,0:0:0:0:
360,96,116427,1,0,0:0:0:0:
392,216,116555,1,0,0:0:0:0:
280,176,116683,6,0,B|304:80|616:80|440:384|360:344,1,420.000016021729,2|8,0:0|0:0,0:0:0:0:
24,200,117452,1,0,0:0:0:0:
216,16,117709,6,0,B|160:104|160:104|224:224,1,210.000008010865
320,256,118093,1,0,0:0:0:0:
440,216,118221,2,0,L|425:6,1,210.000008010865,8|0,0:0|0:0,0:0:0:0:
512,104,118606,1,0,0:0:0:0:
208,200,118862,1,0,0:0:0:0:
496,336,119119,1,0,0:0:0:0:
368,320,119247,2,0,L|112:288,1,210.000008010865,8|8,0:0|0:0,0:0:0:0:
40,248,119632,1,8,0:0:0:0:
8,368,119760,6,0,L|256:352,2,210.000008010865,4|0|8,0:0|0:0|0:0,0:0:0:0:
304,96,120529,1,0,0:0:0:0:
192,80,120657,1,0,0:0:0:0:
80,64,120785,2,0,L|336:48,1,210.000008010865
448,288,121298,1,8,0:0:0:0:
440,160,121427,1,0,0:0:0:0:
320,128,121556,1,0,0:0:0:0:
344,248,121683,1,0,0:0:0:0:
240,288,121811,6,0,L|0:288,1,210.000008010865
96,112,122196,1,0,0:0:0:0:
136,208,122324,2,0,L|136:-16,1,210.000008010865,8|0,0:0|0:0,0:0:0:0:
256,128,122709,1,0,0:0:0:0:
328,208,122837,2,0,P|368:128|272:32,1,210.000008010865
32,112,123350,1,8,0:0:0:0:
248,176,123606,1,8,0:0:0:0:
216,280,123734,1,8,0:0:0:0:
256,376,123862,6,0,B|320:344|320:344|296:80,1,315.000012016297,4|0,0:0|0:0,0:0:0:0:
280,0,124375,1,8,0:0:0:0:
120,296,124632,1,0,0:0:0:0:
88,192,124760,1,0,0:0:0:0:
192,192,124888,2,0,P|144:272|0:240,1,210.000008010865
192,8,125401,1,8,0:0:0:0:
336,336,125657,1,0,0:0:0:0:
424,280,125785,1,0,0:0:0:0:
392,168,125914,6,0,P|328:264|376:368,1,210.000008010865
496,88,126427,2,0,L|248:72,1,210.000008010865,8|0,0:0|0:0,0:0:0:0:
208,168,126811,1,0,0:0:0:0:
336,112,126939,5,8,0:0:0:0:
32,16,127196,1,8,0:0:0:0:
56,368,127452,1,8,0:0:0:0:
32,16,127709,5,10,0:0:0:0:
40,192,127837,1,10,0:0:0:0:
56,368,127965,2,0,B|8:344|8:344|272:360,1,265.999992897034,6|0,0:0|0:0,0:0:0:0:
512,176,128478,1,8,0:0:0:0:
384,136,128606,1,0,0:0:0:0:
408,264,128734,2,0,L|424:-16,2,265.999992897034,8|0|2,0:0|0:0|0:0,0:0:0:0:
304,208,129375,5,2,0:0:0:0:
248,144,129503,1,10,0:0:0:0:
168,152,129632,1,2,0:0:0:0:
136,224,129760,1,2,0:0:0:0:
184,296,129888,1,2,0:0:0:0:
272,312,130016,6,0,P|373:317|416:152,1,265.999992897034,2|0,0:0|0:0,0:0:0:0:
288,56,130401,1,0,0:0:0:0:
464,40,130529,2,0,B|376:8|368:8|336:48|272:40|208:0|168:16,1,265.999992897034,8|0,0:0|0:0,0:0:0:0:
0,248,130914,2,0,B|5:261|69:221|133:213|165:253|173:253|261:221,1,265.999992897034,8|0,0:0|0:0,0:0:0:0:
421,123,131298,5,2,3:0:0:0:
416,148,131384,1,0,3:0:0:0:
411,174,131469,1,0,3:0:0:0:
407,199,131555,1,2,3:0:0:0:
402,225,131640,1,0,3:0:0:0:
399,251,131726,1,0,3:0:0:0:
396,276,131811,1,2,3:0:0:0:
393,302,131897,1,0,3:0:0:0:
390,328,131982,1,0,3:0:0:0:
394,350,132068,6,0,P|489:289|446:128,1,265.999992897034,6|0,0:0|0:0,0:0:0:0:
3,63,132580,2,0,P|-19:187|82:262,1,265.999992897034,8|0,0:0|0:0,0:0:0:0:
209,220,132965,1,0,0:0:0:0:
279,107,133093,2,0,P|217:51|78:146,1,265.999992897034
455,20,133606,1,8,0:0:0:0:
208,304,133862,1,0,0:0:0:0:
304,320,133991,1,0,0:0:0:0:
390,337,134119,6,0,B|419:303|419:303|165:368|252:365,1,265.999992897034
135,100,134632,2,0,B|95:121|95:121|356:151|273:123,1,265.999992897034,8|0,0:0|0:0,0:0:0:0:
57,26,135016,1,0,0:0:0:0:
57,26,135144,2,0,L|64:342,1,265.999992897034
153,4,135657,1,8,0:0:0:0:
288,312,135914,1,8,0:0:0:0:
336,200,136042,1,8,0:0:0:0:
304,80,136170,6,0,P|256:144|354:340,1,265.999992897034,4|0,0:0|0:0,0:0:0:0:
494,24,136683,1,8,0:0:0:0:
4,181,136939,1,0,0:0:0:0:
131,168,137068,1,0,0:0:0:0:
260,152,137196,1,0,0:0:0:0:
3,19,137452,1,0,0:0:0:0:
247,335,137709,2,0,L|550:343,1,265.999992897034,8|0,0:0|0:0,0:0:0:0:
464,133,138093,1,0,0:0:0:0:
434,246,138221,6,0,P|365:185|428:25,1,265.999992897034
89,347,138734,2,0,P|168:249|114:135,1,265.999992897034,8|0,0:0|0:0,0:0:0:0:
79,236,139119,1,0,0:0:0:0:
157,307,139247,1,0,0:0:0:0:
261,287,139375,1,0,0:0:0:0:
294,186,139503,1,0,0:0:0:0:
260,84,139632,1,0,0:0:0:0:
329,3,139760,1,8,0:0:0:0:
434,15,139888,1,8,0:0:0:0:
480,110,140016,1,8,0:0:0:0:
433,205,140144,1,8,0:0:0:0:
326,198,140273,6,0,P|224:170|110:204,1,210.000008010865,4|0,0:0|0:0,0:0:0:0:
22,122,140657,1,0,0:0:0:0:
114,36,140785,2,0,P|132:153|86:260,1,210.000008010865,8|0,0:0|0:0,0:0:0:0:
17,331,141170,1,0,0:0:0:0:
142,317,141298,2,0,L|388:294,1,210.000008010865
457,26,141811,1,8,0:0:0:0:
441,86,141939,1,0,0:0:0:0:
475,139,142068,1,0,0:0:0:0:
506,193,142196,1,0,0:0:0:0:
480,250,142324,6,0,B|461:311|461:311|485:344|485:344|470:379,2,140
8,360,143862,5,8,0:0:0:0:
256,16,144119,1,8,0:0:0:0:
256,104,144247,1,8,0:0:0:0:
256,192,144375,1,4,0:0:0:0:
