osu file format v14

[General]
AudioFilename: audio.mp3
AudioLeadIn: 0
PreviewTime: 50588
Countdown: 0
SampleSet: Soft
StackLeniency: 0.5
Mode: 0
LetterboxInBreaks: 0
WidescreenStoryboard: 1

[Editor]
Bookmarks: 131136
DistanceSpacing: 2.4
BeatDivisor: 8
GridSize: 32
TimelineZoom: 1.4

[Metadata]
Title:Take Me Apart
TitleUnicode:Take Me Apart
Artist:Kelela
ArtistUnicode:Kelela
Creator:plsleaf
Version:Hard
Source:
Tags:Pop English R&B RnB Rhythm and Blues Electronic ከለላ
BeatmapID:2660098
BeatmapSetID:1270559

[Difficulty]
HPDrainRate:4
CircleSize:5
OverallDifficulty:6
ApproachRate:7.5
SliderMultiplier:1.6
SliderTickRate:1

[Events]
//Background and Video events
0,0,"take me apart.jpg",0,0
//Break Periods
//Storyboard Layer 0 (Background)
//Storyboard Layer 1 (Fail)
//Storyboard Layer 2 (Pass)
//Storyboard Layer 3 (Foreground)
//Storyboard Layer 4 (Overlay)
//Storyboard Sound Samples

[TimingPoints]
246,821.917808219178,4,2,0,25,1,0
246,-133.333333333333,4,2,0,25,0,0
6821,-133.333333333333,4,2,0,20,0,0
7848,-133.333333333333,4,2,0,25,0,0
10109,-133.333333333333,4,2,0,20,0,0
10930,-133.333333333333,4,2,0,25,0,0
19972,-133.333333333333,4,2,0,20,0,0
20793,-133.333333333333,4,2,0,25,0,0
26547,-100,4,2,0,30,0,0
46376,-100,4,2,0,25,0,0
51204,-80,4,2,0,35,0,0
52026,-80,4,2,0,30,0,0
52437,-80,4,2,0,25,0,0
52848,-66.6666666666667,4,2,0,40,0,1
55006,-66.6666666666667,4,2,0,50,0,1
55314,-66.6666666666667,4,2,0,40,0,1
58293,-66.6666666666667,4,2,0,55,0,1
58807,-66.6666666666667,4,2,0,40,0,1
61581,-66.6666666666667,4,2,0,50,0,1
62095,-66.6666666666667,4,2,0,40,0,1
64869,-66.6666666666667,4,2,0,55,0,1
65177,-66.6666666666667,4,2,0,40,0,1
68156,-66.6666666666667,4,2,0,50,0,1
68465,-66.6666666666667,4,2,0,40,0,1
69287,-57.1428571428571,4,2,0,40,0,1
70519,-66.6666666666667,4,2,0,40,0,1
71444,-66.6666666666667,4,2,0,55,0,1
71752,-66.6666666666667,4,2,0,40,0,1
74732,-66.6666666666667,4,2,0,50,0,1
75246,-66.6666666666667,4,2,0,40,0,1
78019,-66.6666666666667,4,2,0,55,0,1
78533,-66.6666666666667,4,2,0,35,0,1
79150,-100,4,2,0,40,0,0
79252,-100,4,2,0,30,0,0
98876,-100,4,2,0,25,0,0
100519,-80,4,2,0,30,0,0
103807,-100,4,2,0,30,0,0
105451,-133.333333333333,4,2,0,30,0,0
118602,-100,4,2,0,35,0,0
130109,-100,4,2,0,30,0,0
130930,-100,4,2,0,25,0,0
131341,-100,4,2,0,30,0,0
131752,-66.6666666666667,4,2,0,45,0,1
133910,-66.6666666666667,4,2,0,55,0,1
134424,-66.6666666666667,4,2,0,45,0,1
137198,-66.6666666666667,4,2,0,60,0,1
137711,-66.6666666666667,4,2,0,45,0,1
140485,-66.6666666666667,4,2,0,55,0,1
140999,-66.6666666666667,4,2,0,45,0,1
143773,-66.6666666666667,4,2,0,60,0,1
144081,-66.6666666666667,4,2,0,45,0,1
147061,-66.6666666666667,4,2,0,55,0,1
147369,-66.6666666666667,4,2,0,45,0,1
148191,-57.1428571428571,4,2,0,45,0,1
149424,-66.6666666666667,4,2,0,45,0,1
150348,-66.6666666666667,4,2,0,60,0,1
150656,-66.6666666666667,4,2,0,45,0,1
151067,-66.6666666666667,4,2,0,45,0,1
153636,-66.6666666666667,4,2,0,55,0,1
154150,-66.6666666666667,4,2,0,45,0,1
156924,-66.6666666666667,4,2,0,60,0,1
157437,-66.6666666666667,4,2,0,40,0,1
158054,-100,4,2,0,40,0,0
160314,-100,4,2,0,30,0,0
161341,-100,4,2,0,40,0,0
162780,-100,4,2,0,30,0,0
164629,-100,4,2,0,40,0,0
167095,-100,4,2,0,30,0,0
167917,-100,4,2,0,40,0,0
169561,-80,4,2,0,40,0,0
171204,-100,4,2,0,35,0,0
171615,-100,4,2,0,25,0,0
183533,-100,4,2,0,45,0,0
184355,-160,4,2,0,50,0,1
184458,-160,4,2,0,10,0,1
186821,-160,4,2,0,100,0,1
186924,-160,4,2,0,10,0,1
189698,-80,4,2,0,40,0,0
190930,-66.6666666666667,4,2,0,50,0,1
193088,-66.6666666666667,4,2,0,60,0,1
193602,-66.6666666666667,4,2,0,50,0,1
196478,-66.6666666666667,4,2,0,50,0,1
196581,-66.6666666666667,4,2,0,65,0,1
196889,-66.6666666666667,4,2,0,50,0,1
199663,-66.6666666666667,4,2,0,60,0,1
199972,-66.6666666666667,4,2,0,50,0,1
201615,-57.1428571428571,4,2,0,50,0,1
202026,-66.6666666666667,4,2,0,50,0,1
202951,-66.6666666666667,4,2,0,65,0,1
203670,-66.6666666666667,4,2,0,50,0,1
206239,-66.6666666666667,4,2,0,60,0,1
206752,-66.6666666666667,4,2,0,50,0,1
210040,-66.6666666666667,4,2,0,45,0,1
210656,-133.333333333333,4,2,0,40,0,0

[Colours]
Combo1 : 87,98,168
Combo2 : 136,151,204

[HitObjects]
397,34,400,5,2,0:3:0:0:
397,34,1067,2,0,P|400:65|411:91,1,60.0000022888184
447,100,1684,2,0,P|469:120|496:133,2,60.0000022888184
333,81,2917,2,0,P|316:122|320:174,1,90.0000034332277,0|2,0:0|0:0,0:0:0:0:
85,110,4355,5,0,0:0:0:0:
63,131,4561,2,0,P|36:144|7:146,2,60.0000022888184
117,13,5793,2,0,P|130:6|145:2,1,30.0000011444092
181,19,6204,2,0,P|212:23|242:38,1,60.0000022888184
250,73,6821,1,2,0:3:0:0:
445,198,7848,6,0,P|451:211|454:226,1,30.0000011444092
482,251,8259,2,0,P|484:280|470:314,2,60.0000022888184
361,275,9492,2,0,P|384:312|424:331,1,90.0000034332277,0|2,0:0|0:0,0:0:0:0:
272,94,10930,6,0,P|285:96|300:103,2,30.0000011444092
238,124,11547,2,0,P|216:125|181:142,1,60.0000022888184
344,95,12369,2,0,P|369:110|386:134,1,60.0000022888184
212,58,13191,1,0,0:0:0:0:
220,14,13396,1,2,0:3:0:0:
71,7,14629,5,0,0:0:0:0:
40,32,14835,1,0,0:0:0:0:
21,67,15040,2,0,P|16:88|16:101,1,30.0000011444092
86,241,15656,1,0,0:0:0:0:
86,241,16067,2,0,P|99:199|5:220,1,195.00000743866,0|0,0:0|1:0,0:0:0:0:
8,226,17506,1,0,1:0:0:0:
72,346,17917,6,0,P|86:353|102:357,1,30.0000011444092
142,336,18328,2,0,P|157:335|173:330,1,30.0000011444092
307,251,18944,2,0,P|291:284|287:313,2,60.0000022888184
350,231,19972,1,2,0:3:0:0:
437,6,20793,6,0,P|455:30|463:58,1,60.0000022888184
435,93,21410,2,0,P|431:122|415:150,1,60.0000022888184
256,184,22232,1,0,0:0:0:0:
256,184,22643,2,0,P|291:155|335:143,1,90.0000034332277
221,359,24081,5,0,0:0:0:0:
266,339,24287,2,0,P|287:318|299:288,2,60.0000022888184
121,295,25519,2,0,P|120:259|109:233,1,60.0000022888184
96,372,26341,1,0,0:0:0:0:
192,327,26547,6,0,P|209:274|217:208,1,120,8|0,3:0|0:0,0:0:0:0:
168,127,27369,2,0,P|165:106|157:86,2,40,0|0|0,1:0|0:0|0:0,0:0:0:0:
121,196,27985,2,0,P|78:198|42:185,1,80,0|0,0:0|3:0,0:0:0:0:
36,180,28499,1,0,3:0:0:0:
29,173,28602,2,0,P|22:165|17:156,2,20,0|0|0,3:0|3:0|3:0,0:0:0:0:
12,257,29013,2,2,P|17:296|39:329,1,80,6|0,0:0|3:0,0:0:0:0:
249,265,29835,6,0,P|256:185|268:106,1,160,8|0,3:0|1:0,0:0:0:0:
466,22,31067,2,0,P|472:40|474:60,1,40
506,126,31478,2,0,P|503:145|495:164,1,40,0|0,0:0|3:0,0:0:0:0:
491,173,31787,1,0,3:0:0:0:
485,181,31889,2,0,P|479:189|470:197,1,20,0|0,3:0|3:0,0:0:0:0:
423,203,32095,2,0,P|453:211|494:243,2,80,0|0|0,3:0|0:0|0:0,0:0:0:0:
455,309,33122,6,0,P|395:304|338:323,1,120,8|0,3:0|0:0,0:0:0:0:
251,363,33944,2,0,P|257:345|261:318,1,40,0|0,1:0|0:0,0:0:0:0:
266,251,34355,1,0,0:0:0:0:
204,210,34561,2,0,P|199:169|182:133,1,80,0|0,0:0|3:0,0:0:0:0:
177,126,35074,1,0,3:0:0:0:
170,118,35177,2,0,P|156:106|145:101,2,20,0|0|0,3:0|3:0|3:0,0:0:0:0:
97,47,35588,2,2,P|136:41|173:27,1,80,6|0,0:0|3:0,0:0:0:0:
395,136,36410,6,0,P|401:205|377:270,1,140,8|0,3:0|1:0,0:0:0:0:
370,280,37232,1,0,1:0:0:0:
195,317,37643,2,0,P|179:298|169:268,1,40
190,209,38054,2,0,P|186:185|191:154,1,40,0|0,0:0|3:0,0:0:0:0:
189,159,38362,1,0,3:0:0:0:
192,149,38465,2,0,P|199:134|203:128,1,20,0|0,3:0|3:0,0:0:0:0:
242,120,38670,2,0,P|267:91|316:66,1,80,0|0,3:0|0:0,0:0:0:0:
485,261,39492,1,0,0:0:0:0:
433,193,39698,6,0,P|382:162|322:156,1,120,8|0,3:0|0:0,0:0:0:0:
234,197,40519,1,0,1:0:0:0:
261,139,40724,1,0,0:0:0:0:
253,75,40929,1,0,0:0:0:0:
213,25,41136,2,0,P|266:32|294:23,1,80,0|0,0:0|3:0,0:0:0:0:
300,20,41650,1,0,3:0:0:0:
309,14,41752,2,0,P|320:4|326:-2,2,20,0|0|0,3:0|3:0|3:0,0:0:0:0:
400,79,42163,2,2,P|416:50|419:5,1,80,6|0,0:0|3:0,0:0:0:0:
503,169,42985,6,0,P|423:169|349:212,1,160,0|0,3:0|1:0,0:0:0:0:
317,384,44218,2,0,P|317:364|313:344,1,40
246,325,44629,2,0,P|242:305|233:287,1,40,0|0,0:0|3:0,0:0:0:0:
227,280,44937,1,0,3:0:0:0:
220,272,45040,2,0,P|209:261|201:257,1,20,0|0,3:0|3:0,0:0:0:0:
161,273,45245,2,0,P|117:261|78:263,2,80,0|0|0,3:0|0:0|0:0,0:0:0:0:
136,161,46273,6,0,P|132:123|137:90,1,60,10|0,3:0|0:0,0:0:0:0:
140,79,46684,2,0,P|150:56|163:37,1,40,2|2,0:3|0:3,0:0:0:0:
235,36,47095,2,0,P|270:16|310:10,1,80,0|2,0:0|0:3,0:0:0:0:
376,86,47711,1,2,0:3:0:0:
451,94,47917,2,0,P|470:101|486:114,2,40,0|0|2,0:0|0:0|0:3,0:0:0:0:
348,116,48533,2,0,P|319:149|310:192,1,80,2|0,0:3|0:0,0:0:0:0:
283,270,49150,2,0,P|294:298|306:312,1,40,2|2,0:3|0:3,0:3:0:0:
385,368,49561,6,0,P|406:332|410:293,1,80,0|0,1:0|0:0,0:0:0:0:
451,215,50177,2,0,P|448:184|439:168,1,40,2|0,0:3|0:0,0:0:0:0:
353,95,50588,2,0,P|371:105|390:109,2,40,2|2|2,0:3|0:3|0:3,0:0:0:0:
454,77,51204,5,0,3:0:0:0:
461,97,51306,1,0,3:0:0:0:
463,117,51409,1,0,3:0:0:0:
458,136,51512,1,0,3:0:0:0:
449,154,51614,2,0,P|441:163|431:171,3,25,0|0|0|0,3:0|3:0|3:0|3:0,0:0:0:0:
416,199,52026,2,0,P|404:202|391:203,3,25,2|2|2|2,0:0|0:0|0:0|0:0,0:0:0:0:
365,221,52436,2,0,P|352:218|341:212,3,25,2|2|2|2,0:0|0:0|0:0|0:0,0:0:0:0:
320,191,52848,6,0,P|324:236|310:284,1,90.0000034332277,6|2,1:3|0:0,0:0:0:0:
286,299,53259,1,2,0:0:0:0:
211,222,53465,1,8,0:3:0:0:
178,326,53670,2,0,P|164:353|142:373,1,60.0000022888184,0|0,1:0|0:0,0:0:0:0:
31,343,54081,2,0,P|23:329|14:293,2,30.0000011444092,2|0|0,0:0|0:0|0:0,0:0:0:0:
59,313,54389,2,0,P|61:281|88:222,1,90.0000034332277,2|2,0:0|0:0,0:0:0:0:
194,159,54903,2,0,P|183:169|169:175,3,30.0000011444092,8|0|0|0,3:0|0:0|0:0|0:0,0:0:0:0:
134,180,55314,1,4,0:0:0:0:
39,127,55519,2,0,P|16:80|21:11,1,120.000004577637,8|2,3:0|0:0,0:0:0:0:
135,0,56136,6,0,B|149:34|165:47|198:59,1,90.0000034332277,6|2,1:3|0:0,0:0:0:0:
364,19,56752,1,0,1:0:0:0:
333,115,56958,2,0,P|324:159|322:204,1,90.0000034332277,0|0,3:0|0:0,0:0:0:0:
294,236,57369,2,0,P|315:258|344:267,1,60.0000022888184,2|0,1:2|0:0,0:0:0:0:
373,296,57677,2,0,P|414:281|442:246,1,90.0000034332277,2|2,0:0|0:0,0:0:0:0:
485,132,58191,2,0,P|482:117|475:103,4,30.0000011444092,8|0|0|0|0,0:3|0:0|0:0|0:0|0:0,0:0:0:0:
388,64,58807,1,2,1:3:0:0:
363,67,58909,1,2,1:3:0:0:
342,79,59012,1,2,1:3:0:0:
324,96,59115,1,2,1:3:0:0:
315,118,59218,2,0,P|310:139|313:156,1,30.0000011444092,2|2,1:3|1:3,0:0:0:0:
283,173,59424,6,0,B|237:167|257:132|209:122,1,90.0000034332277,6|2,1:3|0:0,0:0:0:0:
28,113,60040,1,0,1:0:0:0:
109,61,60245,2,0,P|110:32|99:1,1,60.0000022888184,0|0,3:0|0:0,0:0:0:0:
73,173,60656,2,0,P|82:183|97:190,2,30.0000011444092,2|0|0,0:0|0:0|0:0,0:0:0:0:
40,191,60965,2,0,P|48:231|86:268,1,90.0000034332277,2|2,0:0|0:0,0:0:0:0:
212,237,61478,2,0,P|217:222|217:205,5,30.0000011444092,8|0|0|0|0|0,3:0|0:0|0:0|0:0|0:0|0:0,0:0:0:0:
209,174,62095,1,8,3:0:0:0:
251,292,62300,2,0,P|264:301|305:311,1,60.0000022888184,0|0,1:0|1:0,0:0:0:0:
427,261,62711,6,0,P|443:223|446:171,1,90.0000034332277,6|2,1:3|0:0,0:0:0:0:
435,142,63122,1,2,0:0:0:0:
355,68,63328,2,0,P|383:57|404:36,2,60.0000022888184,0|0|2,1:0|0:0|0:1,0:0:0:0:
270,154,63944,2,0,P|218:137|183:100,1,90.0000034332277,2|2,1:2|0:0,0:0:0:0:
192,73,64355,2,0,P|179:30|185:-7,1,60.0000022888184,2|2,0:0|0:0,0:0:0:0:
109,120,64766,2,0,P|119:126|136:143,3,30.0000011444092,8|0|0|0,0:3|0:0|0:0|0:0,0:0:0:0:
129,181,65177,2,0,P|134:191|141:215,3,30.0000011444092,2|2|2|2,3:0|3:0|3:0|3:0,0:0:0:0:
126,249,65588,1,2,3:0:0:0:
125,272,65690,1,2,1:3:0:0:
119,295,65793,1,2,1:3:0:0:
107,316,65896,1,2,1:3:0:0:
89,333,65999,6,0,B|38:318|3:367,1,90.0000034332277,6|2,1:3|0:0,0:0:0:0:
89,192,66615,1,8,0:3:0:0:
189,257,66821,2,0,P|224:263|268:260,1,60.0000022888184,0|0,1:0|0:0,0:0:0:0:
310,178,67232,2,0,P|316:189|333:204,2,30.0000011444092,2|0|0,0:0|0:0|0:0,0:0:0:0:
289,205,67540,2,0,P|293:247|316:298,1,90.0000034332277,2|2,0:0|0:0,0:0:0:0:
443,304,68054,2,0,P|454:289|460:276,3,30.0000011444092,8|0|0|0,3:0|0:0|0:0|0:0,0:0:0:0:
467,244,68465,1,4,0:0:0:0:
392,146,68670,2,0,P|381:204|381:264,1,120.000004577637,8|0,3:0|1:0,0:0:0:0:
270,336,69287,6,2,B|205:318|209:380|138:362,1,140.000001335144,6|2,1:3|0:1,0:1:0:0:
51,279,69903,1,0,1:0:0:0:
161,295,70109,2,2,B|158:228|100:250|97:177,1,140.000001335144,0|2,1:0|1:2,0:1:0:0:
214,71,70828,2,0,P|214:117|195:158,1,90.0000034332277,2|2,0:0|0:0,0:0:0:0:
168,22,71341,2,0,P|177:13|191:6,3,30.0000011444092,8|0|0|0,3:0|0:0|0:0|0:0,0:0:0:0:
225,7,71752,1,2,0:1:0:0:
340,0,71958,1,2,1:3:0:0:
359,15,72060,1,2,1:3:0:0:
372,35,72163,1,2,1:3:0:0:
381,57,72266,1,2,1:3:0:0:
383,81,72369,2,0,P|382:96|374:116,1,30.0000011444092,2|2,1:3|1:3,0:0:0:0:
352,131,72574,6,0,B|327:186|363:249,1,120.000004577637,6|0,1:3|0:0,0:0:0:0:
458,349,73191,1,8,0:3:0:0:
376,318,73396,2,0,P|345:309|295:309,1,60.0000022888184,0|0,1:0|0:0,0:0:0:0:
211,345,73807,2,0,P|208:331|198:310,2,30.0000011444092,2|0|0,0:0|0:0|0:0,0:0:0:0:
239,316,74115,2,0,P|240:268|226:226,1,90.0000034332277,2|2,0:0|0:0,0:0:0:0:
115,274,74629,2,0,P|125:263|133:251,5,30.0000011444092,8|0|0|0|0|0,3:0|0:0|0:0|0:0|0:0|0:0,0:0:0:0:
146,216,75246,1,8,3:0:0:0:
79,111,75451,2,0,P|78:142|86:172,1,60.0000022888184,4|0,0:0|0:0,0:0:0:0:
174,43,75862,6,0,B|135:46|138:9|86:15,1,90.0000034332277,6|0,1:3|0:0,0:0:0:0:
49,2,76273,2,0,P|9:22|-13:55,1,60.0000022888184,0|0,3:0|1:0,0:0:0:0:
61,143,76684,2,0,P|55:193|52:237,1,90.0000034332277,0|0,3:0|0:0,0:0:0:0:
85,264,77095,2,0,P|128:256|154:221,2,90.0000034332277,2|2|2,1:2|0:0|0:0,0:0:0:0:
24,363,77917,2,0,P|36:371|57:377,4,30.0000011444092,8|0|0|0|0,3:0|0:0|0:0|0:0|0:0,0:0:0:0:
132,328,78533,1,2,1:3:0:0:
155,326,78635,1,2,1:3:0:0:
177,317,78738,1,2,1:3:0:0:
196,301,78841,1,2,1:3:0:0:
210,282,78944,2,0,P|216:264|218:240,1,30.0000011444092,2|2,1:3|1:3,0:0:0:0:
240,229,79150,6,0,P|236:189|217:146,1,80,6|2,3:0|0:3,0:0:0:0:
163,77,79766,1,2,0:3:0:0:
74,110,79972,1,2,0:3:0:0:
56,95,80074,2,0,P|26:81|-7:80,2,60,2|2|2,0:3|0:3|0:3,0:0:0:0:
133,225,80999,2,0,P|129:265|113:301,1,80,2|0,0:3|0:0,0:0:0:0:
36,353,81615,2,0,P|50:349|60:347,3,20,6|2|2|2,0:0|0:3|0:3|0:3,0:0:0:0:
78,365,82026,2,0,P|107:371|123:377,1,40,10|2,0:3|0:3,0:0:0:0:
235,380,82437,6,0,P|267:371|314:349,1,80,6|2,0:3|0:3,0:0:0:0:
325,355,83465,2,0,P|350:333|383:293,1,80,2|2,0:3|0:3,0:0:0:0:
367,214,84081,2,0,P|374:181|378:129,1,80,2|0,0:3|0:0,0:0:0:0:
321,76,84698,2,0,P|308:44|282:0,1,80,2|0,0:3|0:0,0:0:0:0:
209,40,85314,1,2,0:3:0:0:
167,227,85725,6,0,P|198:253|234:263,1,80,4|0,0:3|3:0,0:0:0:0:
312,244,86341,1,0,3:0:0:0:
437,339,86650,1,2,0:3:0:0:
437,339,86752,2,0,P|454:329|469:315,1,40,2|0,0:3|0:0,0:0:0:0:
468,221,87163,2,0,P|482:191|489:141,1,80,0|2,0:0|0:3,0:0:0:0:
365,3,87985,2,0,P|371:22|373:42,1,40,2|6,0:3|0:0,0:0:0:0:
212,145,88602,2,0,P|184:120|169:96,1,60,8|0,0:3|0:0,0:0:0:0:
183,73,89013,6,0,P|177:53|176:32,2,40,6|2|2,0:3|0:3|0:3,0:3:0:0:
1,47,89835,2,0,P|4:26|13:6,1,40,0|2,1:0|0:3,0:0:0:0:
24,110,90246,1,2,0:3:0:0:
89,54,90451,2,0,P|97:93|95:133,1,80,2|0,0:3|0:0,0:0:0:0:
93,147,90965,1,2,0:3:0:0:
89,160,91067,1,0,0:0:0:0:
153,232,91273,2,0,P|161:195|192:157,1,80,2|2,0:3|0:3,0:0:0:0:
286,190,91889,2,0,P|291:207|291:229,1,40,2|2,0:3|0:3,0:0:0:0:
355,323,92300,6,0,P|391:337|431:337,1,80,4|2,0:3|0:3,0:0:0:0:
512,317,92917,1,0,3:0:0:0:
436,146,93328,2,0,P|416:148|399:158,1,40
385,248,93739,2,0,P|413:267|462:274,2,80,2|0|0,0:3|0:0|0:0,0:0:0:0:
331,174,94766,1,6,0:0:0:0:
265,187,94972,1,0,0:0:0:0:
196,197,95177,2,0,P|175:205|160:222,1,40,8|0,0:3|0:0,0:0:0:0:
99,288,95588,6,0,P|173:272|215:336,1,160,6|0,0:3|1:0,0:0:0:0:
71,218,96821,2,0,P|83:198|98:183,1,40
177,154,97232,2,0,P|200:155|220:161,1,40
310,222,97643,1,0,3:0:0:0:
388,142,97848,1,0,0:0:0:0:
183,7,98259,2,0,P|170:44|169:84,1,80,4|4,0:0|0:0,0:0:0:0:
290,131,98876,6,2,B|301:120|340:93|358:84,1,80,4|2,0:3|0:1,0:1:0:0:
451,52,99492,1,2,0:1:0:0:
451,52,99595,1,2,0:1:0:0:
451,52,99698,2,2,B|423:60|403:62|372:63,1,80,2|2,1:0|0:1,0:1:0:0:
424,145,100314,1,0,0:0:0:0:
512,104,100519,2,0,B|477:147|514:205|480:246,1,150,2|2,0:1|0:1,0:0:0:0:
408,313,101341,2,2,B|407:290|399:263|382:237,1,75,6|0,0:0|0:0,0:1:0:0:
374,227,101752,1,8,0:3:0:0:
270,381,102163,5,4,0:3:0:0:
282,274,102369,2,0,B|286:256|292:242|308:227,2,50,2|2|2,0:1|0:1|0:1,0:0:0:0:
208,203,102985,2,0,P|203:215|201:227,1,25,2|2,0:1|0:1,0:0:0:0:
189,250,103191,2,2,B|190:273|195:283|206:298,2,50,2|2|2,0:1|0:1|0:1,0:1:0:0:
80,67,104013,6,0,P|80:44|71:23,2,40
70,76,104526,1,0,3:0:0:0:
62,87,104629,2,0,P|54:109|55:132,1,40,0|0,3:0|3:0,0:0:0:0:
160,232,105143,1,0,3:0:0:0:
158,217,105245,1,0,3:0:0:0:
221,125,105451,6,0,B|268:90|354:120|346:197|286:217|215:152|257:42|293:6|373:6,1,360.000013732911,4|6,3:0|0:0,0:0:0:0:
486,148,108328,1,8,0:3:0:0:
330,235,108739,6,0,P|270:236|224:199,1,120.000004577637,4|0,0:3|1:0,0:0:0:0:
431,266,110177,1,0,0:0:0:0:
370,341,110382,2,0,P|351:346|335:347,1,30.0000011444092
243,301,110793,2,0,P|265:300|290:311,3,45.0000017166138,0|0|0|0,3:0|3:0|3:0|3:0,0:0:0:0:
139,359,112026,6,0,P|123:318|128:274,1,90.0000034332277,4|0,0:3|3:0,0:0:0:0:
205,219,112848,2,0,P|217:219|234:215,2,30.0000011444092,0|0|0,1:0|0:0|0:0,0:0:0:0:
120,179,113465,2,0,P|107:152|106:121,1,60.0000022888184,0|0,0:0|1:0,0:0:0:0:
160,33,114081,1,0,1:0:0:0:
300,201,114492,2,0,P|301:229|290:258,1,60.0000022888184,6|8,0:0|0:3,0:0:0:0:
377,82,115314,6,0,B|425:64|481:73|532:122|527:179|512:203|462:185|472:152|488:139,1,240.000009155274,4|0,0:3|0:0,0:0:0:0:
348,358,118602,6,0,P|324:302|312:244,1,120,6|0,0:3|3:0,0:0:0:0:
367,168,119424,2,0,P|368:146|372:125,2,40,0|0|2,1:0|0:0|0:3,0:0:0:0:
406,253,120040,2,0,P|429:270|482:286,1,80,2|2,0:3|0:3,0:0:0:0:
491,286,120554,1,2,0:3:0:0:
504,285,120656,1,2,0:3:0:0:
299,364,121067,2,0,P|298:341|294:324,1,40,6|0,0:0|0:0,0:0:0:0:
224,278,121478,2,0,P|212:258|200:246,1,40,8|0,0:3|0:0,0:0:0:0:
103,265,121889,6,0,P|71:302|39:315,1,80,6|0,0:3|3:0,0:0:0:0:
23,226,122506,1,0,3:0:0:0:
159,11,123122,2,0,P|152:32|149:55,2,40
231,46,123739,1,0,0:0:0:0:
233,58,123841,1,0,0:0:0:0:
237,70,123944,2,0,P|251:92|278:112,3,60,2|0|0|0,0:1|3:0|3:0|3:0,0:0:0:0:
290,116,124972,1,0,3:0:0:0:
387,76,125177,6,0,P|403:114|401:200,1,120,6|2,0:3|0:3,0:0:0:0:
307,244,125999,2,0,P|277:230|245:193,1,80
177,147,126615,1,2,0:3:0:0:
174,132,126718,2,0,P|176:92|193:58,2,60,2|0|2,0:3|0:0|0:3,0:0:0:0:
177,147,127437,1,2,0:3:0:0:
98,195,127643,2,0,P|79:235|74:278,1,80,4|0,0:0|0:0,0:0:0:0:
208,374,128465,6,0,P|229:349|272:330,1,80,2|2,0:3|0:3,0:0:0:0:
308,247,129081,2,0,P|340:241|385:254,1,80,2|2,0:3|0:3,0:0:0:0:
474,239,129698,2,0,P|486:254|495:272,1,40,2|2,0:3|0:3,0:0:0:0:
410,384,130109,5,2,0:3:0:0:
418,372,130211,1,2,0:3:0:0:
423,360,130314,1,2,0:3:0:0:
427,347,130417,1,2,0:3:0:0:
428,334,130519,2,0,L|423:308,3,20,2|2|2|2,0:3|0:3|0:3|0:3,0:0:0:0:
434,295,130930,2,0,L|417:274,3,20,2|2|2|2,0:0|0:0|0:0|0:0,0:0:0:0:
420,258,131341,2,0,L|395:249,3,20,2|2|2|2,0:0|0:0|0:0|0:0,0:0:0:0:
388,232,131752,6,0,B|365:204|363:170|381:145,1,90.0000034332277,14|2,1:3|0:0,0:0:0:0:
486,20,132369,1,8,0:3:0:0:
399,77,132574,2,0,P|370:84|338:84,1,60.0000022888184,0|0,1:0|0:0,0:0:0:0:
241,48,132985,2,0,P|230:61|220:69,2,30.0000011444092,2|0|0,0:0|0:0|0:0,0:0:0:0:
269,57,133293,2,0,P|273:94|260:143,1,90.0000034332277,2|2,0:0|0:0,0:0:0:0:
137,180,133807,2,0,P|117:167|110:158,3,30.0000011444092,8|0|0|0,3:0|0:0|0:0|0:0,0:0:0:0:
95,130,134218,1,0,0:0:0:0:
32,54,134424,2,0,P|39:21|54:0,1,60.0000022888184,8|4,3:0|0:0,0:0:0:0:
292,56,135040,6,0,B|305:94|268:100|281:142,1,90.0000034332277,6|2,1:3|0:0,0:0:0:0:
309,172,135451,1,2,0:0:0:0:
427,134,135656,1,0,1:0:0:0:
394,234,135862,2,0,P|388:276|396:324,1,90.0000034332277,0|0,3:0|0:0,0:0:0:0:
414,369,136273,2,0,P|359:346|326:351,1,90.0000034332277,2|2,1:2|0:0,0:0:0:0:
155,383,136889,1,2,0:0:0:0:
228,291,137095,2,0,P|232:275|233:259,4,30.0000011444092,8|0|0|0|0,0:3|0:0|0:0|0:0|0:0,0:0:0:0:
116,329,137712,1,2,1:3:0:0:
108,302,137814,1,2,1:3:0:0:
95,279,137917,1,2,1:3:0:0:
75,260,138020,1,2,1:3:0:0:
51,248,138122,2,0,P|33:242|17:242,1,30.0000011444092,2|2,1:3|1:3,0:0:0:0:
0,259,138328,6,0,B|-17:212|15:163|53:156,1,120.000004577637,6|0,1:3|0:0,0:0:0:0:
155,182,138944,1,0,1:0:0:0:
93,90,139150,2,0,P|88:61|93:29,1,60.0000022888184,0|0,3:0|0:0,0:0:0:0:
226,103,139561,2,0,P|220:115|206:132,2,30.0000011444092,2|0|0,0:0|0:0|0:0,0:0:0:0:
266,98,139869,2,0,P|275:142|263:199,1,90.0000034332277,2|2,0:0|0:0,0:0:0:0:
189,274,140382,2,0,P|215:257|225:254,5,30.0000011444092,8|0|0|0|0|0,3:0|0:0|0:0|0:0|0:0|0:0,0:0:0:0:
252,250,140999,1,8,3:0:0:0:
349,215,141204,2,0,P|377:222|404:243,1,60.0000022888184,4|0,1:2|1:0,0:0:0:0:
415,142,141615,6,0,B|405:94|424:50,1,90.0000034332277,6|0,1:3|0:0,0:0:0:0:
436,25,142026,1,0,1:0:0:0:
316,53,142232,2,0,P|327:24|345:1,2,60.0000022888184,8|0|2,3:0|0:0|0:1,0:0:0:0:
343,182,142848,2,0,P|286:167|241:175,1,90.0000034332277,2|2,1:2|0:0,0:0:0:0:
228,204,143259,2,0,P|197:216|173:240,1,60.0000022888184,2|2,0:0|0:0,0:0:0:0:
100,134,143670,2,0,P|88:151|83:172,3,30.0000011444092,8|0|0|0,0:3|0:0|0:0|0:0,0:0:0:0:
54,178,144081,2,0,P|52:198|58:219,3,30.0000011444092,2|2|2|2,3:0|3:0|3:0|3:0,0:0:0:0:
36,239,144492,1,2,3:0:0:0:
45,265,144595,1,2,1:3:0:0:
61,286,144698,1,2,1:3:0:0:
84,300,144800,1,2,1:3:0:0:
111,305,144903,6,0,P|140:334|138:394,1,90.0000034332277,6|2,1:3|0:0,0:0:0:0:
110,228,145519,1,8,0:3:0:0:
205,309,145725,2,0,B|248:309|242:280|288:281,1,90.0000034332277,0|0,1:0|0:0,0:0:0:0:
320,253,146136,2,0,P|348:258|371:276,1,60.0000022888184,2|0,0:0|0:0,0:0:0:0:
411,276,146444,2,0,P|431:322|430:368,1,90.0000034332277,2|2,0:0|0:0,0:0:0:0:
504,244,146958,2,0,B|454:237|478:210|427:202,1,90.0000034332277,8|0,3:0|0:0,0:0:0:0:
389,209,147369,1,0,1:0:0:0:
284,133,147574,2,0,P|284:102|296:75,1,60.0000022888184,8|4,3:0|0:0,0:0:0:0:
390,62,147985,1,0,1:0:0:0:
483,127,148191,6,2,B|430:91|412:159|350:117,1,140.000001335144,6|2,1:3|0:1,0:1:0:0:
458,50,148807,1,0,1:0:0:0:
355,3,149013,2,2,B|291:-1|310:66|236:59,1,140.000001335144,0|2,1:0|1:2,0:1:0:0:
64,0,149732,2,0,P|89:37|97:80,1,90.0000034332277,2|2,0:0|0:0,0:0:0:0:
6,173,150246,2,0,P|17:163|31:158,3,30.0000011444092,8|0|0|0,3:0|0:0|0:0|0:0,0:0:0:0:
64,157,150656,1,2,0:1:0:0:
172,112,150862,1,2,1:3:0:0:
193,126,150964,1,2,1:3:0:0:
209,148,151067,1,2,1:3:0:0:
218,174,151170,1,2,1:3:0:0:
218,200,151273,2,0,P|213:218|199:238,1,30.0000011444092,2|2,1:3|1:3,0:0:0:0:
179,246,151478,6,0,B|238:233|223:291|283:298,1,120.000004577637,6|0,1:3|0:0,0:0:0:0:
387,257,152095,1,8,3:0:0:0:
408,372,152300,2,0,P|419:344|415:293,1,60.0000022888184,0|0,1:0|0:0,0:0:0:0:
484,224,152711,2,0,P|472:214|460:207,2,30.0000011444092,2|0|0,0:0|0:0|0:0,0:0:0:0:
491,187,153019,2,0,P|469:156|416:132,1,90.0000034332277,2|2,0:0|0:0,0:0:0:0:
315,187,153533,2,0,P|324:175|329:160,5,30.0000011444092,8|0|0|0|0|0,3:0|0:0|0:0|0:0|0:0|0:0,0:0:0:0:
330,121,154150,1,8,3:0:0:0:
427,46,154355,2,0,P|409:19|379:2,1,60.0000022888184,4|0,0:0|0:0,0:0:0:0:
283,67,154766,6,0,B|243:54|189:78|179:137,1,120.000004577637,6|0,1:3|3:0,0:0:0:0:
200,232,155382,1,0,1:0:0:0:
122,145,155588,2,0,P|107:104|111:58,1,90.0000034332277,0|0,3:0|0:0,0:0:0:0:
132,17,155999,2,0,P|94:41|50:43,2,90.0000034332277,2|2|2,1:2|0:0|0:0,0:0:0:0:
19,105,156821,2,0,P|25:121|33:132,3,30.0000011444092,8|0|0|0,3:0|0:0|0:0|0:0,0:0:0:0:
61,146,157232,1,0,0:0:0:0:
100,257,157437,1,2,1:3:0:0:
126,263,157539,1,2,1:3:0:0:
152,261,157642,1,2,1:3:0:0:
177,252,157746,1,2,1:3:0:0:
198,234,157848,2,0,P|206:221|211:207,1,30.0000011444092,2|2,1:3|1:3,0:0:0:0:
203,193,158054,5,2,0:0:0:0:
399,238,160314,1,0,0:0:0:0:
347,271,160519,2,0,P|386:253|396:242,1,40,6|0,0:0|0:0,0:0:0:0:
347,340,160930,1,0,0:0:0:0:
306,327,161136,1,2,0:0:0:0:
237,251,161341,5,10,3:0:0:0:
243,306,161547,1,8,3:0:0:0:
249,361,161752,1,8,3:0:0:0:
68,320,162780,2,0,P|70:282|88:245,1,80,2|0,0:0|0:0,0:0:0:0:
61,378,164013,2,0,P|54:360|50:336,2,40,2|0|0,3:2|3:0|3:0,0:0:0:0:
204,318,164629,5,10,1:3:0:0:
209,272,164835,1,8,3:0:0:0:
214,226,165040,1,8,3:0:0:0:
402,22,167095,2,0,P|421:23|440:32,1,40,6|0,0:0|0:0,0:0:0:0:
477,73,167506,1,0,0:0:0:0:
389,31,167711,1,2,3:2:0:0:
309,143,167917,5,10,1:3:0:0:
254,136,168122,1,8,3:0:0:0:
199,129,168328,1,8,3:0:0:0:
464,249,169561,2,2,P|390:243|327:281,2,150,8|8|0,3:0|3:0|0:0,0:1:0:0:
279,167,171204,5,0,1:0:0:0:
180,315,171615,2,0,P|176:276|185:237,4,80,8|8|8|8|8,0:0|0:0|0:0|0:0|0:0,0:0:0:0:
281,170,173670,2,0,P|246:189|221:221,1,80,14|8,0:0|0:0,0:0:0:0:
75,4,174492,5,8,1:2:0:0:
48,169,174903,2,0,P|29:134|30:95,4,80,8|8|8|8|8,0:0|0:0|0:0|0:0|0:0,0:0:0:0:
75,4,176958,2,0,P|76:23|83:42,1,40,14|0,0:0|0:0,0:0:0:0:
102,115,177369,2,0,P|124:131|142:137,1,40,12|0,0:0|0:0,0:0:0:0:
256,129,177780,5,8,1:2:0:0:
431,64,178191,2,0,P|394:49|355:49,4,80,8|8|8|8|8,0:0|0:0|0:0|0:0|0:0,0:0:0:0:
256,129,180246,2,0,P|283:108|332:97,1,80,8|8,0:0|0:0,0:0:0:0:
253,362,181067,6,0,P|251:322|232:287,3,80,8|8|8|8,1:2|0:0|0:0|0:0,0:0:0:0:
228,283,182711,1,8,0:0:0:0:
224,279,183122,1,8,0:0:0:0:
220,275,183533,1,8,3:0:0:0:
212,205,183739,1,8,3:0:0:0:
256,151,183944,1,8,3:0:0:0:
284,139,184047,1,8,3:0:0:0:
314,137,184150,1,8,3:0:0:0:
381,257,184355,6,0,B|386:216|321:174|267:240|295:301|353:294|353:294|409:284|444:321|444:321|439:229|481:179|481:179|517:144|490:78|432:66|372:119|414:171|414:171,1,650,14|0,1:3|0:0,0:0:0:0:
305,135,189903,1,0,0:0:0:0:
238,223,190109,2,0,P|232:272|251:317,1,100,2|0,1:3|0:0,0:0:0:0:
82,290,190930,6,0,B|21:315|4:376,1,120.000004577637,6|0,1:3|0:0,0:0:0:0:
137,327,191547,1,8,0:3:0:0:
59,230,191752,2,0,P|58:197|73:165,1,60.0000022888184,0|0,1:0|0:0,0:0:0:0:
34,56,192163,2,0,P|38:43|49:27,2,30.0000011444092,2|0|0,0:0|0:0|0:0,0:0:0:0:
76,63,192472,2,0,P|111:42|178:40,1,90.0000034332277,2|2,0:0|0:0,0:0:0:0:
257,108,192985,2,0,P|262:127|262:144,5,30.0000011444092,8|0|0|0|0|0,0:3|0:0|0:0|0:0|0:0|0:0,0:0:0:0:
248,176,193602,1,8,0:3:0:0:
318,77,193807,2,0,P|337:98|350:130,1,60.0000022888184,4|0,0:0|0:0,0:0:0:0:
337,251,194218,6,0,B|381:211|443:237,1,90.0000034332277,6|2,1:3|0:0,0:0:0:0:
455,247,194629,1,2,3:2:0:0:
364,314,194835,2,0,P|395:320|426:338,2,60.0000022888184,8|0|2,0:3|1:0|0:1,0:0:0:0:
255,371,195451,2,0,P|256:326|245:282,1,90.0000034332277,2|2,1:2|0:0,0:0:0:0:
256,245,195862,2,0,P|232:217|191:202,1,60.0000022888184,2|2,0:0|0:0,0:0:0:0:
103,275,196273,2,0,P|116:268|127:258,1,30.0000011444092,8|0,0:3|0:0,0:0:0:0:
135,216,196478,2,0,P|146:193|148:139,1,60.0000022888184,4|0,0:0|0:0,0:0:0:0:
62,88,196889,1,2,1:3:0:0:
89,98,196991,1,2,1:3:0:0:
119,99,197094,1,2,1:3:0:0:
148,90,197197,1,2,1:3:0:0:
172,74,197300,2,0,P|182:63|191:50,1,30.0000011444092,2|2,1:3|1:3,0:0:0:0:
204,18,197506,6,0,B|252:22|236:50|287:55,1,90.0000034332277,6|2,1:3|0:0,0:0:0:0:
460,18,198122,1,0,1:0:0:0:
417,92,198328,2,0,P|390:104|351:105,1,60.0000022888184,0|0,3:0|0:0,0:0:0:0:
488,165,198739,2,0,P|494:189|495:197,2,30.0000011444092,2|0|0,0:0|0:0|0:0,0:0:0:0:
457,186,199047,2,0,P|437:221|390:251,1,90.0000034332277,2|2,0:0|0:0,0:0:0:0:
290,199,199561,2,0,P|291:177|296:162,3,30.0000011444092,8|0|0|0,0:3|0:0|0:0|0:0,0:0:0:0:
277,135,199972,2,0,P|291:111|315:89,2,60.0000022888184,0|8|4,1:0|0:3|0:0,0:0:0:0:
76,310,200793,6,0,B|106:324|155:288|138:232,1,120.000004577637,6|0,1:3|3:0,0:0:0:0:
59,116,201410,1,0,1:0:0:0:
166,166,201615,2,2,B|104:150|92:203|31:184,1,140.000001335144,0|2,1:0|1:2,0:1:0:0:
11,1,202335,2,0,P|41:33|84:45,1,90.0000034332277,2|2,0:0|0:0,0:0:0:0:
202,108,202848,2,0,P|216:105|230:99,3,30.0000011444092,8|0|0|0,0:3|0:0|0:0|0:0,0:0:0:0:
237,69,203259,2,0,P|256:45|265:12,1,60.0000022888184
259,156,203670,1,2,1:3:0:0:
288,160,203772,1,2,1:3:0:0:
317,153,203875,1,2,1:3:0:0:
342,136,203978,1,2,1:3:0:0:
358,112,204081,6,0,B|373:47|320:64|335:-7,1,120.000004577637,6|0,1:3|0:0,0:0:0:0:
490,62,204698,1,8,0:3:0:0:
458,156,204903,2,0,P|428:168|399:167,1,60.0000022888184,0|0,1:0|0:0,0:0:0:0:
466,283,205314,2,0,P|497:251|512:209,2,90.0000034332277,2|2|2,0:0|0:0|0:0,0:0:0:0:
415,384,206136,2,0,P|400:376|385:363,5,30.0000011444092,8|0|0|0|0|0,0:3|0:0|0:0|0:0|0:0|0:0,0:0:0:0:
372,341,206752,1,8,0:3:0:0:
257,307,206958,2,0,P|253:290|261:248,1,60.0000022888184,4|0,0:0|0:0,0:0:0:0:
361,181,207369,6,0,B|347:195|306:202|263:159,1,90.0000034332277,6|0,1:3|0:0,0:0:0:0:
261,148,207780,1,0,3:0:0:0:
158,203,207985,1,0,1:0:0:0:
99,100,208191,2,0,P|96:145|79:187,1,90.0000034332277,0|0,3:0|0:0,0:0:0:0:
95,230,208602,2,0,P|129:264|173:269,2,90.0000034332277,2|2|2,1:2|0:0|0:0,0:0:0:0:
136,376,209424,2,0,P|187:347|246:349,1,120.000004577637,4|4,0:0|0:0,0:0:0:0:
368,384,210040,1,2,1:3:0:0:
354,359,210142,1,2,1:3:0:0:
350,329,210245,1,2,1:3:0:0:
357,299,210348,1,2,1:3:0:0:
374,275,210451,2,0,P|388:265|400:260,1,30.0000011444092,2|2,1:3|1:3,0:0:0:0:
