osu file format v14

[General]
AudioFilename: audio.mp3
AudioLeadIn: 0
PreviewTime: 103964
Countdown: 0
SampleSet: Soft
StackLeniency: 0.6
Mode: 3
LetterboxInBreaks: 0
EpilepsyWarning: 1
SpecialStyle: 0
WidescreenStoryboard: 1

[Editor]
DistanceSpacing: 0.8
BeatDivisor: 4
GridSize: 32
TimelineZoom: 2.4

[Metadata]
Title:Cape Dech (Sped Up Ver.)
TitleUnicode:Cape Dech (Sped Up Ver.)
Artist:Keke
ArtistUnicode:Keke
Creator:Draftnell
Version:Greget
Source:
Tags:Modern Dangdut Jeb Ajeb Cape Deh House Music published from Maheswara Record nightcore mix pop Speed Version bahasa indonesia Jesuren Affirmation FAMoss
BeatmapID:2300069
BeatmapSetID:1100913

[Difficulty]
HPDrainRate:8
CircleSize:4
OverallDifficulty:8
ApproachRate:5
SliderMultiplier:1.4
SliderTickRate:1

[Events]
//Background and Video events
0,0,"BG.jpg",0,0
//Break Periods
//Storyboard Layer 0 (Background)
//Storyboard Layer 1 (Fail)
//Storyboard Layer 2 (Pass)
//Storyboard Layer 3 (Foreground)
//Storyboard Layer 4 (Overlay)
//Storyboard Sound Samples

[TimingPoints]
763,286.669851887243,4,2,1,60,1,0
85617,-100,4,2,1,60,0,1
103964,-100,4,2,1,60,0,0
170471,-100,4,2,1,60,0,1
188818,-100,4,2,1,60,0,0

[HitObjects]
320,192,763,5,0,0:0:0:0:
320,192,1049,5,0,0:0:0:0:
320,192,1336,1,0,0:0:0:0:
320,192,1623,1,0,0:0:0:0:
64,192,1766,1,0,0:0:0:0:
192,192,1909,1,0,0:0:0:0:
192,192,2196,1,0,0:0:0:0:
320,192,2483,1,0,0:0:0:0:
448,192,2769,1,0,0:0:0:0:
64,192,3056,1,0,0:0:0:0:
64,192,3343,1,0,0:0:0:0:
64,192,3629,1,0,0:0:0:0:
64,192,3916,1,0,0:0:0:0:
448,192,4059,1,0,0:0:0:0:
320,192,4203,1,0,0:0:0:0:
192,192,4489,1,0,0:0:0:0:
320,192,4776,1,0,0:0:0:0:
448,192,5063,1,0,0:0:0:0:
192,192,5349,1,0,0:0:0:0:
192,192,5636,1,0,0:0:0:0:
192,192,5923,1,0,0:0:0:0:
448,192,6209,1,0,0:0:0:0:
64,192,6353,1,0,0:0:0:0:
320,192,6496,1,0,0:0:0:0:
320,192,6783,1,0,0:0:0:0:
192,192,7069,1,0,0:0:0:0:
64,192,7356,1,0,0:0:0:0:
448,192,7643,1,0,0:0:0:0:
448,192,7929,1,0,0:0:0:0:
448,192,8216,1,0,0:0:0:0:
320,192,8503,1,0,0:0:0:0:
64,192,8646,1,0,0:0:0:0:
192,192,8789,1,0,0:0:0:0:
192,192,9076,1,0,0:0:0:0:
320,192,9363,1,0,0:0:0:0:
448,192,9506,1,0,0:0:0:0:
320,192,9649,1,0,0:0:0:0:
192,192,9793,1,0,0:0:0:0:
64,192,9936,1,4,0:0:0:0:
448,192,9936,1,0,0:0:0:0:
192,192,10223,1,0,0:0:0:70:Clap.wav
320,192,10223,1,0,0:0:0:0:
192,192,10509,1,0,0:0:0:0:
320,192,10796,1,0,0:0:0:70:Clap.wav
192,192,10796,1,0,0:0:0:0:
64,192,10939,1,0,0:0:0:0:
448,192,11083,1,0,0:0:0:0:
64,192,11369,1,0,0:0:0:70:Clap.wav
448,192,11369,1,0,0:0:0:0:
320,192,11656,1,0,0:0:0:0:
64,192,11943,1,0,0:0:0:70:Clap.wav
192,192,11943,1,0,0:0:0:0:
320,192,12229,1,0,0:0:0:0:
320,192,12516,1,0,0:0:0:70:Clap.wav
448,192,12516,1,0,0:0:0:0:
320,192,12803,1,0,0:0:0:0:
320,192,13089,1,0,0:0:0:0:
64,192,13089,1,0,0:0:0:70:Clap.wav
448,192,13233,1,0,0:0:0:0:
64,192,13376,1,0,0:0:0:0:
320,192,13663,1,0,0:0:0:70:Clap.wav
448,192,13663,1,0,0:0:0:0:
192,192,13949,1,0,0:0:0:0:
64,192,14236,1,0,0:0:0:70:Clap.wav
320,192,14236,1,0,0:0:0:0:
448,192,14523,1,0,0:0:0:0:
192,192,14809,1,0,0:0:0:70:Clap.wav
448,192,14809,1,0,0:0:0:0:
448,192,15096,1,0,0:0:0:0:
192,192,15383,1,0,0:0:0:70:Clap.wav
320,192,15383,1,0,0:0:0:0:
64,192,15526,1,0,0:0:0:0:
448,192,15669,1,0,0:0:0:0:
64,192,15956,1,0,0:0:0:70:Clap.wav
192,192,15956,1,0,0:0:0:0:
320,192,16243,1,0,0:0:0:0:
64,192,16529,1,0,0:0:0:70:Clap.wav
448,192,16529,1,0,0:0:0:0:
192,192,16816,1,0,0:0:0:0:
192,192,17103,1,0,0:0:0:70:Clap.wav
320,192,17103,1,0,0:0:0:0:
192,192,17389,1,0,0:0:0:0:
320,192,17676,1,0,0:0:0:70:Clap.wav
448,192,17676,1,0,0:0:0:0:
64,192,17819,1,0,0:0:0:0:
192,192,17963,1,2,0:0:0:0:
320,192,17963,1,4,0:0:0:0:
448,192,17963,1,0,0:0:0:0:
64,192,18249,1,2,0:0:0:0:
192,192,18249,1,4,0:0:0:0:
320,192,18249,1,8,0:0:0:0:
64,192,18536,1,4,0:0:0:0:
320,192,18536,1,2,0:0:0:0:
448,192,18536,1,0,0:0:0:0:
64,192,18679,1,2,0:0:0:0:
192,192,18679,1,0,0:0:0:0:
320,192,18751,1,2,0:0:0:0:
448,192,18751,1,0,0:0:0:0:
64,192,18823,1,6,0:0:0:0:
192,192,18823,1,8,0:0:0:0:
320,192,18966,1,2,0:0:0:0:
448,192,18966,1,0,0:0:0:0:
64,192,19109,1,2,0:0:0:0:
320,192,19109,1,4,0:0:0:0:
448,192,19109,1,0,0:0:0:0:
192,192,19109,1,0,0:0:0:0:
192,192,19253,1,0,0:0:0:0:
64,192,19396,1,8,0:0:0:0:
320,192,19396,1,0,0:0:0:0:
448,192,19396,1,0,0:0:0:0:
192,192,19539,1,2,0:0:0:0:
320,192,19539,1,0,0:0:0:0:
64,192,19683,1,0,0:0:0:0:
320,192,19826,1,2,0:0:0:0:
448,192,19826,1,0,0:0:0:0:
64,192,19969,1,2,0:0:0:0:
192,192,19969,1,8,0:0:0:0:
448,192,19969,1,0,0:0:0:0:
192,192,20113,1,0,0:0:0:0:
320,192,20113,1,0,0:0:0:0:
64,192,20256,1,2,0:0:0:0:
448,192,20256,1,0,0:0:0:0:
192,192,20399,1,0,0:0:0:0:
64,192,20543,1,8,0:0:0:0:
320,192,20543,1,0,0:0:0:0:
448,192,20543,1,0,0:0:0:0:
64,192,20686,1,2,0:0:0:0:
192,192,20686,1,0,0:0:0:0:
320,192,20829,1,0,0:0:0:0:
192,192,20973,1,0,0:0:0:0:
448,192,20973,1,2,0:0:0:0:
64,192,21116,1,8,0:0:0:0:
192,192,21116,1,2,0:0:0:0:
320,192,21116,1,0,0:0:0:0:
448,192,21259,1,0,0:0:0:0:
64,192,21403,1,2,0:0:0:0:
320,192,21403,1,0,0:0:0:0:
192,192,21546,1,0,0:0:0:0:
64,192,21689,1,8,0:0:0:0:
320,192,21689,1,0,0:0:0:0:
448,192,21689,1,0,0:0:0:0:
192,192,21833,1,2,0:0:0:0:
320,192,21833,1,0,0:0:0:0:
448,192,21976,1,0,0:0:0:0:
64,192,22119,1,2,0:0:0:0:
192,192,22119,1,0,0:0:0:0:
320,192,22263,1,2,0:0:0:0:
448,192,22263,1,8,0:0:0:0:
64,192,22263,1,0,0:0:0:0:
192,192,22406,1,0,0:0:0:0:
320,192,22406,1,0,0:0:0:0:
64,192,22549,1,2,0:0:0:0:
448,192,22549,1,0,0:0:0:0:
192,192,22693,1,0,0:0:0:0:
64,192,22836,1,8,0:0:0:0:
320,192,22836,1,0,0:0:0:0:
448,192,22836,1,0,0:0:0:0:
448,192,22979,1,2,0:0:0:0:
192,192,22979,1,0,0:0:0:0:
320,192,23123,1,0,0:0:0:0:
192,192,23266,1,0,0:0:0:0:
64,192,23266,1,2,0:0:0:0:
192,192,23409,1,8,0:0:0:0:
320,192,23409,1,2,0:0:0:0:
448,192,23409,1,0,0:0:0:0:
64,192,23553,1,0,0:0:0:0:
320,192,23696,1,2,0:0:0:0:
448,192,23696,1,0,0:0:0:0:
192,192,23839,1,0,0:0:0:0:
64,192,23983,1,8,0:0:0:0:
320,192,23983,1,0,0:0:0:0:
448,192,23983,1,0,0:0:0:0:
192,192,24126,1,2,0:0:0:0:
320,192,24126,1,0,0:0:0:0:
64,192,24269,1,0,0:0:0:0:
320,192,24413,1,2,0:0:0:0:
448,192,24413,1,0,0:0:0:0:
64,192,24556,1,8,0:0:0:0:
192,192,24556,1,2,0:0:0:0:
448,192,24556,1,0,0:0:0:0:
192,192,24699,1,0,0:0:0:0:
320,192,24699,1,0,0:0:0:0:
64,192,24843,1,2,0:0:0:0:
448,192,24843,1,0,0:0:0:0:
192,192,24986,1,0,0:0:0:0:
64,192,25129,1,8,0:0:0:0:
320,192,25129,1,0,0:0:0:0:
448,192,25129,1,0,0:0:0:0:
320,192,25273,1,2,0:0:0:0:
192,192,25273,1,0,0:0:0:0:
448,192,25416,1,0,0:0:0:0:
192,192,25559,1,0,0:0:0:0:
64,192,25559,1,2,0:0:0:0:
448,192,25703,1,2,0:0:0:0:
320,192,25703,1,8,0:0:0:0:
64,192,25703,1,0,0:0:0:0:
192,192,25846,1,0,0:0:0:0:
64,192,25989,1,2,0:0:0:0:
448,192,25989,1,0,0:0:0:0:
320,192,26133,1,0,0:0:0:0:
192,192,26276,1,8,0:0:0:0:
64,192,26276,1,0,0:0:0:0:
448,192,26276,1,0,0:0:0:0:
64,192,26419,1,2,0:0:0:0:
320,192,26419,1,0,0:0:0:0:
448,192,26563,1,0,0:0:0:0:
64,192,26706,1,2,0:0:0:0:
192,192,26706,1,0,0:0:0:0:
320,192,26849,1,8,0:0:0:0:
448,192,26849,1,2,0:0:0:0:
64,192,26849,1,0,0:0:0:0:
192,192,26993,1,0,0:0:0:0:
320,192,26993,1,0,0:0:0:0:
64,192,27136,1,2,0:0:0:0:
448,192,27136,1,0,0:0:0:0:
192,192,27279,1,0,0:0:0:0:
64,192,27423,1,8,0:0:0:0:
320,192,27423,1,0,0:0:0:0:
448,192,27423,1,0,0:0:0:0:
192,192,27566,1,2,0:0:0:0:
448,192,27566,1,0,0:0:0:0:
320,192,27709,1,0,0:0:0:0:
64,192,27709,1,8,0:0:0:0:
192,192,27709,1,0,0:0:0:0:
448,192,27853,1,0,0:0:0:0:
320,192,27853,1,2,0:0:0:0:
64,192,27996,1,2,0:0:0:0:
448,192,27996,1,8,0:0:0:0:
192,192,27996,1,0,0:0:0:0:
192,192,28139,1,8,0:0:0:0:
448,192,28139,1,0,0:0:0:0:
320,192,28139,1,0,0:0:0:0:
64,192,28283,128,2,30003:0:0:0:0:
320,192,28283,1,4,0:0:0:0:
192,192,28283,1,0,0:0:0:0:
448,192,28426,1,0,0:0:0:0:
192,192,28569,1,8,0:0:0:0:
320,192,28569,1,0,0:0:0:0:
448,192,28713,1,2,0:0:0:0:
192,192,28856,1,0,0:0:0:0:
320,192,28999,1,2,0:0:0:0:
192,192,29143,1,2,0:0:0:0:
448,192,29143,1,8,0:0:0:0:
320,192,29286,1,0,0:0:0:0:
448,192,29429,1,2,0:0:0:0:
192,192,29573,1,0,0:0:0:0:
320,192,29716,1,8,0:0:0:0:
448,192,29716,1,0,0:0:0:0:
192,192,29859,1,2,0:0:0:0:
320,192,30003,1,0,0:0:0:0:
448,192,30003,128,0,30576:0:0:0:0:
192,192,30146,1,0,0:0:0:0:
64,192,30289,1,8,0:0:0:0:
320,192,30289,1,2,0:0:0:0:
192,192,30433,1,0,0:0:0:0:
320,192,30576,128,2,32296:0:0:0:0:
64,192,30576,1,0,0:0:0:0:
192,192,30719,1,0,0:0:0:0:
64,192,30863,1,8,0:0:0:0:
448,192,30863,1,0,0:0:0:0:
192,192,31006,1,2,0:0:0:0:
64,192,31150,1,0,0:0:0:0:
448,192,31293,1,2,0:0:0:0:
64,192,31436,1,2,0:0:0:0:
192,192,31436,1,8,0:0:0:0:
448,192,31580,1,0,0:0:0:0:
64,192,31723,1,2,0:0:0:0:
192,192,31866,1,0,0:0:0:0:
64,192,32010,1,8,0:0:0:0:
448,192,32010,1,0,0:0:0:0:
192,192,32153,1,2,0:0:0:0:
64,192,32296,128,0,32870:0:0:0:0:
448,192,32296,1,0,0:0:0:0:
192,192,32440,1,2,0:0:0:0:
320,192,32583,1,8,0:0:0:0:
448,192,32583,1,2,0:0:0:0:
192,192,32726,1,0,0:0:0:0:
320,192,32870,1,2,0:0:0:0:
448,192,32870,128,0,34590:0:0:0:0:
192,192,33013,1,0,0:0:0:0:
64,192,33156,1,8,0:0:0:0:
320,192,33156,1,0,0:0:0:0:
192,192,33300,1,2,0:0:0:0:
64,192,33443,1,0,0:0:0:0:
320,192,33586,1,2,0:0:0:0:
64,192,33730,1,8,0:0:0:0:
192,192,33730,1,2,0:0:0:0:
320,192,33873,1,0,0:0:0:0:
192,192,34016,1,2,0:0:0:0:
64,192,34160,1,0,0:0:0:0:
192,192,34303,1,8,0:0:0:0:
320,192,34303,1,0,0:0:0:0:
64,192,34446,1,2,0:0:0:0:
192,192,34590,128,0,35163:0:0:0:0:
320,192,34590,1,0,0:0:0:0:
448,192,34733,1,2,0:0:0:0:
64,192,34876,1,2,0:0:0:0:
320,192,34876,1,8,0:0:0:0:
448,192,35020,1,0,0:0:0:0:
64,192,35163,128,2,36310:0:0:0:0:
320,192,35163,1,0,0:0:0:0:
448,192,35306,1,0,0:0:0:0:
192,192,35450,1,8,0:0:0:0:
320,192,35450,1,0,0:0:0:0:
448,192,35593,1,2,0:0:0:0:
192,192,35736,1,0,0:0:0:0:
320,192,35880,1,2,0:0:0:0:
192,192,36023,1,8,0:0:0:0:
448,192,36023,1,2,0:0:0:0:
320,192,36166,1,0,0:0:0:0:
192,192,36310,1,2,0:0:0:0:
448,192,36310,1,4,0:0:0:0:
64,192,36596,1,2,0:0:0:0:
448,192,36596,1,4,0:0:0:0:
320,192,36596,1,8,0:0:0:0:
64,192,36883,1,4,0:0:0:0:
192,192,36883,1,2,0:0:0:0:
448,192,36883,1,0,0:0:0:0:
320,192,37026,1,2,0:0:0:0:
448,192,37026,1,0,0:0:0:0:
64,192,37098,1,2,0:0:0:0:
192,192,37098,1,0,0:0:0:0:
320,192,37170,1,6,0:0:0:0:
448,192,37170,1,8,0:0:0:0:
192,192,37313,1,2,0:0:0:0:
320,192,37313,1,0,0:0:0:0:
64,192,37456,1,2,0:0:0:0:
192,192,37456,1,4,0:0:0:0:
448,192,37456,128,0,39176:0:0:0:0:
320,192,37600,1,0,0:0:0:0:
64,192,37743,1,0,0:0:0:70:Clap.wav
192,192,37743,1,0,0:0:0:0:
320,192,37886,1,0,0:0:0:0:
64,192,38030,1,0,0:0:0:0:
192,192,38173,1,0,0:0:0:0:
64,192,38316,1,0,0:0:0:70:Clap.wav
320,192,38316,1,0,0:0:0:0:
192,192,38460,1,0,0:0:0:0:
64,192,38603,1,0,0:0:0:0:
192,192,38746,1,0,0:0:0:0:
64,192,38890,1,0,0:0:0:70:Clap.wav
320,192,38890,1,0,0:0:0:0:
192,192,39033,1,0,0:0:0:0:
64,192,39176,128,0,39750:0:0:0:0:
320,192,39176,1,0,0:0:0:0:
192,192,39320,1,0,0:0:0:0:
448,192,39463,1,0,0:0:0:70:Clap.wav
320,192,39463,1,0,0:0:0:0:
192,192,39606,1,0,0:0:0:0:
320,192,39750,1,0,0:0:0:0:
448,192,39750,128,0,41470:0:0:0:0:
192,192,39893,1,0,0:0:0:0:
64,192,40036,1,0,0:0:0:70:Clap.wav
320,192,40036,1,0,0:0:0:0:
192,192,40180,1,0,0:0:0:0:
64,192,40323,1,0,0:0:0:0:
320,192,40466,1,0,0:0:0:0:
64,192,40610,1,0,0:0:0:70:Clap.wav
192,192,40610,1,0,0:0:0:0:
320,192,40753,1,0,0:0:0:0:
64,192,40896,1,0,0:0:0:0:
320,192,41040,1,0,0:0:0:0:
192,192,41183,1,0,0:0:0:70:Clap.wav
64,192,41183,1,0,0:0:0:0:
320,192,41326,1,0,0:0:0:0:
192,192,41470,1,0,0:0:0:0:
64,192,41470,128,0,42043:0:0:0:0:
320,192,41613,1,0,0:0:0:0:
192,192,41756,1,0,0:0:0:70:Clap.wav
448,192,41756,1,0,0:0:0:0:
320,192,41900,1,0,0:0:0:0:
448,192,42043,1,0,0:0:0:0:
192,192,42043,128,0,43763:0:0:0:0:
320,192,42186,1,0,0:0:0:0:
64,192,42330,1,0,0:0:0:70:Clap.wav
448,192,42330,1,0,0:0:0:0:
320,192,42473,1,0,0:0:0:0:
448,192,42616,1,0,0:0:0:0:
64,192,42760,1,0,0:0:0:0:
320,192,42903,1,0,0:0:0:70:Clap.wav
448,192,42903,1,0,0:0:0:0:
64,192,43046,1,0,0:0:0:0:
448,192,43190,1,0,0:0:0:0:
320,192,43333,1,0,0:0:0:0:
64,192,43476,1,0,0:0:0:70:Clap.wav
448,192,43476,1,0,0:0:0:0:
320,192,43620,1,0,0:0:0:0:
64,192,43763,1,0,0:0:0:0:
448,192,43763,128,0,44336:0:0:0:0:
320,192,43906,1,0,0:0:0:0:
64,192,44050,1,0,0:0:0:70:Clap.wav
192,192,44050,1,0,0:0:0:0:
320,192,44193,1,0,0:0:0:0:
64,192,44336,128,0,45483:0:0:0:0:
192,192,44336,1,0,0:0:0:0:
320,192,44480,1,0,0:0:0:0:
192,192,44623,1,0,0:0:0:70:Clap.wav
448,192,44623,1,0,0:0:0:0:
320,192,44766,1,0,0:0:0:0:
192,192,44910,1,0,0:0:0:0:
448,192,45053,1,0,0:0:0:0:
192,192,45196,1,0,0:0:0:70:Clap.wav
320,192,45196,1,0,0:0:0:0:
448,192,45340,1,0,0:0:0:0:
192,192,45483,1,4,0:0:0:0:
320,192,45483,1,0,0:0:0:0:
320,192,45626,1,0,0:0:0:0:
64,192,45770,1,4,0:0:0:0:
192,192,45770,1,0,0:0:0:0:
448,192,45770,1,0,0:0:0:0:
64,192,45913,1,0,0:0:0:0:
192,192,46056,1,4,0:0:0:0:
320,192,46056,1,0,0:0:0:0:
448,192,46056,1,0,0:0:0:0:
320,192,46200,1,0,0:0:0:0:
64,192,46343,1,4,0:0:0:0:
192,192,46343,1,0,0:0:0:0:
448,192,46343,1,0,0:0:0:0:
192,192,46486,1,0,0:0:0:0:
64,192,46630,1,2,0:0:0:0:
320,192,46630,128,4,46701:0:0:0:0:
448,192,46630,1,0,0:0:0:0:
320,192,46773,128,0,46845:0:0:0:0:
64,192,46916,128,0,47203:0:0:0:0:
192,192,46916,128,0,47203:0:0:0:0:
448,192,47203,128,0,47275:0:0:0:0:
448,192,47346,128,0,47418:0:0:0:70:LR_Snare Drum.wav
192,192,47490,128,0,47776:0:0:0:70:LR_Kick Beat Med Vfast.wav
320,192,47490,128,0,47776:0:0:0:0:
64,192,47776,128,0,47848:0:0:0:70:LR_Kick Beat Med Vfast.wav
64,192,47920,128,0,47991:0:0:0:0:
320,192,48063,128,0,48350:0:0:0:0:
448,192,48063,128,0,48350:0:0:0:0:
192,192,48350,128,0,48636:0:0:0:0:
64,192,48493,128,0,48780:0:0:0:70:LR_Snare Drum.wav
448,192,48636,128,0,48923:0:0:0:70:LR_Kick Beat Med Vfast.wav
320,192,48780,128,0,48923:0:0:0:70:LR_Snare Drum 2.wav
192,192,48923,128,0,48995:0:0:0:70:LR_Kick Beat Med Vfast.wav
192,192,49066,128,0,49138:0:0:0:0:
320,192,49210,128,0,49496:0:0:0:0:
448,192,49210,128,0,49496:0:0:0:0:
64,192,49496,128,0,49568:0:0:0:0:
64,192,49640,128,0,49711:0:0:0:70:LR_Snare Drum.wav
192,192,49783,128,0,50070:0:0:0:70:LR_Kick Beat Med Vfast.wav
320,192,49783,128,0,50070:0:0:0:0:
64,192,50070,128,0,50930:0:0:0:70:LR_Kick Beat Med Vfast.wav
448,192,50070,1,0,0:0:0:0:
320,192,50356,1,0,0:0:0:0:
448,192,50500,1,0,0:0:0:70:LR_Snare Drum 2.wav
192,192,50786,1,0,0:0:0:70:LR_Snare Drum.wav
448,192,50930,1,0,0:0:0:70:LR_Kick Beat Med Vfast.wav
320,192,51073,1,0,0:0:0:70:LR_Snare Drum 2.wav
192,192,51216,128,0,51288:0:0:0:70:LR_Kick Beat Med Vfast.wav
192,192,51360,128,0,51431:0:0:0:0:
320,192,51503,128,0,51790:0:0:0:0:
448,192,51503,128,0,51790:0:0:0:0:
64,192,51790,128,0,51861:0:0:0:0:
64,192,51933,128,0,52005:0:0:0:70:LR_Snare Drum.wav
192,192,52076,128,0,52363:0:0:0:70:LR_Kick Beat Med Vfast.wav
320,192,52076,128,0,52363:0:0:0:0:
448,192,52363,128,0,52435:0:0:0:70:LR_Kick Beat Med Vfast.wav
448,192,52506,128,0,52578:0:0:0:0:
64,192,52650,128,0,52936:0:0:0:0:
192,192,52650,128,0,52936:0:0:0:0:
448,192,52936,128,0,53223:0:0:0:0:
320,192,53080,128,0,53366:0:0:0:70:LR_Snare Drum.wav
64,192,53223,128,0,53510:0:0:0:70:LR_Kick Beat Med Vfast.wav
192,192,53366,128,0,53510:0:0:0:70:LR_Snare Drum 2.wav
448,192,53510,128,0,53581:0:0:0:70:LR_Kick Beat Med Vfast.wav
448,192,53653,128,0,53725:0:0:0:0:
192,192,53796,128,0,54083:0:0:0:0:
320,192,53796,128,0,54083:0:0:0:0:
64,192,54083,128,0,54155:0:0:0:0:
64,192,54226,128,0,54298:0:0:0:70:LR_Snare Drum.wav
320,192,54370,128,0,54656:0:0:0:70:LR_Kick Beat Med Vfast.wav
448,192,54370,128,0,54656:0:0:0:0:
64,192,54656,128,4,55803:0:0:0:0:
192,192,54656,1,0,0:0:0:0:
192,192,54943,1,4,0:0:0:0:
320,192,54943,1,0,0:0:0:0:
320,192,55230,1,4,0:0:0:0:
448,192,55230,1,0,0:0:0:0:
192,192,55516,1,4,0:0:0:0:
448,192,55516,1,0,0:0:0:0:
192,192,55803,1,4,0:0:0:0:
448,192,55803,128,2,55875:0:0:0:0:
320,192,55803,1,0,0:0:0:0:
448,192,55946,128,0,56018:0:0:0:0:
64,192,56090,1,0,0:0:0:70:Clap.wav
192,192,56090,128,0,56376:0:0:0:0:
320,192,56090,128,0,56376:0:0:0:0:
64,192,56376,128,0,56448:0:0:0:0:
64,192,56520,128,0,56591:0:0:0:70:LR_Snare Drum.wav
192,192,56663,128,0,56950:0:0:0:70:Clap.wav
320,192,56663,128,0,56950:0:0:0:70:LR_Kick Beat Med Vfast.wav
448,192,56663,1,0,0:0:0:0:
64,192,56950,1,0,0:0:0:70:LR_Kick Beat Med Vfast.wav
448,192,56950,128,0,57021:0:0:0:0:
448,192,57093,128,0,57165:0:0:0:0:
64,192,57236,128,0,57523:0:0:0:70:Clap.wav
192,192,57236,128,0,57523:0:0:0:0:
320,192,57236,1,0,0:0:0:0:
448,192,57523,128,0,57810:0:0:0:0:
320,192,57666,128,0,57953:0:0:0:70:LR_Snare Drum.wav
192,192,57810,128,0,58096:0:0:0:70:Clap.wav
64,192,57953,128,0,58096:0:0:0:70:LR_Snare Drum 2.wav
448,192,58096,128,0,58168:0:0:0:70:LR_Kick Beat Med Vfast.wav
320,192,58096,1,0,0:0:0:0:
448,192,58240,128,0,58311:0:0:0:0:
64,192,58383,128,0,58670:0:0:0:70:Clap.wav
192,192,58383,128,0,58670:0:0:0:0:
320,192,58383,1,0,0:0:0:0:
448,192,58670,128,0,58741:0:0:0:0:
448,192,58813,128,0,58885:0:0:0:70:LR_Snare Drum.wav
64,192,58956,1,0,0:0:0:70:Clap.wav
192,192,58956,128,0,59243:0:0:0:70:LR_Kick Beat Med Vfast.wav
320,192,58956,128,0,59243:0:0:0:0:
64,192,59243,128,0,60390:0:0:0:70:LR_Kick Beat Med Vfast.wav
448,192,59243,1,0,0:0:0:0:
192,192,59530,1,0,0:0:0:70:Clap.wav
448,192,59530,1,0,0:0:0:0:
320,192,59673,1,0,0:0:0:70:LR_Snare Drum 2.wav
192,192,59960,1,0,0:0:0:70:LR_Snare Drum.wav
320,192,60103,1,0,0:0:0:70:Clap.wav
448,192,60103,1,0,0:0:0:70:LR_Kick Beat Med Vfast.wav
192,192,60390,1,0,0:0:0:70:LR_Kick Beat Med Vfast.wav
448,192,60390,128,0,60461:0:0:0:0:
448,192,60533,128,0,60605:0:0:0:0:
64,192,60676,1,0,0:0:0:70:Clap.wav
192,192,60676,128,0,60963:0:0:0:0:
320,192,60676,128,0,60963:0:0:0:0:
64,192,60963,128,0,61035:0:0:0:0:
64,192,61107,128,0,61178:0:0:0:70:LR_Snare Drum.wav
192,192,61250,128,0,61537:0:0:0:70:Clap.wav
320,192,61250,128,0,61537:0:0:0:70:LR_Kick Beat Med Vfast.wav
448,192,61250,1,0,0:0:0:0:
64,192,61537,1,0,0:0:0:70:LR_Kick Beat Med Vfast.wav
448,192,61537,128,0,61608:0:0:0:0:
448,192,61680,128,0,61752:0:0:0:0:
64,192,61823,128,0,62110:0:0:0:70:Clap.wav
192,192,61823,128,0,62110:0:0:0:0:
320,192,61823,1,0,0:0:0:0:
448,192,62110,128,0,62397:0:0:0:0:
320,192,62253,128,0,62540:0:0:0:70:LR_Snare Drum.wav
64,192,62397,128,0,62683:0:0:0:70:Clap.wav
192,192,62540,128,0,62683:0:0:0:70:LR_Snare Drum 2.wav
448,192,62683,128,0,62755:0:0:0:70:LR_Kick Beat Med Vfast.wav
448,192,62827,128,0,62898:0:0:0:0:
64,192,62970,1,0,0:0:0:70:Clap.wav
192,192,62970,128,0,63257:0:0:0:0:
320,192,62970,128,0,63257:0:0:0:0:
64,192,63257,128,0,63328:0:0:0:0:
64,192,63400,128,0,63472:0:0:0:70:LR_Snare Drum.wav
192,192,63543,128,0,63830:0:0:0:70:Clap.wav
320,192,63543,128,0,63830:0:0:0:70:LR_Kick Beat Med Vfast.wav
448,192,63543,1,0,0:0:0:0:
64,192,63830,1,4,0:0:0:0:
448,192,63830,128,2,64977:0:0:0:0:
64,192,64117,1,4,0:0:0:0:
192,192,64117,1,0,0:0:0:0:
320,192,64403,1,4,0:0:0:0:
192,192,64403,1,0,0:0:0:0:
64,192,64690,1,4,0:0:0:0:
192,192,64690,1,0,0:0:0:0:
64,192,64977,1,4,0:0:0:0:
320,192,64977,1,2,0:0:0:0:
192,192,65120,1,0,0:0:0:0:
64,192,65263,1,0,0:0:0:70:Clap.wav
448,192,65263,1,0,0:0:0:0:
192,192,65407,1,0,0:0:0:70:LR_Snare Drum 2.wav
320,192,65407,1,0,0:0:0:0:
64,192,65693,1,0,0:0:0:70:LR_Snare Drum.wav
192,192,65693,1,0,0:0:0:0:
320,192,65837,1,0,0:0:0:70:Clap.wav
448,192,65837,1,0,0:0:0:70:LR_Kick Beat Med Vfast.wav
192,192,65980,1,0,0:0:0:70:LR_Snare Drum 2.wav
64,192,66123,1,0,0:0:0:70:LR_Kick Beat Med Vfast.wav
448,192,66123,1,0,0:0:0:0:
192,192,66267,1,0,0:0:0:0:
320,192,66410,1,0,0:0:0:70:Clap.wav
448,192,66410,1,0,0:0:0:0:
64,192,66553,1,0,0:0:0:70:LR_Snare Drum 2.wav
192,192,66553,1,0,0:0:0:0:
192,192,66840,1,0,0:0:0:70:LR_Snare Drum.wav
320,192,66840,1,0,0:0:0:0:
64,192,66983,1,0,0:0:0:70:Clap.wav
448,192,66983,1,0,0:0:0:70:LR_Kick Beat Med Vfast.wav
192,192,67127,1,0,0:0:0:70:LR_Snare Drum 2.wav
64,192,67270,1,0,0:0:0:70:LR_Kick Beat Med Vfast.wav
320,192,67270,1,0,0:0:0:0:
448,192,67413,1,0,0:0:0:0:
320,192,67485,1,0,0:0:0:0:
64,192,67557,1,0,0:0:0:70:Clap.wav
192,192,67557,1,0,0:0:0:0:
320,192,67700,1,0,0:0:0:70:LR_Snare Drum 2.wav
448,192,67700,1,0,0:0:0:0:
64,192,67987,1,0,0:0:0:70:LR_Snare Drum.wav
448,192,67987,1,0,0:0:0:0:
192,192,68058,1,0,0:0:0:0:
448,192,68130,1,0,0:0:0:70:Clap.wav
320,192,68130,128,0,68273:0:0:0:70:LR_Kick Beat Med Vfast.wav
192,192,68273,128,0,68417:0:0:0:70:LR_Snare Drum 2.wav
64,192,68417,128,0,68560:0:0:0:70:LR_Kick Beat Med Vfast.wav
320,192,68417,1,0,0:0:0:0:
448,192,68560,1,0,0:0:0:0:
192,192,68703,1,0,0:0:0:70:Clap.wav
320,192,68703,128,0,68847:0:0:0:0:
64,192,68847,1,0,0:0:0:70:LR_Snare Drum 2.wav
448,192,68847,1,0,0:0:0:0:
192,192,68990,128,0,69133:0:0:0:0:
64,192,69133,1,0,0:0:0:70:LR_Snare Drum.wav
448,192,69277,1,0,0:0:0:70:Clap.wav
192,192,69277,1,0,0:0:0:70:LR_Kick Beat Med Vfast.wav
320,192,69420,1,0,0:0:0:70:LR_Snare Drum 2.wav
64,192,69563,1,0,0:0:0:70:LR_Kick Beat Med Vfast.wav
192,192,69563,1,0,0:0:0:0:
320,192,69707,1,0,0:0:0:0:
192,192,69850,1,0,0:0:0:70:Clap.wav
448,192,69850,1,0,0:0:0:0:
64,192,69993,1,0,0:0:0:70:LR_Snare Drum 2.wav
320,192,69993,1,0,0:0:0:0:
192,192,70280,1,0,0:0:0:70:LR_Snare Drum.wav
320,192,70280,1,0,0:0:0:0:
64,192,70423,1,0,0:0:0:70:Clap.wav
448,192,70423,1,0,0:0:0:70:LR_Kick Beat Med Vfast.wav
192,192,70567,1,0,0:0:0:70:LR_Snare Drum 2.wav
64,192,70710,1,0,0:0:0:70:LR_Kick Beat Med Vfast.wav
448,192,70710,1,0,0:0:0:0:
320,192,70853,1,0,0:0:0:0:
64,192,70997,1,0,0:0:0:70:Clap.wav
192,192,70997,1,0,0:0:0:0:
320,192,71140,1,0,0:0:0:70:LR_Snare Drum 2.wav
448,192,71140,1,0,0:0:0:0:
192,192,71427,1,0,0:0:0:70:LR_Snare Drum.wav
448,192,71427,1,0,0:0:0:0:
64,192,71570,1,0,0:0:0:70:Clap.wav
320,192,71570,1,0,0:0:0:70:LR_Kick Beat Med Vfast.wav
192,192,71713,1,0,0:0:0:70:LR_Snare Drum 2.wav
64,192,71857,1,0,0:0:0:70:LR_Kick Beat Med Vfast.wav
448,192,71857,1,0,0:0:0:0:
320,192,72000,1,0,0:0:0:0:
64,192,72143,1,0,0:0:0:70:Clap.wav
192,192,72143,1,0,0:0:0:0:
320,192,72287,1,0,0:0:0:70:LR_Snare Drum 2.wav
448,192,72287,1,0,0:0:0:0:
320,192,72573,1,0,0:0:0:70:LR_Snare Drum.wav
448,192,72573,1,0,0:0:0:0:
64,192,72717,1,0,0:0:0:70:Clap.wav
192,192,72717,1,0,0:0:0:70:LR_Kick Beat Med Vfast.wav
320,192,72860,1,0,0:0:0:70:LR_Snare Drum 2.wav
64,192,73003,1,2,0:0:0:0:
192,192,73003,1,4,0:0:0:0:
448,192,73003,1,0,0:0:0:0:
64,192,73290,1,4,0:0:0:0:
320,192,73290,1,0,0:0:0:0:
448,192,73290,1,0,0:0:0:0:
64,192,73577,1,4,0:0:0:0:
192,192,73577,1,0,0:0:0:0:
320,192,73577,1,0,0:0:0:0:
192,192,73863,1,4,0:0:0:0:
320,192,73863,1,0,0:0:0:0:
448,192,73863,1,0,0:0:0:0:
64,192,74150,1,2,0:0:0:0:
192,192,74150,1,4,0:0:0:0:
448,192,74150,1,0,0:0:0:0:
320,192,74293,1,0,0:0:0:0:
64,192,74437,1,0,0:0:0:70:Clap.wav
448,192,74437,1,0,0:0:0:0:
192,192,74580,1,0,0:0:0:70:LR_Snare Drum 2.wav
320,192,74580,1,0,0:0:0:0:
64,192,74867,1,0,0:0:0:70:LR_Snare Drum.wav
192,192,74938,1,0,0:0:0:0:
448,192,75010,1,0,0:0:0:70:Clap.wav
320,192,75010,1,0,0:0:0:70:LR_Kick Beat Med Vfast.wav
192,192,75153,1,0,0:0:0:70:LR_Snare Drum 2.wav
64,192,75297,1,0,0:0:0:70:LR_Kick Beat Med Vfast.wav
448,192,75297,1,0,0:0:0:0:
320,192,75440,1,0,0:0:0:0:
64,192,75583,1,0,0:0:0:70:Clap.wav
192,192,75583,1,0,0:0:0:0:
448,192,75727,1,0,0:0:0:70:LR_Snare Drum 2.wav
320,192,75727,1,0,0:0:0:0:
448,192,76013,1,0,0:0:0:70:LR_Snare Drum.wav
320,192,76013,1,0,0:0:0:0:
64,192,76157,1,0,0:0:0:70:Clap.wav
192,192,76157,1,0,0:0:0:70:LR_Kick Beat Med Vfast.wav
320,192,76300,1,0,0:0:0:70:LR_Snare Drum 2.wav
64,192,76443,1,0,0:0:0:70:LR_Kick Beat Med Vfast.wav
448,192,76443,1,0,0:0:0:0:
320,192,76587,1,0,0:0:0:0:
192,192,76658,1,0,0:0:0:0:
64,192,76730,1,0,0:0:0:70:Clap.wav
448,192,76730,1,0,0:0:0:0:
320,192,76873,1,0,0:0:0:70:LR_Snare Drum 2.wav
192,192,76873,1,0,0:0:0:0:
448,192,77160,1,0,0:0:0:70:LR_Snare Drum.wav
64,192,77160,1,0,0:0:0:0:
320,192,77232,1,0,0:0:0:0:
64,192,77303,1,0,0:0:0:70:LR_Kick Beat Med Vfast.wav
192,192,77303,128,0,77447:0:0:0:70:Clap.wav
320,192,77447,128,0,77590:0:0:0:70:LR_Snare Drum 2.wav
448,192,77590,128,0,77733:0:0:0:70:LR_Kick Beat Med Vfast.wav
64,192,77590,1,0,0:0:0:0:
192,192,77733,1,0,0:0:0:0:
64,192,77877,1,0,0:0:0:70:Clap.wav
320,192,77877,128,0,78020:0:0:0:0:
448,192,78020,1,0,0:0:0:70:LR_Snare Drum 2.wav
192,192,78020,1,0,0:0:0:0:
64,192,78163,128,0,78307:0:0:0:0:
448,192,78307,1,0,0:0:0:70:LR_Snare Drum.wav
64,192,78450,1,0,0:0:0:70:Clap.wav
320,192,78450,1,0,0:0:0:70:LR_Kick Beat Med Vfast.wav
192,192,78593,1,0,0:0:0:70:LR_Snare Drum 2.wav
64,192,78737,1,0,0:0:0:70:LR_Kick Beat Med Vfast.wav
448,192,78737,1,0,0:0:0:0:
320,192,78880,1,0,0:0:0:0:
64,192,79023,1,0,0:0:0:70:Clap.wav
448,192,79023,1,0,0:0:0:0:
320,192,79167,1,0,0:0:0:70:LR_Snare Drum 2.wav
192,192,79167,1,0,0:0:0:0:
64,192,79453,1,0,0:0:0:70:LR_Snare Drum.wav
192,192,79453,1,0,0:0:0:0:
448,192,79597,1,0,0:0:0:70:Clap.wav
320,192,79597,1,0,0:0:0:70:LR_Kick Beat Med Vfast.wav
192,192,79740,1,0,0:0:0:70:LR_Snare Drum 2.wav
64,192,79883,1,0,0:0:0:70:LR_Kick Beat Med Vfast.wav
448,192,79883,1,0,0:0:0:0:
320,192,80027,1,0,0:0:0:0:
192,192,80170,1,0,0:0:0:70:Clap.wav
448,192,80170,1,0,0:0:0:0:
64,192,80313,1,0,0:0:0:70:LR_Snare Drum 2.wav
320,192,80313,1,0,0:0:0:0:
192,192,80600,1,0,0:0:0:70:LR_Snare Drum.wav
64,192,80600,1,0,0:0:0:0:
448,192,80743,1,0,0:0:0:70:Clap.wav
320,192,80743,1,0,0:0:0:70:LR_Kick Beat Med Vfast.wav
192,192,80887,1,0,0:0:0:70:LR_Snare Drum 2.wav
64,192,81030,1,0,0:0:0:70:LR_Kick Beat Med Vfast.wav
448,192,81030,1,0,0:0:0:0:
320,192,81173,1,0,0:0:0:0:
192,192,81317,1,0,0:0:0:70:Clap.wav
448,192,81317,1,0,0:0:0:0:
64,192,81460,1,0,0:0:0:70:LR_Snare Drum 2.wav
320,192,81460,1,0,0:0:0:0:
320,192,81747,1,0,0:0:0:70:LR_Snare Drum.wav
448,192,81747,1,0,0:0:0:0:
64,192,81890,1,0,0:0:0:70:Clap.wav
192,192,81890,1,0,0:0:0:70:LR_Kick Beat Med Vfast.wav
448,192,82033,1,0,0:0:0:0:
64,192,82177,1,0,0:0:0:70:LR_Kick Beat Med Vfast.wav
320,192,82177,1,0,0:0:0:0:
192,192,82320,1,0,0:0:0:0:
64,192,82463,1,0,0:0:0:70:Clap.wav
448,192,82463,1,0,0:0:0:0:
320,192,82607,1,0,0:0:0:70:LR_Snare Drum 2.wav
192,192,82607,1,0,0:0:0:0:
320,192,82893,1,0,0:0:0:70:LR_Snare Drum.wav
448,192,82893,1,0,0:0:0:0:
64,192,83037,1,0,0:0:0:70:Clap.wav
192,192,83037,1,0,0:0:0:70:LR_Kick Beat Med Vfast.wav
320,192,83180,1,0,0:0:0:70:LR_Snare Drum 2.wav
64,192,83323,1,2,0:0:0:0:
192,192,83323,1,4,0:0:0:0:
448,192,83323,1,0,0:0:0:0:
64,192,83467,1,2,0:0:0:0:
192,192,83467,1,0,0:0:0:0:
448,192,83610,1,2,0:0:0:0:
320,192,83610,1,0,0:0:0:0:
320,192,83753,1,2,0:0:0:0:
448,192,83753,1,0,0:0:0:0:
320,192,84470,1,2,0:0:0:0:
448,192,84470,1,4,0:0:0:0:
64,192,84542,1,2,0:0:0:0:
192,192,84542,1,0,0:0:0:0:
320,192,84613,1,2,0:0:0:0:
448,192,84613,1,0,0:0:0:0:
64,192,84685,1,2,0:0:0:0:
192,192,84685,1,0,0:0:0:0:
320,192,84757,1,2,0:0:0:0:
448,192,84757,1,4,0:0:0:0:
64,192,84828,1,2,0:0:0:0:
192,192,84828,1,0,0:0:0:0:
320,192,84900,1,2,0:0:0:0:
448,192,84900,1,0,0:0:0:0:
64,192,84972,1,2,0:0:0:0:
192,192,84972,1,0,0:0:0:0:
320,192,85043,1,4,0:0:0:0:
448,192,85043,1,2,0:0:0:0:
64,192,85079,1,2,0:0:0:0:
192,192,85115,1,2,0:0:0:0:
448,192,85151,1,2,0:0:0:0:
320,192,85187,1,2,0:0:0:0:
64,192,85223,1,2,0:0:0:0:
192,192,85258,1,2,0:0:0:0:
448,192,85294,1,2,0:0:0:0:
320,192,85330,1,6,0:0:0:0:
192,192,85366,1,2,0:0:0:0:
64,192,85402,1,2,0:0:0:0:
448,192,85438,1,2,0:0:0:0:
320,192,85473,1,2,0:0:0:0:
192,192,85509,1,2,0:0:0:0:
64,192,85545,1,2,0:0:0:0:
448,192,85581,1,2,0:0:0:0:
320,192,85617,1,2,0:0:0:0:
192,192,85617,128,4,85760:0:0:0:0:
448,192,85760,1,0,0:0:0:0:
64,192,85903,128,8,86047:0:0:0:0:
320,192,85903,1,0,0:0:0:0:
192,192,85903,1,0,0:0:0:0:
448,192,86047,1,2,0:0:0:0:
64,192,86190,1,0,0:0:0:0:
320,192,86190,128,0,86333:0:0:0:0:
448,192,86333,1,2,0:0:0:0:
64,192,86477,1,2,0:0:0:0:
192,192,86477,1,8,0:0:0:0:
320,192,86477,1,0,0:0:0:0:
448,192,86620,1,0,0:0:0:0:
64,192,86763,128,2,87050:0:0:0:0:
192,192,86763,1,0,0:0:0:0:
320,192,86907,1,0,0:0:0:0:
192,192,87050,1,8,0:0:0:0:
448,192,87050,1,0,0:0:0:0:
64,192,87193,1,2,0:0:0:0:
320,192,87193,1,0,0:0:0:0:
192,192,87337,1,0,0:0:0:0:
448,192,87408,128,0,87480:0:0:0:0:
320,192,87480,128,2,87552:0:0:0:0:
192,192,87552,128,0,87623:0:0:0:0:
64,192,87623,128,8,87695:0:0:0:0:
448,192,87623,1,2,0:0:0:0:
320,192,87767,1,0,0:0:0:0:
64,192,87910,1,2,0:0:0:0:
448,192,87910,128,0,88053:0:0:0:0:
320,192,88053,1,0,0:0:0:0:
64,192,88197,1,8,0:0:0:0:
192,192,88197,128,0,88340:0:0:0:0:
448,192,88197,1,0,0:0:0:0:
320,192,88340,1,2,0:0:0:0:
64,192,88483,128,0,88627:0:0:0:0:
192,192,88483,1,0,0:0:0:0:
320,192,88627,1,2,0:0:0:0:
64,192,88770,1,2,0:0:0:0:
192,192,88770,1,8,0:0:0:0:
448,192,88770,1,0,0:0:0:0:
320,192,88913,1,0,0:0:0:0:
64,192,89057,1,2,0:0:0:0:
448,192,89057,128,0,89343:0:0:0:0:
192,192,89200,1,0,0:0:0:0:
64,192,89343,1,8,0:0:0:0:
320,192,89343,1,0,0:0:0:0:
192,192,89487,1,2,0:0:0:0:
448,192,89487,1,0,0:0:0:0:
320,192,89630,1,0,0:0:0:0:
64,192,89702,128,0,89773:0:0:0:0:
192,192,89773,128,2,89845:0:0:0:0:
320,192,89845,128,0,89917:0:0:0:0:
64,192,89917,1,8,0:0:0:0:
448,192,89917,128,2,89988:0:0:0:0:
192,192,90060,1,0,0:0:0:0:
320,192,90203,128,2,90490:0:0:0:0:
448,192,90203,1,0,0:0:0:0:
64,192,90347,1,0,0:0:0:0:
64,192,90490,128,8,90777:0:0:0:0:
192,192,90490,1,0,0:0:0:0:
448,192,90490,1,0,0:0:0:0:
320,192,90633,1,2,0:0:0:0:
192,192,90777,1,0,0:0:0:0:
448,192,90777,128,0,91064:0:0:0:0:
320,192,90920,1,2,0:0:0:0:
64,192,91064,1,8,0:0:0:0:
192,192,91064,1,2,0:0:0:0:
320,192,91064,128,0,91350:0:0:0:0:
64,192,91207,1,0,0:0:0:0:
192,192,91350,128,2,91637:0:0:0:0:
448,192,91350,1,0,0:0:0:0:
64,192,91494,1,0,0:0:0:0:
64,192,91637,128,8,91924:0:0:0:0:
320,192,91637,1,0,0:0:0:0:
448,192,91637,1,0,0:0:0:0:
192,192,91780,1,2,0:0:0:0:
320,192,91924,1,0,0:0:0:0:
448,192,91924,128,0,92210:0:0:0:0:
192,192,92067,1,2,0:0:0:0:
64,192,92210,1,2,0:0:0:0:
192,192,92210,128,8,92497:0:0:0:0:
320,192,92210,1,0,0:0:0:0:
448,192,92354,1,0,0:0:0:0:
320,192,92497,128,0,92784:0:0:0:0:
64,192,92497,1,2,0:0:0:0:
448,192,92640,1,0,0:0:0:0:
64,192,92784,1,8,0:0:0:0:
192,192,92784,1,0,0:0:0:0:
448,192,92927,1,2,0:0:0:0:
320,192,92927,128,0,93500:0:0:0:0:
64,192,93070,1,0,0:0:0:0:
192,192,93214,1,2,0:0:0:0:
64,192,93357,1,8,0:0:0:0:
448,192,93357,1,2,0:0:0:0:
192,192,93500,128,0,93572:0:0:0:0:
64,192,93572,128,0,93644:0:0:0:0:
320,192,93644,1,2,0:0:0:0:
448,192,93644,128,0,93930:0:0:0:0:
192,192,93787,1,0,0:0:0:0:
64,192,93930,1,8,0:0:0:0:
192,192,93930,1,0,0:0:0:0:
320,192,93930,1,0,0:0:0:0:
64,192,94074,1,2,0:0:0:0:
448,192,94074,1,0,0:0:0:0:
192,192,94217,1,8,0:0:0:0:
320,192,94217,1,0,0:0:0:0:
448,192,94217,1,0,0:0:0:0:
320,192,94360,1,2,0:0:0:0:
64,192,94360,1,0,0:0:0:0:
64,192,94504,1,2,0:0:0:0:
192,192,94504,1,8,0:0:0:0:
448,192,94504,1,0,0:0:0:0:
64,192,94647,1,8,0:0:0:0:
192,192,94647,1,0,0:0:0:0:
448,192,94647,1,0,0:0:0:0:
64,192,94790,128,2,94934:0:0:0:0:
320,192,94790,1,4,0:0:0:0:
448,192,94790,1,0,0:0:0:0:
192,192,94934,1,0,0:0:0:0:
64,192,95077,1,8,0:0:0:0:
320,192,95077,1,0,0:0:0:0:
448,192,95077,128,0,95220:0:0:0:0:
192,192,95220,1,2,0:0:0:0:
320,192,95364,128,0,95507:0:0:0:0:
448,192,95364,1,0,0:0:0:0:
192,192,95507,1,2,0:0:0:0:
64,192,95650,1,2,0:0:0:0:
320,192,95650,1,8,0:0:0:0:
448,192,95650,1,0,0:0:0:0:
192,192,95794,1,0,0:0:0:0:
64,192,95937,1,2,0:0:0:0:
448,192,95937,128,0,96224:0:0:0:0:
320,192,96080,1,0,0:0:0:0:
64,192,96224,1,8,0:0:0:0:
320,192,96224,128,0,96510:0:0:0:0:
192,192,96224,1,0,0:0:0:0:
448,192,96367,1,2,0:0:0:0:
192,192,96510,1,0,0:0:0:0:
64,192,96582,128,0,96654:0:0:0:0:
192,192,96654,128,2,96725:0:0:0:0:
320,192,96725,128,0,96797:0:0:0:0:
64,192,96797,1,8,0:0:0:0:
448,192,96797,128,2,96869:0:0:0:0:
192,192,96940,1,0,0:0:0:0:
64,192,97084,128,2,97227:0:0:0:0:
448,192,97084,1,0,0:0:0:0:
192,192,97227,1,0,0:0:0:0:
64,192,97370,1,8,0:0:0:0:
320,192,97370,128,0,97514:0:0:0:0:
448,192,97370,1,0,0:0:0:0:
192,192,97514,1,2,0:0:0:0:
320,192,97657,1,0,0:0:0:0:
448,192,97657,128,0,97800:0:0:0:0:
192,192,97800,1,2,0:0:0:0:
64,192,97944,1,2,0:0:0:0:
320,192,97944,1,8,0:0:0:0:
448,192,97944,1,0,0:0:0:0:
192,192,98087,1,0,0:0:0:0:
64,192,98230,128,2,98517:0:0:0:0:
448,192,98230,1,0,0:0:0:0:
320,192,98374,1,0,0:0:0:0:
192,192,98517,1,8,0:0:0:0:
448,192,98517,1,0,0:0:0:0:
64,192,98660,1,2,0:0:0:0:
320,192,98660,1,0,0:0:0:0:
192,192,98804,1,0,0:0:0:0:
448,192,98875,128,0,98947:0:0:0:0:
320,192,98947,128,2,99019:0:0:0:0:
192,192,99019,128,0,99090:0:0:0:0:
64,192,99090,128,8,99162:0:0:0:0:
448,192,99090,1,2,0:0:0:0:
192,192,99234,1,0,0:0:0:0:
320,192,99377,128,2,99664:0:0:0:0:
448,192,99377,1,0,0:0:0:0:
64,192,99520,1,0,0:0:0:0:
64,192,99664,128,8,99950:0:0:0:0:
192,192,99664,1,0,0:0:0:0:
448,192,99664,1,0,0:0:0:0:
320,192,99807,1,2,0:0:0:0:
192,192,99950,1,0,0:0:0:0:
448,192,99950,128,0,100237:0:0:0:0:
320,192,100094,1,2,0:0:0:0:
64,192,100237,1,8,0:0:0:0:
192,192,100237,1,2,0:0:0:0:
448,192,100380,1,0,0:0:0:0:
64,192,100524,1,2,0:0:0:0:
320,192,100524,128,0,100810:0:0:0:0:
192,192,100667,1,0,0:0:0:0:
192,192,100810,128,8,101097:0:0:0:0:
448,192,100810,1,0,0:0:0:0:
64,192,100810,1,0,0:0:0:0:
64,192,100954,1,2,0:0:0:0:
320,192,101097,1,0,0:0:0:0:
448,192,101097,128,0,101384:0:0:0:0:
64,192,101240,1,2,0:0:0:0:
64,192,101384,128,2,101670:0:0:0:0:
192,192,101384,1,8,0:0:0:0:
320,192,101384,1,0,0:0:0:0:
448,192,101527,1,0,0:0:0:0:
192,192,101670,1,2,0:0:0:0:
320,192,101670,128,0,101957:0:0:0:0:
448,192,101814,1,0,0:0:0:0:
64,192,101957,1,8,0:0:0:0:
192,192,101957,1,0,0:0:0:0:
192,192,102100,128,2,102817:0:0:0:0:
320,192,102100,1,0,0:0:0:0:
448,192,102244,1,0,0:0:0:0:
64,192,102387,1,2,0:0:0:0:
320,192,102530,1,8,0:0:0:0:
448,192,102530,1,2,0:0:0:0:
64,192,102674,1,0,0:0:0:0:
320,192,102817,1,2,0:0:0:0:
448,192,102817,1,4,0:0:0:0:
64,192,103104,1,2,0:0:0:0:
320,192,103104,1,4,0:0:0:0:
448,192,103104,1,8,0:0:0:0:
64,192,103390,1,4,0:0:0:0:
192,192,103390,1,2,0:0:0:0:
448,192,103390,1,0,0:0:0:0:
320,192,103534,1,2,0:0:0:0:
448,192,103534,1,0,0:0:0:0:
64,192,103605,1,2,0:0:0:0:
192,192,103605,1,0,0:0:0:0:
320,192,103677,1,6,0:0:0:0:
448,192,103677,1,8,0:0:0:0:
192,192,103820,1,2,0:0:0:0:
320,192,103820,1,0,0:0:0:0:
64,192,103964,1,4,0:0:0:0:
192,192,103964,1,2,0:0:0:0:
320,192,103964,1,0,0:0:0:0:
448,192,103964,1,0,0:0:0:0:
448,192,104107,1,0,0:0:0:0:
64,192,104250,1,8,0:0:0:0:
192,192,104250,1,0,0:0:0:0:
320,192,104250,1,0,0:0:0:0:
192,192,104394,1,2,0:0:0:0:
448,192,104394,1,0,0:0:0:0:
320,192,104537,1,0,0:0:0:0:
64,192,104680,1,2,0:0:0:0:
192,192,104680,1,0,0:0:0:0:
320,192,104824,1,8,0:0:0:0:
448,192,104824,1,2,0:0:0:0:
64,192,104824,1,0,0:0:0:0:
192,192,104967,1,0,0:0:0:0:
320,192,104967,1,0,0:0:0:0:
64,192,105110,1,2,0:0:0:0:
448,192,105110,1,0,0:0:0:0:
320,192,105254,1,0,0:0:0:0:
64,192,105397,1,8,0:0:0:0:
192,192,105397,1,0,0:0:0:0:
448,192,105397,1,0,0:0:0:0:
448,192,105540,1,2,0:0:0:0:
320,192,105540,1,0,0:0:0:0:
192,192,105684,1,0,0:0:0:0:
320,192,105827,1,0,0:0:0:0:
64,192,105827,1,2,0:0:0:0:
192,192,105970,1,2,0:0:0:0:
320,192,105970,1,8,0:0:0:0:
448,192,105970,1,0,0:0:0:0:
64,192,106114,1,0,0:0:0:0:
448,192,106257,1,2,0:0:0:0:
192,192,106257,1,0,0:0:0:0:
320,192,106400,1,0,0:0:0:0:
64,192,106544,1,8,0:0:0:0:
192,192,106544,1,0,0:0:0:0:
448,192,106544,1,0,0:0:0:0:
192,192,106687,1,2,0:0:0:0:
320,192,106687,1,0,0:0:0:0:
64,192,106830,1,0,0:0:0:0:
320,192,106974,1,2,0:0:0:0:
448,192,106974,1,0,0:0:0:0:
64,192,107117,1,8,0:0:0:0:
192,192,107117,1,2,0:0:0:0:
448,192,107117,1,0,0:0:0:0:
192,192,107260,1,0,0:0:0:0:
320,192,107260,1,0,0:0:0:0:
64,192,107404,1,2,0:0:0:0:
448,192,107404,1,0,0:0:0:0:
320,192,107547,1,0,0:0:0:0:
64,192,107690,1,8,0:0:0:0:
192,192,107690,1,0,0:0:0:0:
448,192,107690,1,0,0:0:0:0:
64,192,107834,1,2,0:0:0:0:
320,192,107834,1,0,0:0:0:0:
192,192,107977,1,0,0:0:0:0:
64,192,108120,1,0,0:0:0:0:
448,192,108120,1,2,0:0:0:0:
448,192,108264,1,2,0:0:0:0:
192,192,108264,1,8,0:0:0:0:
320,192,108264,1,0,0:0:0:0:
64,192,108407,1,0,0:0:0:0:
448,192,108550,1,2,0:0:0:0:
192,192,108550,1,0,0:0:0:0:
320,192,108694,1,0,0:0:0:0:
64,192,108837,1,8,0:0:0:0:
192,192,108837,1,0,0:0:0:0:
448,192,108837,1,0,0:0:0:0:
192,192,108980,1,2,0:0:0:0:
320,192,108980,1,0,0:0:0:0:
448,192,109124,1,0,0:0:0:0:
64,192,109267,1,2,0:0:0:0:
192,192,109267,1,0,0:0:0:0:
320,192,109410,1,2,0:0:0:0:
448,192,109410,1,8,0:0:0:0:
64,192,109410,1,0,0:0:0:0:
192,192,109554,1,0,0:0:0:0:
320,192,109554,1,0,0:0:0:0:
64,192,109697,1,2,0:0:0:0:
448,192,109697,1,0,0:0:0:0:
320,192,109840,1,0,0:0:0:0:
64,192,109984,1,8,0:0:0:0:
192,192,109984,1,0,0:0:0:0:
448,192,109984,1,0,0:0:0:0:
192,192,110127,1,2,0:0:0:0:
320,192,110127,1,0,0:0:0:0:
64,192,110270,1,0,0:0:0:0:
192,192,110414,1,0,0:0:0:0:
320,192,110414,1,2,0:0:0:0:
64,192,110557,1,8,0:0:0:0:
192,192,110557,1,2,0:0:0:0:
448,192,110557,1,0,0:0:0:0:
320,192,110700,1,0,0:0:0:0:
64,192,110844,1,2,0:0:0:0:
448,192,110844,1,0,0:0:0:0:
192,192,110987,1,0,0:0:0:0:
64,192,111130,1,8,0:0:0:0:
448,192,111130,1,0,0:0:0:0:
320,192,111130,1,0,0:0:0:0:
192,192,111274,1,2,0:0:0:0:
448,192,111274,1,0,0:0:0:0:
64,192,111417,1,0,0:0:0:0:
320,192,111560,1,2,0:0:0:0:
448,192,111560,1,0,0:0:0:0:
64,192,111704,1,2,0:0:0:0:
192,192,111704,1,8,0:0:0:0:
448,192,111704,1,0,0:0:0:0:
192,192,111847,1,0,0:0:0:0:
320,192,111847,1,0,0:0:0:0:
64,192,111990,1,2,0:0:0:0:
448,192,111990,1,0,0:0:0:0:
320,192,112134,1,0,0:0:0:0:
64,192,112277,1,8,0:0:0:0:
192,192,112277,1,0,0:0:0:0:
448,192,112277,1,0,0:0:0:0:
320,192,112420,1,2,0:0:0:0:
448,192,112420,1,0,0:0:0:0:
192,192,112564,1,8,0:0:0:0:
64,192,112564,1,0,0:0:0:0:
320,192,112564,1,0,0:0:0:0:
192,192,112707,1,2,0:0:0:0:
448,192,112707,1,0,0:0:0:0:
448,192,112850,1,2,0:0:0:0:
320,192,112850,1,8,0:0:0:0:
64,192,112850,1,0,0:0:0:0:
64,192,112994,1,0,0:0:0:0:
192,192,112994,1,8,0:0:0:0:
320,192,112994,1,0,0:0:0:0:
192,192,113137,1,4,0:0:0:0:
448,192,113137,128,2,114857:0:0:0:0:
320,192,113137,1,0,0:0:0:0:
64,192,113280,1,0,0:0:0:0:
192,192,113424,1,8,0:0:0:0:
320,192,113424,1,0,0:0:0:0:
64,192,113567,1,2,0:0:0:0:
320,192,113710,1,0,0:0:0:0:
192,192,113854,1,2,0:0:0:0:
64,192,113997,1,8,0:0:0:0:
320,192,113997,1,2,0:0:0:0:
192,192,114140,1,0,0:0:0:0:
64,192,114284,1,2,0:0:0:0:
320,192,114427,1,0,0:0:0:0:
64,192,114570,1,8,0:0:0:0:
192,192,114570,1,0,0:0:0:0:
320,192,114714,1,2,0:0:0:0:
64,192,114857,128,0,115430:0:0:0:0:
192,192,114857,1,0,0:0:0:0:
448,192,115000,1,2,0:0:0:0:
192,192,115144,1,2,0:0:0:0:
320,192,115144,1,8,0:0:0:0:
448,192,115287,1,0,0:0:0:0:
320,192,115430,1,2,0:0:0:0:
192,192,115430,128,0,117150:0:0:0:0:
448,192,115574,1,0,0:0:0:0:
64,192,115717,1,8,0:0:0:0:
320,192,115717,1,0,0:0:0:0:
448,192,115860,1,2,0:0:0:0:
320,192,116004,1,0,0:0:0:0:
64,192,116147,1,2,0:0:0:0:
320,192,116290,1,8,0:0:0:0:
448,192,116290,1,2,0:0:0:0:
64,192,116434,1,0,0:0:0:0:
448,192,116577,1,2,0:0:0:0:
320,192,116720,1,0,0:0:0:0:
64,192,116864,1,8,0:0:0:0:
448,192,116864,1,0,0:0:0:0:
320,192,117007,1,2,0:0:0:0:
64,192,117150,1,0,0:0:0:0:
448,192,117150,128,0,117724:0:0:0:0:
320,192,117294,1,2,0:0:0:0:
64,192,117437,1,2,0:0:0:0:
192,192,117437,1,8,0:0:0:0:
320,192,117580,1,0,0:0:0:0:
64,192,117724,128,2,119444:0:0:0:0:
192,192,117724,1,0,0:0:0:0:
320,192,117867,1,0,0:0:0:0:
192,192,118010,1,8,0:0:0:0:
448,192,118010,1,0,0:0:0:0:
320,192,118154,1,2,0:0:0:0:
448,192,118297,1,0,0:0:0:0:
192,192,118440,1,2,0:0:0:0:
320,192,118584,1,2,0:0:0:0:
448,192,118584,1,8,0:0:0:0:
192,192,118727,1,0,0:0:0:0:
320,192,118870,1,2,0:0:0:0:
448,192,119014,1,0,0:0:0:0:
192,192,119157,1,8,0:0:0:0:
320,192,119157,1,0,0:0:0:0:
448,192,119300,1,2,0:0:0:0:
192,192,119444,1,0,0:0:0:0:
320,192,119444,128,0,120017:0:0:0:0:
64,192,119587,1,2,0:0:0:0:
192,192,119730,1,8,0:0:0:0:
448,192,119730,1,2,0:0:0:0:
64,192,119874,1,0,0:0:0:0:
192,192,120017,1,2,0:0:0:0:
448,192,120017,128,0,121164:0:0:0:0:
64,192,120160,1,0,0:0:0:0:
192,192,120304,1,8,0:0:0:0:
320,192,120304,1,0,0:0:0:0:
64,192,120447,1,2,0:0:0:0:
320,192,120590,1,0,0:0:0:0:
192,192,120734,1,2,0:0:0:0:
64,192,120877,1,2,0:0:0:0:
320,192,120877,1,8,0:0:0:0:
192,192,121021,1,0,0:0:0:0:
64,192,121164,1,2,0:0:0:0:
320,192,121164,1,4,0:0:0:0:
192,192,121451,1,8,0:0:0:0:
320,192,121451,1,4,0:0:0:0:
448,192,121451,1,2,0:0:0:0:
64,192,121737,1,2,0:0:0:0:
320,192,121737,1,4,0:0:0:0:
448,192,121737,1,0,0:0:0:0:
64,192,121881,1,2,0:0:0:0:
192,192,121881,1,0,0:0:0:0:
320,192,121952,1,2,0:0:0:0:
448,192,121952,1,0,0:0:0:0:
64,192,122024,1,12,0:0:0:0:
192,192,122024,1,2,0:0:0:0:
192,192,122167,1,2,0:0:0:0:
320,192,122167,1,0,0:0:0:0:
64,192,122311,128,4,124031:0:0:0:0:
320,192,122311,1,2,0:0:0:0:
448,192,122311,1,0,0:0:0:0:
192,192,122454,1,0,0:0:0:0:
320,192,122597,1,0,0:0:0:70:Clap.wav
448,192,122597,1,0,0:0:0:0:
192,192,122741,1,0,0:0:0:0:
448,192,122884,1,0,0:0:0:0:
320,192,123027,1,0,0:0:0:0:
192,192,123171,1,0,0:0:0:70:Clap.wav
448,192,123171,1,0,0:0:0:0:
320,192,123314,1,0,0:0:0:0:
448,192,123457,1,0,0:0:0:0:
320,192,123601,1,0,0:0:0:0:
448,192,123744,1,0,0:0:0:70:Clap.wav
192,192,123744,1,0,0:0:0:0:
320,192,123887,1,0,0:0:0:0:
448,192,124031,128,0,124604:0:0:0:0:
192,192,124031,1,0,0:0:0:0:
320,192,124174,1,0,0:0:0:0:
192,192,124317,1,0,0:0:0:70:Clap.wav
64,192,124317,1,0,0:0:0:0:
320,192,124461,1,0,0:0:0:0:
192,192,124604,128,0,126324:0:0:0:0:
64,192,124604,1,0,0:0:0:0:
320,192,124747,1,0,0:0:0:0:
64,192,124891,1,0,0:0:0:70:Clap.wav
448,192,124891,1,0,0:0:0:0:
320,192,125034,1,0,0:0:0:0:
448,192,125177,1,0,0:0:0:0:
64,192,125321,1,0,0:0:0:0:
320,192,125464,1,0,0:0:0:70:Clap.wav
448,192,125464,1,0,0:0:0:0:
64,192,125607,1,0,0:0:0:0:
320,192,125751,1,0,0:0:0:0:
64,192,125894,1,0,0:0:0:0:
320,192,126037,1,0,0:0:0:70:Clap.wav
448,192,126037,1,0,0:0:0:0:
64,192,126181,1,0,0:0:0:0:
448,192,126324,128,0,126897:0:0:0:0:
320,192,126324,1,0,0:0:0:0:
192,192,126467,1,0,0:0:0:0:
320,192,126611,1,0,0:0:0:70:Clap.wav
64,192,126611,1,0,0:0:0:0:
192,192,126754,1,0,0:0:0:0:
320,192,126897,128,0,128617:0:0:0:0:
64,192,126897,1,0,0:0:0:0:
192,192,127041,1,0,0:0:0:0:
64,192,127184,1,0,0:0:0:70:Clap.wav
448,192,127184,1,0,0:0:0:0:
192,192,127327,1,0,0:0:0:0:
64,192,127471,1,0,0:0:0:0:
448,192,127614,1,0,0:0:0:0:
64,192,127757,1,0,0:0:0:70:Clap.wav
192,192,127757,1,0,0:0:0:0:
448,192,127901,1,0,0:0:0:0:
64,192,128044,1,0,0:0:0:0:
192,192,128187,1,0,0:0:0:0:
64,192,128331,1,0,0:0:0:70:Clap.wav
448,192,128331,1,0,0:0:0:0:
192,192,128474,1,0,0:0:0:0:
64,192,128617,128,0,129191:0:0:0:0:
448,192,128617,1,0,0:0:0:0:
192,192,128761,1,0,0:0:0:0:
448,192,128904,1,0,0:0:0:70:Clap.wav
320,192,128904,1,0,0:0:0:0:
192,192,129047,1,0,0:0:0:0:
320,192,129191,1,0,0:0:0:0:
448,192,129191,128,0,130337:0:0:0:0:
192,192,129334,1,0,0:0:0:0:
64,192,129477,1,0,0:0:0:70:Clap.wav
320,192,129477,1,0,0:0:0:0:
192,192,129621,1,0,0:0:0:0:
320,192,129764,1,0,0:0:0:0:
64,192,129907,1,0,0:0:0:0:
192,192,130051,1,0,0:0:0:70:Clap.wav
320,192,130051,1,0,0:0:0:0:
64,192,130194,1,0,0:0:0:0:
192,192,130337,1,4,0:0:0:0:
320,192,130337,1,0,0:0:0:0:
192,192,130481,1,0,0:0:0:0:
64,192,130624,1,4,0:0:0:0:
320,192,130624,1,0,0:0:0:0:
448,192,130624,1,0,0:0:0:0:
448,192,130767,1,0,0:0:0:0:
64,192,130911,1,4,0:0:0:0:
192,192,130911,1,0,0:0:0:0:
320,192,130911,1,0,0:0:0:0:
64,192,131054,1,0,0:0:0:0:
192,192,131197,1,4,0:0:0:0:
320,192,131197,1,0,0:0:0:0:
448,192,131197,1,0,0:0:0:0:
320,192,131341,1,0,0:0:0:0:
64,192,131484,1,4,0:0:0:0:
192,192,131484,128,2,131556:0:0:0:0:
448,192,131484,1,0,0:0:0:0:
192,192,131627,128,0,131699:0:0:0:0:
320,192,131771,128,0,132057:0:0:0:0:
448,192,131771,128,0,132057:0:0:0:0:
64,192,132057,128,0,132129:0:0:0:0:
64,192,132201,128,0,132272:0:0:0:70:LR_Snare Drum.wav
192,192,132344,128,0,132631:0:0:0:70:LR_Kick Beat Med Vfast.wav
320,192,132344,128,0,132631:0:0:0:0:
448,192,132631,128,0,132702:0:0:0:70:LR_Kick Beat Med Vfast.wav
448,192,132774,128,0,132846:0:0:0:0:
64,192,132917,128,0,133204:0:0:0:0:
192,192,132917,128,0,133204:0:0:0:0:
320,192,133204,128,0,133491:0:0:0:0:
448,192,133347,128,0,133634:0:0:0:70:LR_Snare Drum.wav
64,192,133491,128,0,133777:0:0:0:70:LR_Kick Beat Med Vfast.wav
192,192,133634,128,0,133777:0:0:0:70:LR_Snare Drum 2.wav
320,192,133777,128,0,133849:0:0:0:70:LR_Kick Beat Med Vfast.wav
320,192,133921,128,0,133992:0:0:0:0:
64,192,134064,128,0,134351:0:0:0:0:
192,192,134064,128,0,134351:0:0:0:0:
448,192,134351,128,0,134422:0:0:0:0:
448,192,134494,128,0,134566:0:0:0:70:LR_Snare Drum.wav
192,192,134637,128,0,134924:0:0:0:70:LR_Kick Beat Med Vfast.wav
320,192,134637,128,0,134924:0:0:0:0:
64,192,134924,1,0,0:0:0:70:LR_Kick Beat Med Vfast.wav
448,192,134924,128,0,135784:0:0:0:0:
320,192,135211,1,0,0:0:0:0:
64,192,135354,1,0,0:0:0:70:LR_Snare Drum 2.wav
320,192,135641,1,0,0:0:0:70:LR_Snare Drum.wav
64,192,135784,1,0,0:0:0:70:LR_Kick Beat Med Vfast.wav
192,192,135927,1,0,0:0:0:70:LR_Snare Drum 2.wav
320,192,136071,128,0,136142:0:0:0:70:LR_Kick Beat Med Vfast.wav
320,192,136214,128,0,136286:0:0:0:0:
64,192,136357,128,0,136644:0:0:0:0:
192,192,136357,128,0,136644:0:0:0:0:
448,192,136644,128,0,136716:0:0:0:0:
448,192,136787,128,0,136859:0:0:0:70:LR_Snare Drum.wav
192,192,136931,128,0,137217:0:0:0:70:LR_Kick Beat Med Vfast.wav
320,192,136931,128,0,137217:0:0:0:0:
64,192,137217,128,0,137289:0:0:0:70:LR_Kick Beat Med Vfast.wav
64,192,137361,128,0,137432:0:0:0:0:
320,192,137504,128,0,137791:0:0:0:0:
448,192,137504,128,0,137791:0:0:0:0:
64,192,137791,128,0,138077:0:0:0:0:
192,192,137934,128,0,138221:0:0:0:70:LR_Snare Drum.wav
448,192,138077,128,0,138364:0:0:0:70:LR_Kick Beat Med Vfast.wav
320,192,138221,128,0,138364:0:0:0:70:LR_Snare Drum 2.wav
64,192,138364,128,0,138436:0:0:0:70:LR_Kick Beat Med Vfast.wav
64,192,138507,128,0,138579:0:0:0:0:
192,192,138651,128,0,138937:0:0:0:0:
320,192,138651,128,0,138937:0:0:0:0:
448,192,138937,128,0,139009:0:0:0:0:
448,192,139081,128,0,139152:0:0:0:70:LR_Snare Drum.wav
64,192,139224,128,0,139511:0:0:0:70:LR_Kick Beat Med Vfast.wav
192,192,139224,128,0,139511:0:0:0:0:
320,192,139511,1,4,0:0:0:0:
448,192,139511,128,0,140657:0:0:0:0:
192,192,139797,1,4,0:0:0:0:
320,192,139797,1,0,0:0:0:0:
64,192,140084,1,4,0:0:0:0:
192,192,140084,1,0,0:0:0:0:
64,192,140371,1,4,0:0:0:0:
320,192,140371,1,0,0:0:0:0:
64,192,140657,128,4,140729:0:0:0:0:
320,192,140657,1,0,0:0:0:0:
192,192,140657,1,0,0:0:0:0:
64,192,140801,128,0,140872:0:0:0:0:
192,192,140944,128,0,141231:0:0:0:70:Clap.wav
320,192,140944,128,0,141231:0:0:0:0:
448,192,140944,1,0,0:0:0:0:
448,192,141231,128,0,141302:0:0:0:0:
448,192,141374,128,0,141446:0:0:0:70:LR_Snare Drum.wav
64,192,141517,1,0,0:0:0:70:Clap.wav
192,192,141517,128,0,141804:0:0:0:70:LR_Kick Beat Med Vfast.wav
320,192,141517,128,0,141804:0:0:0:0:
64,192,141804,128,0,141876:0:0:0:70:LR_Kick Beat Med Vfast.wav
448,192,141804,1,0,0:0:0:0:
64,192,141947,128,0,142019:0:0:0:0:
192,192,142091,1,0,0:0:0:70:Clap.wav
320,192,142091,128,0,142377:0:0:0:0:
448,192,142091,128,0,142377:0:0:0:0:
64,192,142377,128,0,142664:0:0:0:0:
192,192,142521,128,0,142807:0:0:0:70:LR_Snare Drum.wav
320,192,142664,128,0,142951:0:0:0:70:Clap.wav
448,192,142807,128,0,142951:0:0:0:70:LR_Snare Drum 2.wav
64,192,142951,128,0,143022:0:0:0:70:LR_Kick Beat Med Vfast.wav
64,192,143094,128,0,143166:0:0:0:0:
192,192,143237,1,0,0:0:0:70:Clap.wav
320,192,143237,128,0,143524:0:0:0:0:
448,192,143237,128,0,143524:0:0:0:0:
64,192,143524,128,0,143596:0:0:0:0:
64,192,143667,128,0,143739:0:0:0:70:LR_Snare Drum.wav
192,192,143811,128,0,144097:0:0:0:70:Clap.wav
320,192,143811,128,0,144097:0:0:0:70:LR_Kick Beat Med Vfast.wav
448,192,143811,1,0,0:0:0:0:
64,192,144097,1,0,0:0:0:70:LR_Kick Beat Med Vfast.wav
448,192,144097,128,0,145244:0:0:0:0:
64,192,144384,1,0,0:0:0:70:Clap.wav
320,192,144384,1,0,0:0:0:0:
192,192,144527,1,0,0:0:0:70:LR_Snare Drum 2.wav
320,192,144814,1,0,0:0:0:70:LR_Snare Drum.wav
64,192,144957,1,0,0:0:0:70:Clap.wav
192,192,144957,1,0,0:0:0:70:LR_Kick Beat Med Vfast.wav
64,192,145244,128,0,145316:0:0:0:70:LR_Kick Beat Med Vfast.wav
320,192,145244,1,0,0:0:0:0:
64,192,145387,128,0,145459:0:0:0:0:
192,192,145531,128,0,145817:0:0:0:70:Clap.wav
320,192,145531,128,0,145817:0:0:0:0:
448,192,145531,1,0,0:0:0:0:
448,192,145817,128,0,145889:0:0:0:0:
448,192,145961,128,0,146032:0:0:0:70:LR_Snare Drum.wav
64,192,146104,1,0,0:0:0:70:Clap.wav
192,192,146104,128,0,146391:0:0:0:70:LR_Kick Beat Med Vfast.wav
320,192,146104,128,0,146391:0:0:0:0:
64,192,146391,128,0,146462:0:0:0:70:LR_Kick Beat Med Vfast.wav
448,192,146391,1,0,0:0:0:0:
64,192,146534,128,0,146606:0:0:0:0:
192,192,146677,1,0,0:0:0:70:Clap.wav
320,192,146677,128,0,146964:0:0:0:0:
448,192,146677,128,0,146964:0:0:0:0:
64,192,146964,128,0,147251:0:0:0:0:
192,192,147107,128,0,147394:0:0:0:70:LR_Snare Drum.wav
448,192,147251,128,0,147537:0:0:0:70:Clap.wav
320,192,147394,128,0,147537:0:0:0:70:LR_Snare Drum 2.wav
64,192,147537,128,0,147609:0:0:0:70:LR_Kick Beat Med Vfast.wav
64,192,147681,128,0,147752:0:0:0:0:
192,192,147824,128,0,148111:0:0:0:70:Clap.wav
320,192,147824,128,0,148111:0:0:0:0:
448,192,147824,1,0,0:0:0:0:
448,192,148111,128,0,148182:0:0:0:0:
448,192,148254,128,0,148326:0:0:0:70:LR_Snare Drum.wav
64,192,148397,1,0,0:0:0:70:Clap.wav
192,192,148397,128,0,148684:0:0:0:70:LR_Kick Beat Med Vfast.wav
320,192,148397,128,0,148684:0:0:0:0:
64,192,148684,128,2,149831:0:0:0:0:
448,192,148684,1,4,0:0:0:0:
448,192,148971,1,4,0:0:0:0:
192,192,148971,1,0,0:0:0:0:
192,192,149257,1,4,0:0:0:0:
320,192,149257,1,0,0:0:0:0:
448,192,149544,1,4,0:0:0:0:
320,192,149544,1,0,0:0:0:0:
192,192,149831,1,2,0:0:0:0:
448,192,149831,1,4,0:0:0:0:
320,192,149974,1,0,0:0:0:0:
64,192,150117,1,8,0:0:0:0:
192,192,150117,1,0,0:0:0:0:
448,192,150117,1,0,0:0:0:0:
192,192,150261,1,2,0:0:0:0:
320,192,150261,1,0,0:0:0:0:
64,192,150404,1,0,0:0:0:0:
448,192,150547,1,2,0:0:0:0:
320,192,150619,1,0,0:0:0:0:
64,192,150691,1,2,0:0:0:0:
192,192,150691,1,8,0:0:0:0:
448,192,150691,1,0,0:0:0:0:
320,192,150834,1,0,0:0:0:0:
64,192,150978,1,2,0:0:0:0:
448,192,150978,1,0,0:0:0:0:
192,192,151121,1,0,0:0:0:0:
64,192,151264,1,8,0:0:0:0:
320,192,151264,1,0,0:0:0:0:
448,192,151264,1,0,0:0:0:0:
192,192,151408,1,2,0:0:0:0:
320,192,151408,1,0,0:0:0:0:
448,192,151551,1,0,0:0:0:0:
64,192,151694,1,2,0:0:0:0:
192,192,151694,1,0,0:0:0:0:
64,192,151838,1,8,0:0:0:0:
320,192,151838,1,2,0:0:0:0:
448,192,151838,1,0,0:0:0:0:
192,192,151981,1,0,0:0:0:0:
64,192,152124,1,2,0:0:0:0:
448,192,152124,1,0,0:0:0:0:
320,192,152268,1,0,0:0:0:0:
192,192,152339,1,0,0:0:0:0:
64,192,152411,1,8,0:0:0:0:
320,192,152411,1,0,0:0:0:0:
448,192,152411,1,0,0:0:0:0:
192,192,152554,1,2,0:0:0:0:
320,192,152554,1,0,0:0:0:0:
448,192,152698,1,0,0:0:0:0:
64,192,152841,1,2,0:0:0:0:
320,192,152841,1,0,0:0:0:0:
192,192,152984,128,2,153128:0:0:0:0:
448,192,152984,1,8,0:0:0:0:
64,192,153128,1,0,0:0:0:0:
320,192,153128,128,0,153271:0:0:0:0:
192,192,153271,1,2,0:0:0:0:
448,192,153271,128,0,153414:0:0:0:0:
320,192,153414,1,0,0:0:0:0:
64,192,153558,128,8,153701:0:0:0:0:
448,192,153558,1,0,0:0:0:0:
192,192,153558,1,0,0:0:0:0:
320,192,153701,1,2,0:0:0:0:
64,192,153844,1,0,0:0:0:0:
192,192,153844,128,0,153988:0:0:0:0:
448,192,153988,1,2,0:0:0:0:
64,192,154131,1,8,0:0:0:0:
192,192,154131,1,2,0:0:0:0:
320,192,154131,1,0,0:0:0:0:
448,192,154274,1,0,0:0:0:0:
320,192,154418,1,2,0:0:0:0:
192,192,154418,1,0,0:0:0:0:
64,192,154561,1,0,0:0:0:0:
192,192,154704,1,8,0:0:0:0:
320,192,154704,1,0,0:0:0:0:
448,192,154704,1,0,0:0:0:0:
64,192,154848,1,2,0:0:0:0:
320,192,154848,1,0,0:0:0:0:
448,192,154991,1,0,0:0:0:0:
192,192,155134,1,2,0:0:0:0:
320,192,155134,1,0,0:0:0:0:
64,192,155278,1,8,0:0:0:0:
192,192,155278,1,2,0:0:0:0:
448,192,155278,1,0,0:0:0:0:
320,192,155421,1,0,0:0:0:0:
64,192,155564,1,2,0:0:0:0:
448,192,155564,1,0,0:0:0:0:
192,192,155708,1,0,0:0:0:0:
64,192,155851,1,8,0:0:0:0:
320,192,155851,1,0,0:0:0:0:
448,192,155851,1,0,0:0:0:0:
64,192,155994,1,2,0:0:0:0:
192,192,155994,1,0,0:0:0:0:
448,192,156138,1,0,0:0:0:0:
64,192,156281,1,2,0:0:0:0:
320,192,156281,1,0,0:0:0:0:
64,192,156424,1,2,0:0:0:0:
192,192,156424,1,8,0:0:0:0:
448,192,156424,1,0,0:0:0:0:
320,192,156568,1,0,0:0:0:0:
64,192,156711,1,2,0:0:0:0:
448,192,156711,1,0,0:0:0:0:
192,192,156854,1,0,0:0:0:0:
64,192,156998,1,8,0:0:0:0:
320,192,156998,1,0,0:0:0:0:
448,192,156998,1,0,0:0:0:0:
192,192,157141,1,2,0:0:0:0:
320,192,157141,1,0,0:0:0:0:
64,192,157284,1,0,0:0:0:0:
192,192,157428,1,2,0:0:0:0:
448,192,157428,1,0,0:0:0:0:
64,192,157571,1,8,0:0:0:0:
320,192,157571,1,2,0:0:0:0:
448,192,157571,1,0,0:0:0:0:
192,192,157714,1,0,0:0:0:0:
64,192,157858,1,2,0:0:0:0:
448,192,157858,1,0,0:0:0:0:
320,192,158001,1,0,0:0:0:0:
64,192,158144,1,8,0:0:0:0:
192,192,158144,1,4,0:0:0:0:
448,192,158144,1,0,0:0:0:0:
64,192,158288,1,2,0:0:0:0:
320,192,158288,1,0,0:0:0:0:
192,192,158431,1,8,0:0:0:0:
320,192,158431,1,4,0:0:0:0:
448,192,158431,1,0,0:0:0:0:
64,192,158574,1,2,0:0:0:0:
448,192,158574,1,0,0:0:0:0:
64,192,158718,1,2,0:0:0:0:
192,192,158718,1,8,0:0:0:0:
320,192,158718,1,4,0:0:0:0:
192,192,158861,1,8,0:0:0:0:
320,192,158861,1,0,0:0:0:0:
448,192,158861,1,0,0:0:0:0:
64,192,159004,1,2,0:0:0:0:
192,192,159004,1,4,0:0:0:0:
320,192,159004,1,0,0:0:0:0:
448,192,159004,1,0,0:0:0:0:
64,192,159148,1,0,0:0:0:0:
192,192,159291,1,8,0:0:0:0:
320,192,159291,1,0,0:0:0:0:
448,192,159291,1,0,0:0:0:0:
64,192,159434,1,2,0:0:0:0:
320,192,159434,1,0,0:0:0:0:
192,192,159578,1,0,0:0:0:0:
448,192,159721,1,2,0:0:0:0:
320,192,159793,1,0,0:0:0:0:
64,192,159864,1,2,0:0:0:0:
192,192,159864,1,8,0:0:0:0:
448,192,159864,1,0,0:0:0:0:
320,192,160008,1,0,0:0:0:0:
64,192,160151,1,2,0:0:0:0:
448,192,160151,1,0,0:0:0:0:
192,192,160294,1,0,0:0:0:0:
64,192,160438,1,8,0:0:0:0:
320,192,160438,1,0,0:0:0:0:
448,192,160438,1,0,0:0:0:0:
192,192,160581,1,2,0:0:0:0:
320,192,160581,1,0,0:0:0:0:
64,192,160724,1,0,0:0:0:0:
320,192,160868,1,2,0:0:0:0:
448,192,160868,1,0,0:0:0:0:
64,192,161011,1,8,0:0:0:0:
192,192,161011,1,2,0:0:0:0:
448,192,161011,1,0,0:0:0:0:
320,192,161154,1,0,0:0:0:0:
64,192,161298,1,2,0:0:0:0:
448,192,161298,1,0,0:0:0:0:
192,192,161441,1,0,0:0:0:0:
320,192,161513,1,0,0:0:0:0:
64,192,161584,1,8,0:0:0:0:
192,192,161584,1,0,0:0:0:0:
448,192,161584,1,0,0:0:0:0:
320,192,161728,1,2,0:0:0:0:
448,192,161728,1,0,0:0:0:0:
192,192,161871,1,0,0:0:0:0:
448,192,162014,1,2,0:0:0:0:
64,192,162014,1,0,0:0:0:0:
320,192,162086,1,0,0:0:0:0:
448,192,162158,1,8,0:0:0:0:
192,192,162158,128,2,162301:0:0:0:0:
320,192,162301,128,0,162444:0:0:0:0:
64,192,162301,1,0,0:0:0:0:
192,192,162444,1,2,0:0:0:0:
448,192,162444,128,0,162588:0:0:0:0:
320,192,162588,1,0,0:0:0:0:
192,192,162731,128,8,162874:0:0:0:0:
448,192,162731,1,0,0:0:0:0:
64,192,162731,1,0,0:0:0:0:
320,192,162874,1,2,0:0:0:0:
448,192,163018,1,0,0:0:0:0:
64,192,163018,128,0,163161:0:0:0:0:
192,192,163161,1,2,0:0:0:0:
64,192,163304,1,8,0:0:0:0:
320,192,163304,1,2,0:0:0:0:
448,192,163304,1,0,0:0:0:0:
192,192,163448,1,0,0:0:0:0:
320,192,163591,1,2,0:0:0:0:
448,192,163591,1,0,0:0:0:0:
64,192,163734,1,0,0:0:0:0:
192,192,163878,1,8,0:0:0:0:
320,192,163878,1,0,0:0:0:0:
448,192,163878,1,0,0:0:0:0:
64,192,164021,1,2,0:0:0:0:
320,192,164021,1,0,0:0:0:0:
192,192,164164,1,0,0:0:0:0:
320,192,164308,1,2,0:0:0:0:
448,192,164308,1,0,0:0:0:0:
64,192,164451,1,8,0:0:0:0:
192,192,164451,1,2,0:0:0:0:
448,192,164451,1,0,0:0:0:0:
320,192,164594,1,0,0:0:0:0:
64,192,164738,1,2,0:0:0:0:
448,192,164738,1,0,0:0:0:0:
192,192,164881,1,0,0:0:0:0:
64,192,165024,1,8,0:0:0:0:
320,192,165024,1,0,0:0:0:0:
448,192,165024,1,0,0:0:0:0:
192,192,165168,1,2,0:0:0:0:
448,192,165168,1,0,0:0:0:0:
320,192,165311,1,0,0:0:0:0:
64,192,165454,1,2,0:0:0:0:
192,192,165454,1,0,0:0:0:0:
64,192,165598,1,2,0:0:0:0:
320,192,165598,1,8,0:0:0:0:
448,192,165598,1,0,0:0:0:0:
192,192,165741,1,0,0:0:0:0:
64,192,165884,1,2,0:0:0:0:
448,192,165884,1,0,0:0:0:0:
320,192,166028,1,0,0:0:0:0:
64,192,166171,1,8,0:0:0:0:
192,192,166171,1,0,0:0:0:0:
448,192,166171,1,0,0:0:0:0:
192,192,166314,1,2,0:0:0:0:
320,192,166314,1,0,0:0:0:0:
448,192,166458,1,0,0:0:0:0:
64,192,166601,1,2,0:0:0:0:
320,192,166601,1,0,0:0:0:0:
192,192,166744,1,8,0:0:0:0:
320,192,166744,1,2,0:0:0:0:
448,192,166744,1,0,0:0:0:0:
64,192,166888,1,0,0:0:0:0:
192,192,167031,1,2,0:0:0:0:
448,192,167031,1,0,0:0:0:0:
320,192,167174,1,0,0:0:0:0:
64,192,167318,1,8,0:0:0:0:
192,192,167318,1,0,0:0:0:0:
448,192,167318,1,0,0:0:0:0:
192,192,167461,1,2,0:0:0:0:
320,192,167461,1,0,0:0:0:0:
64,192,167604,1,0,0:0:0:0:
448,192,167604,128,0,167891:0:0:0:0:
192,192,167748,1,2,0:0:0:0:
64,192,167891,128,8,168178:0:0:0:0:
320,192,167891,1,0,0:0:0:0:
192,192,168034,1,0,0:0:0:0:
320,192,168178,1,2,0:0:0:0:
448,192,168178,1,4,0:0:0:0:
320,192,168321,1,2,0:0:0:0:
448,192,168321,1,0,0:0:0:0:
64,192,168464,1,2,0:0:0:0:
192,192,168464,1,0,0:0:0:0:
64,192,168608,1,2,0:0:0:0:
192,192,168608,1,0,0:0:0:0:
64,192,169324,1,2,0:0:0:0:
192,192,169324,1,4,0:0:0:0:
320,192,169396,1,2,0:0:0:0:
448,192,169396,1,0,0:0:0:0:
64,192,169468,1,2,0:0:0:0:
192,192,169468,1,0,0:0:0:0:
320,192,169539,1,2,0:0:0:0:
448,192,169539,1,0,0:0:0:0:
64,192,169611,1,2,0:0:0:0:
192,192,169611,1,4,0:0:0:0:
320,192,169683,1,2,0:0:0:0:
448,192,169683,1,0,0:0:0:0:
64,192,169754,1,2,0:0:0:0:
192,192,169754,1,0,0:0:0:0:
320,192,169826,1,2,0:0:0:0:
448,192,169826,1,0,0:0:0:0:
64,192,169898,1,2,0:0:0:0:
192,192,169898,1,4,0:0:0:0:
320,192,169934,1,2,0:0:0:0:
448,192,169969,1,2,0:0:0:0:
64,192,170005,1,2,0:0:0:0:
192,192,170041,1,2,0:0:0:0:
320,192,170077,1,2,0:0:0:0:
448,192,170113,1,0,0:0:0:0:
64,192,170149,1,2,0:0:0:0:
192,192,170184,1,6,0:0:0:0:
448,192,170220,1,2,0:0:0:0:
320,192,170256,1,2,0:0:0:0:
64,192,170292,1,2,0:0:0:0:
192,192,170328,1,2,0:0:0:0:
448,192,170364,1,2,0:0:0:0:
320,192,170399,1,2,0:0:0:0:
192,192,170435,1,2,0:0:0:0:
64,192,170471,128,2,170614:0:0:0:0:
448,192,170471,1,4,0:0:0:0:
320,192,170614,1,0,0:0:0:0:
64,192,170758,1,8,0:0:0:0:
192,192,170758,1,0,0:0:0:0:
448,192,170758,128,0,170901:0:0:0:0:
320,192,170901,1,2,0:0:0:0:
192,192,171044,128,0,171188:0:0:0:0:
448,192,171044,1,0,0:0:0:0:
64,192,171188,1,2,0:0:0:0:
192,192,171331,1,2,0:0:0:0:
320,192,171331,1,8,0:0:0:0:
448,192,171331,1,0,0:0:0:0:
64,192,171474,1,0,0:0:0:0:
320,192,171618,1,2,0:0:0:0:
448,192,171618,128,0,171904:0:0:0:0:
192,192,171761,1,0,0:0:0:0:
64,192,171904,1,8,0:0:0:0:
320,192,171904,1,0,0:0:0:0:
192,192,172048,1,2,0:0:0:0:
448,192,172048,1,0,0:0:0:0:
320,192,172191,1,0,0:0:0:0:
64,192,172263,128,0,172334:0:0:0:0:
192,192,172334,128,2,172406:0:0:0:0:
320,192,172406,128,0,172478:0:0:0:0:
64,192,172478,1,8,0:0:0:0:
448,192,172478,128,2,172549:0:0:0:0:
192,192,172621,1,0,0:0:0:0:
64,192,172764,128,2,172908:0:0:0:0:
448,192,172764,1,0,0:0:0:0:
192,192,172908,1,0,0:0:0:0:
64,192,173051,1,8,0:0:0:0:
320,192,173051,128,0,173194:0:0:0:0:
448,192,173051,1,0,0:0:0:0:
192,192,173194,1,2,0:0:0:0:
320,192,173338,1,0,0:0:0:0:
448,192,173338,128,0,173481:0:0:0:0:
192,192,173481,1,2,0:0:0:0:
64,192,173624,1,2,0:0:0:0:
320,192,173624,1,8,0:0:0:0:
448,192,173624,1,0,0:0:0:0:
192,192,173768,1,0,0:0:0:0:
64,192,173911,128,2,174198:0:0:0:0:
448,192,173911,1,0,0:0:0:0:
320,192,174054,1,0,0:0:0:0:
192,192,174198,1,8,0:0:0:0:
448,192,174198,1,0,0:0:0:0:
64,192,174341,1,2,0:0:0:0:
320,192,174341,1,0,0:0:0:0:
192,192,174484,1,0,0:0:0:0:
448,192,174556,128,0,174628:0:0:0:0:
320,192,174628,128,2,174699:0:0:0:0:
192,192,174699,128,0,174771:0:0:0:0:
64,192,174771,128,8,174843:0:0:0:0:
448,192,174771,1,2,0:0:0:0:
320,192,174914,1,0,0:0:0:0:
64,192,175058,1,2,0:0:0:0:
192,192,175058,128,0,175344:0:0:0:0:
448,192,175201,1,0,0:0:0:0:
64,192,175344,1,8,0:0:0:0:
320,192,175344,1,0,0:0:0:0:
448,192,175344,128,0,175631:0:0:0:0:
192,192,175488,1,2,0:0:0:0:
64,192,175631,128,0,175918:0:0:0:0:
320,192,175631,1,0,0:0:0:0:
192,192,175774,1,2,0:0:0:0:
192,192,175918,128,8,176204:0:0:0:0:
320,192,175918,1,2,0:0:0:0:
448,192,175918,1,0,0:0:0:0:
448,192,176061,1,0,0:0:0:0:
64,192,176204,1,2,0:0:0:0:
320,192,176204,128,0,176491:0:0:0:0:
448,192,176348,1,0,0:0:0:0:
64,192,176491,1,8,0:0:0:0:
192,192,176491,1,0,0:0:0:0:
448,192,176491,128,0,176778:0:0:0:0:
320,192,176634,1,2,0:0:0:0:
64,192,176778,128,0,177064:0:0:0:0:
192,192,176778,1,0,0:0:0:0:
320,192,176921,1,2,0:0:0:0:
192,192,177064,1,2,0:0:0:0:
320,192,177064,128,8,177351:0:0:0:0:
448,192,177064,1,0,0:0:0:0:
64,192,177208,1,0,0:0:0:0:
192,192,177351,128,2,177638:0:0:0:0:
448,192,177351,1,0,0:0:0:0:
320,192,177494,1,0,0:0:0:0:
64,192,177638,1,8,0:0:0:0:
448,192,177638,1,0,0:0:0:0:
192,192,177781,128,2,178354:0:0:0:0:
320,192,177781,1,0,0:0:0:0:
64,192,177924,1,0,0:0:0:0:
320,192,178068,1,2,0:0:0:0:
64,192,178211,1,8,0:0:0:0:
448,192,178211,1,2,0:0:0:0:
320,192,178354,128,0,178426:0:0:0:0:
448,192,178426,128,0,178498:0:0:0:0:
192,192,178498,1,2,0:0:0:0:
64,192,178498,128,0,178784:0:0:0:0:
320,192,178641,1,0,0:0:0:0:
192,192,178784,1,8,0:0:0:0:
320,192,178784,1,0,0:0:0:0:
448,192,178784,1,0,0:0:0:0:
448,192,178928,1,2,0:0:0:0:
64,192,178928,1,0,0:0:0:0:
64,192,179071,1,8,0:0:0:0:
192,192,179071,1,0,0:0:0:0:
320,192,179071,1,0,0:0:0:0:
192,192,179214,1,2,0:0:0:0:
448,192,179214,1,0,0:0:0:0:
64,192,179358,1,2,0:0:0:0:
320,192,179358,1,8,0:0:0:0:
448,192,179358,1,0,0:0:0:0:
64,192,179501,1,8,0:0:0:0:
320,192,179501,1,0,0:0:0:0:
448,192,179501,1,0,0:0:0:0:
64,192,179644,1,2,0:0:0:0:
192,192,179644,1,4,0:0:0:0:
448,192,179644,128,0,179788:0:0:0:0:
320,192,179788,1,0,0:0:0:0:
64,192,179931,128,8,180074:0:0:0:0:
192,192,179931,1,0,0:0:0:0:
448,192,179931,1,0,0:0:0:0:
320,192,180074,1,2,0:0:0:0:
64,192,180218,1,0,0:0:0:0:
192,192,180218,128,0,180361:0:0:0:0:
448,192,180361,1,2,0:0:0:0:
64,192,180504,1,2,0:0:0:0:
192,192,180504,1,8,0:0:0:0:
320,192,180504,1,0,0:0:0:0:
448,192,180648,1,0,0:0:0:0:
64,192,180791,128,2,181078:0:0:0:0:
192,192,180791,1,0,0:0:0:0:
320,192,180935,1,0,0:0:0:0:
192,192,181078,128,8,181365:0:0:0:0:
448,192,181078,1,0,0:0:0:0:
320,192,181221,1,2,0:0:0:0:
64,192,181365,1,0,0:0:0:0:
448,192,181436,128,0,181508:0:0:0:0:
320,192,181508,128,2,181580:0:0:0:0:
192,192,181580,128,0,181651:0:0:0:0:
64,192,181651,128,8,181723:0:0:0:0:
448,192,181651,1,2,0:0:0:0:
320,192,181795,1,0,0:0:0:0:
64,192,181938,1,2,0:0:0:0:
448,192,181938,128,0,182081:0:0:0:0:
320,192,182081,1,0,0:0:0:0:
64,192,182225,1,8,0:0:0:0:
192,192,182225,128,0,182368:0:0:0:0:
448,192,182225,1,0,0:0:0:0:
320,192,182368,1,2,0:0:0:0:
64,192,182511,128,0,182655:0:0:0:0:
192,192,182511,1,0,0:0:0:0:
320,192,182655,1,2,0:0:0:0:
64,192,182798,1,2,0:0:0:0:
192,192,182798,1,8,0:0:0:0:
448,192,182798,1,0,0:0:0:0:
320,192,182941,1,0,0:0:0:0:
64,192,183085,1,2,0:0:0:0:
448,192,183085,128,0,183371:0:0:0:0:
192,192,183228,1,0,0:0:0:0:
64,192,183371,1,8,0:0:0:0:
320,192,183371,1,0,0:0:0:0:
192,192,183515,1,2,0:0:0:0:
448,192,183515,1,0,0:0:0:0:
320,192,183658,1,0,0:0:0:0:
64,192,183730,128,0,183801:0:0:0:0:
192,192,183801,128,2,183873:0:0:0:0:
320,192,183873,128,0,183945:0:0:0:0:
64,192,183945,1,8,0:0:0:0:
448,192,183945,128,2,184016:0:0:0:0:
320,192,184088,1,0,0:0:0:0:
64,192,184231,1,2,0:0:0:0:
192,192,184231,128,0,184518:0:0:0:0:
448,192,184375,1,0,0:0:0:0:
64,192,184518,1,8,0:0:0:0:
320,192,184518,1,0,0:0:0:0:
448,192,184518,128,0,184805:0:0:0:0:
192,192,184661,1,2,0:0:0:0:
64,192,184805,128,0,185091:0:0:0:0:
320,192,184805,1,0,0:0:0:0:
192,192,184948,1,2,0:0:0:0:
320,192,185091,1,8,0:0:0:0:
448,192,185091,1,2,0:0:0:0:
64,192,185235,1,0,0:0:0:0:
192,192,185378,128,2,185665:0:0:0:0:
320,192,185378,1,0,0:0:0:0:
448,192,185521,1,0,0:0:0:0:
64,192,185665,1,8,0:0:0:0:
320,192,185665,1,0,0:0:0:0:
448,192,185665,128,0,185951:0:0:0:0:
320,192,185808,1,2,0:0:0:0:
64,192,185951,128,0,186238:0:0:0:0:
192,192,185951,1,0,0:0:0:0:
320,192,186095,1,2,0:0:0:0:
448,192,186238,1,2,0:0:0:0:
320,192,186238,128,8,186525:0:0:0:0:
192,192,186238,1,0,0:0:0:0:
64,192,186381,1,0,0:0:0:0:
192,192,186525,128,2,186811:0:0:0:0:
448,192,186525,1,0,0:0:0:0:
64,192,186668,1,0,0:0:0:0:
448,192,186811,1,8,0:0:0:0:
320,192,186811,1,0,0:0:0:0:
192,192,186955,1,2,0:0:0:0:
320,192,186955,128,0,187671:0:0:0:0:
64,192,187098,1,0,0:0:0:0:
448,192,187241,1,2,0:0:0:0:
64,192,187385,1,8,0:0:0:0:
192,192,187385,1,2,0:0:0:0:
448,192,187528,1,0,0:0:0:0:
64,192,187671,1,2,0:0:0:0:
192,192,187671,1,4,0:0:0:0:
64,192,187958,1,2,0:0:0:0:
192,192,187958,1,4,0:0:0:0:
448,192,187958,1,8,0:0:0:0:
64,192,188245,1,4,0:0:0:0:
320,192,188245,1,2,0:0:0:0:
448,192,188245,1,0,0:0:0:0:
64,192,188388,1,2,0:0:0:0:
192,192,188388,1,0,0:0:0:0:
320,192,188460,1,2,0:0:0:0:
448,192,188460,1,0,0:0:0:0:
64,192,188531,1,6,0:0:0:0:
192,192,188531,1,8,0:0:0:0:
448,192,188675,1,2,0:0:0:0:
320,192,188675,1,0,0:0:0:0:
64,192,188818,1,4,0:0:0:0:
192,192,188818,1,2,0:0:0:0:
320,192,188818,1,0,0:0:0:0:
448,192,188818,1,0,0:0:0:0:
192,192,188961,1,0,0:0:0:0:
64,192,189105,1,8,0:0:0:0:
320,192,189105,1,0,0:0:0:0:
448,192,189105,1,0,0:0:0:0:
192,192,189248,1,2,0:0:0:0:
320,192,189248,1,0,0:0:0:0:
64,192,189391,1,0,0:0:0:0:
320,192,189535,1,2,0:0:0:0:
448,192,189535,1,0,0:0:0:0:
64,192,189678,1,8,0:0:0:0:
192,192,189678,1,2,0:0:0:0:
448,192,189678,1,0,0:0:0:0:
192,192,189821,1,0,0:0:0:0:
320,192,189821,1,0,0:0:0:0:
64,192,189965,1,2,0:0:0:0:
448,192,189965,1,0,0:0:0:0:
192,192,190108,1,0,0:0:0:0:
64,192,190251,1,8,0:0:0:0:
320,192,190251,1,0,0:0:0:0:
448,192,190251,1,0,0:0:0:0:
64,192,190395,1,2,0:0:0:0:
192,192,190395,1,0,0:0:0:0:
320,192,190538,1,0,0:0:0:0:
192,192,190681,1,0,0:0:0:0:
448,192,190681,1,2,0:0:0:0:
64,192,190825,1,2,0:0:0:0:
192,192,190825,1,8,0:0:0:0:
320,192,190825,1,0,0:0:0:0:
448,192,190968,1,0,0:0:0:0:
64,192,191111,1,2,0:0:0:0:
320,192,191111,1,0,0:0:0:0:
192,192,191255,1,0,0:0:0:0:
64,192,191398,1,8,0:0:0:0:
320,192,191398,1,0,0:0:0:0:
448,192,191398,1,0,0:0:0:0:
192,192,191541,1,2,0:0:0:0:
320,192,191541,1,0,0:0:0:0:
448,192,191685,1,0,0:0:0:0:
64,192,191828,1,2,0:0:0:0:
192,192,191828,1,0,0:0:0:0:
320,192,191971,1,8,0:0:0:0:
448,192,191971,1,2,0:0:0:0:
64,192,191971,1,0,0:0:0:0:
192,192,192115,1,0,0:0:0:0:
320,192,192115,1,0,0:0:0:0:
64,192,192258,1,2,0:0:0:0:
448,192,192258,1,0,0:0:0:0:
192,192,192401,1,0,0:0:0:0:
64,192,192545,1,8,0:0:0:0:
320,192,192545,1,0,0:0:0:0:
448,192,192545,1,0,0:0:0:0:
448,192,192688,1,2,0:0:0:0:
192,192,192688,1,0,0:0:0:0:
320,192,192831,1,0,0:0:0:0:
64,192,192975,1,0,0:0:0:0:
192,192,192975,1,2,0:0:0:0:
64,192,193118,1,2,0:0:0:0:
320,192,193118,1,8,0:0:0:0:
448,192,193118,1,0,0:0:0:0:
192,192,193261,1,0,0:0:0:0:
64,192,193405,1,2,0:0:0:0:
448,192,193405,1,0,0:0:0:0:
320,192,193548,1,0,0:0:0:0:
64,192,193691,1,8,0:0:0:0:
192,192,193691,1,0,0:0:0:0:
448,192,193691,1,0,0:0:0:0:
192,192,193835,1,2,0:0:0:0:
320,192,193835,1,0,0:0:0:0:
64,192,193978,1,0,0:0:0:0:
320,192,194121,1,2,0:0:0:0:
448,192,194121,1,0,0:0:0:0:
64,192,194265,1,2,0:0:0:0:
192,192,194265,1,8,0:0:0:0:
448,192,194265,1,0,0:0:0:0:
192,192,194408,1,0,0:0:0:0:
320,192,194408,1,0,0:0:0:0:
64,192,194551,1,2,0:0:0:0:
448,192,194551,1,0,0:0:0:0:
192,192,194695,1,0,0:0:0:0:
64,192,194838,1,8,0:0:0:0:
320,192,194838,1,0,0:0:0:0:
448,192,194838,1,0,0:0:0:0:
320,192,194981,1,2,0:0:0:0:
192,192,194981,1,0,0:0:0:0:
448,192,195125,1,0,0:0:0:0:
64,192,195268,1,0,0:0:0:0:
192,192,195268,1,2,0:0:0:0:
64,192,195411,1,8,0:0:0:0:
320,192,195411,1,2,0:0:0:0:
448,192,195411,1,0,0:0:0:0:
192,192,195555,1,0,0:0:0:0:
448,192,195698,1,2,0:0:0:0:
64,192,195698,1,0,0:0:0:0:
320,192,195841,1,0,0:0:0:0:
64,192,195985,1,8,0:0:0:0:
192,192,195985,1,0,0:0:0:0:
448,192,195985,1,0,0:0:0:0:
192,192,196128,1,2,0:0:0:0:
320,192,196128,1,0,0:0:0:0:
448,192,196271,1,0,0:0:0:0:
64,192,196415,1,2,0:0:0:0:
192,192,196415,1,0,0:0:0:0:
320,192,196558,1,2,0:0:0:0:
448,192,196558,1,8,0:0:0:0:
64,192,196558,1,0,0:0:0:0:
192,192,196701,1,0,0:0:0:0:
320,192,196701,1,0,0:0:0:0:
64,192,196845,1,2,0:0:0:0:
448,192,196845,1,0,0:0:0:0:
192,192,196988,1,0,0:0:0:0:
64,192,197131,1,8,0:0:0:0:
320,192,197131,1,0,0:0:0:0:
448,192,197131,1,0,0:0:0:0:
192,192,197275,1,2,0:0:0:0:
448,192,197275,1,0,0:0:0:0:
320,192,197418,1,0,0:0:0:0:
64,192,197418,1,8,0:0:0:0:
192,192,197418,1,0,0:0:0:0:
448,192,197561,1,0,0:0:0:0:
320,192,197561,1,2,0:0:0:0:
192,192,197705,1,8,0:0:0:0:
448,192,197705,1,2,0:0:0:0:
64,192,197705,1,0,0:0:0:0:
320,192,197848,1,8,0:0:0:0:
448,192,197848,1,0,0:0:0:0:
64,192,197848,1,0,0:0:0:0:
64,192,197991,128,4,199711:0:0:0:0:
320,192,197991,1,2,0:0:0:0:
192,192,197991,1,0,0:0:0:0:
448,192,198135,1,0,0:0:0:0:
192,192,198278,1,8,0:0:0:0:
320,192,198278,1,0,0:0:0:0:
448,192,198421,1,2,0:0:0:0:
192,192,198565,1,0,0:0:0:0:
320,192,198708,1,2,0:0:0:0:
192,192,198851,1,8,0:0:0:0:
448,192,198851,1,2,0:0:0:0:
320,192,198995,1,0,0:0:0:0:
448,192,199138,1,2,0:0:0:0:
192,192,199281,1,0,0:0:0:0:
320,192,199425,1,8,0:0:0:0:
448,192,199425,1,0,0:0:0:0:
192,192,199568,1,2,0:0:0:0:
320,192,199711,1,0,0:0:0:0:
448,192,199711,128,0,200285:0:0:0:0:
64,192,199855,1,2,0:0:0:0:
192,192,199998,1,2,0:0:0:0:
320,192,199998,1,8,0:0:0:0:
64,192,200141,1,0,0:0:0:0:
320,192,200285,128,2,202005:0:0:0:0:
192,192,200285,1,0,0:0:0:0:
64,192,200428,1,0,0:0:0:0:
192,192,200571,1,8,0:0:0:0:
448,192,200571,1,0,0:0:0:0:
64,192,200715,1,2,0:0:0:0:
192,192,200858,1,0,0:0:0:0:
448,192,201001,1,2,0:0:0:0:
64,192,201145,1,8,0:0:0:0:
192,192,201145,1,2,0:0:0:0:
448,192,201288,1,0,0:0:0:0:
64,192,201431,1,2,0:0:0:0:
192,192,201575,1,0,0:0:0:0:
64,192,201718,1,8,0:0:0:0:
448,192,201718,1,0,0:0:0:0:
192,192,201861,1,2,0:0:0:0:
448,192,202005,1,0,0:0:0:0:
64,192,202005,128,0,202578:0:0:0:0:
192,192,202148,1,2,0:0:0:0:
320,192,202291,1,2,0:0:0:0:
448,192,202291,1,8,0:0:0:0:
192,192,202435,1,0,0:0:0:0:
320,192,202578,1,2,0:0:0:0:
448,192,202578,128,0,204298:0:0:0:0:
192,192,202721,1,0,0:0:0:0:
64,192,202865,1,8,0:0:0:0:
320,192,202865,1,0,0:0:0:0:
192,192,203008,1,2,0:0:0:0:
64,192,203151,1,0,0:0:0:0:
320,192,203295,1,2,0:0:0:0:
64,192,203438,1,2,0:0:0:0:
192,192,203438,1,8,0:0:0:0:
320,192,203581,1,0,0:0:0:0:
192,192,203725,1,2,0:0:0:0:
64,192,203868,1,0,0:0:0:0:
192,192,204011,1,8,0:0:0:0:
320,192,204011,1,0,0:0:0:0:
64,192,204155,1,2,0:0:0:0:
192,192,204298,128,0,204871:0:0:0:0:
320,192,204298,1,0,0:0:0:0:
448,192,204441,1,2,0:0:0:0:
64,192,204585,1,8,0:0:0:0:
320,192,204585,1,2,0:0:0:0:
448,192,204728,1,0,0:0:0:0:
64,192,204871,128,2,206018:0:0:0:0:
320,192,204871,1,0,0:0:0:0:
448,192,205015,1,0,0:0:0:0:
192,192,205158,1,8,0:0:0:0:
320,192,205158,1,0,0:0:0:0:
448,192,205301,1,2,0:0:0:0:
192,192,205445,1,0,0:0:0:0:
320,192,205588,1,2,0:0:0:0:
192,192,205731,1,2,0:0:0:0:
448,192,205731,1,8,0:0:0:0:
320,192,205875,1,0,0:0:0:0:
192,192,206018,1,2,0:0:0:0:
448,192,206018,1,4,0:0:0:0:
64,192,206305,1,8,0:0:0:0:
320,192,206305,1,4,0:0:0:0:
448,192,206305,1,2,0:0:0:0:
192,192,206591,1,2,0:0:0:0:
320,192,206591,1,4,0:0:0:0:
448,192,206591,1,0,0:0:0:0:
64,192,206735,1,2,0:0:0:0:
448,192,206735,1,0,0:0:0:0:
192,192,206806,1,2,0:0:0:0:
320,192,206806,1,0,0:0:0:0:
64,192,206878,1,12,0:0:0:0:
448,192,206878,1,2,0:0:0:0:
192,192,207021,1,2,0:0:0:0:
320,192,207021,1,0,0:0:0:0:
320,192,207165,1,4,0:0:0:0:
448,192,207165,1,0,0:0:0:0:
64,192,207165,1,0,0:0:0:0:
192,192,207308,1,0,0:0:0:0:
64,192,207451,1,0,0:0:0:70:Clap.wav
448,192,207451,1,0,0:0:0:0:
320,192,207595,1,0,0:0:0:0:
192,192,207738,1,0,0:0:0:0:
320,192,207881,1,0,0:0:0:0:
64,192,208025,1,0,0:0:0:70:Clap.wav
448,192,208025,1,0,0:0:0:0:
192,192,208168,1,0,0:0:0:0:
320,192,208311,1,0,0:0:0:0:
192,192,208455,1,0,0:0:0:0:
64,192,208598,1,0,0:0:0:70:Clap.wav
448,192,208598,1,0,0:0:0:0:
320,192,208741,1,0,0:0:0:0:
192,192,208885,1,0,0:0:0:0:
320,192,209028,1,0,0:0:0:0:
64,192,209171,1,0,0:0:0:70:Clap.wav
448,192,209171,1,0,0:0:0:0:
192,192,209315,1,0,0:0:0:0:
320,192,209458,1,0,0:0:0:0:
192,192,209601,1,0,0:0:0:0:
64,192,209745,1,0,0:0:0:70:Clap.wav
448,192,209745,1,0,0:0:0:0:
320,192,209888,1,0,0:0:0:0:
192,192,210031,1,0,0:0:0:0:
320,192,210175,1,0,0:0:0:0:
64,192,210318,1,0,0:0:0:70:Clap.wav
448,192,210318,1,0,0:0:0:0:
192,192,210461,1,0,0:0:0:0:
320,192,210605,1,0,0:0:0:0:
192,192,210748,1,0,0:0:0:0:
64,192,210892,1,0,0:0:0:70:Clap.wav
448,192,210892,1,0,0:0:0:0:
320,192,211035,1,0,0:0:0:0:
192,192,211178,1,0,0:0:0:0:
320,192,211322,1,0,0:0:0:0:
64,192,211465,1,0,0:0:0:70:Clap.wav
448,192,211465,1,0,0:0:0:0:
192,192,211608,1,0,0:0:0:0:
320,192,211752,1,0,0:0:0:0:
192,192,211895,1,0,0:0:0:0:
64,192,212038,1,0,0:0:0:70:Clap.wav
448,192,212038,1,0,0:0:0:0:
320,192,212182,1,0,0:0:0:0:
192,192,212325,1,0,0:0:0:0:
320,192,212468,1,0,0:0:0:0:
64,192,212612,1,0,0:0:0:70:Clap.wav
448,192,212612,1,0,0:0:0:0:
192,192,212755,1,0,0:0:0:0:
320,192,212898,1,0,0:0:0:0:
192,192,213042,1,0,0:0:0:0:
64,192,213185,1,0,0:0:0:70:Clap.wav
448,192,213185,1,0,0:0:0:0:
320,192,213328,1,0,0:0:0:0:
192,192,213472,1,0,0:0:0:0:
320,192,213615,1,0,0:0:0:0:
64,192,213758,1,0,0:0:0:70:Clap.wav
448,192,213758,1,0,0:0:0:0:
192,192,213902,1,0,0:0:0:0:
320,192,214045,1,0,0:0:0:0:
192,192,214188,1,0,0:0:0:0:
64,192,214332,1,0,0:0:0:70:Clap.wav
448,192,214332,1,0,0:0:0:0:
320,192,214475,1,0,0:0:0:0:
192,192,214618,1,0,0:0:0:0:
320,192,214762,1,0,0:0:0:0:
64,192,214905,1,0,0:0:0:70:Clap.wav
448,192,214905,1,0,0:0:0:0:
192,192,215048,1,0,0:0:0:0:
320,192,215192,1,0,0:0:0:0:
192,192,215335,1,0,0:0:0:0:
64,192,215478,1,0,0:0:0:70:Clap.wav
448,192,215478,1,0,0:0:0:0:
320,192,215622,1,0,0:0:0:0:
192,192,215765,1,0,0:0:0:0:
320,192,215908,1,0,0:0:0:0:
64,192,216052,1,0,0:0:0:70:Clap.wav
448,192,216052,1,0,0:0:0:0:
192,192,216195,1,0,0:0:0:0:
320,192,216338,1,4,0:0:0:0:
64,192,216338,1,0,0:0:0:0:
448,192,216338,1,0,0:0:0:0:
