osu file format v14

[General]
AudioFilename: audio.mp3
AudioLeadIn: 0
PreviewTime: 131
Countdown: 0
SampleSet: Soft
StackLeniency: 0.6
Mode: 0
LetterboxInBreaks: 0
WidescreenStoryboard: 1

[Editor]
DistanceSpacing: 1.2
BeatDivisor: 4
GridSize: 4
TimelineZoom: 1

[Metadata]
Title:Partner no Thema Orgel
TitleUnicode:パートナーのテーマ オルゴール
Artist:Keisuke Ito, Yasuhiro Kawagoe, Noriko Murakami
ArtistUnicode:いとうけいすけ、川越康弘、村上徳子
Creator:fieryrage
Version:hobbes2's easy
Source:ポケモン超不思議のダンジョン
Tags:pokemon pokémon super mystery dungeon partner's theme music box pocket monsters nintendo the company game freak 3ds hobbes2 polkamocha
BeatmapID:1230701
BeatmapSetID:566584

[Difficulty]
HPDrainRate:3
CircleSize:2.9
OverallDifficulty:3
ApproachRate:4
SliderMultiplier:1.4
SliderTickRate:2

[Events]
//Background and Video events
0,0,"dasffdss.png",0,0
//Break Periods
2,47708,49481
2,97465,98872
//Storyboard Layer 0 (Background)
//Storyboard Layer 1 (Fail)
//Storyboard Layer 2 (Pass)
//Storyboard Layer 3 (Foreground)
//Storyboard Sound Samples

[TimingPoints]
680,731.707317073171,4,2,1,25,1,0
3606,-100,4,2,1,15,0,0
6167,-100,4,2,1,25,0,0
10558,-100,4,2,1,15,0,0
11655,-100,4,2,1,25,0,0
14033,-100,4,2,1,25,0,0
14948,-100,4,2,1,25,0,0
17143,-100,4,2,1,15,0,0
17875,-100,4,2,1,25,0,0
19887,-100,4,2,1,5,0,0
20253,-100,4,2,1,25,0,0
20436,-100,4,2,1,5,0,0
20801,-100,4,2,1,25,0,0
22631,-100,4,2,1,5,0,0
23728,-100,4,2,1,25,0,0
33972,-100,4,2,1,15,0,0
35070,-100,4,2,1,25,0,0
41838,-100,4,2,1,25,0,0
42204,-100,4,2,1,25,0,0
43301,-100,4,2,1,25,0,0
43667,-100,4,2,1,25,0,0
56472,-100,4,2,1,5,0,0
57021,-100,4,2,1,15,0,0
57204,-100,4,2,1,5,0,0
57753,-100,4,2,1,20,0,0
57936,-100,4,2,1,20,0,0
58301,-100,4,2,1,20,0,0
58484,-100,4,2,1,5,0,0
58850,-100,4,2,1,15,0,0
59216,-100,4,2,1,25,0,0
61045,-100,4,2,1,15,0,0
62509,-100,4,2,1,25,0,0
68180,-100,4,2,1,5,0,0
68728,-100,4,2,1,15,0,0
68911,-100,4,2,1,5,0,0
69460,-100,4,2,1,20,0,0
69643,-100,4,2,1,20,0,0
70009,-100,4,2,1,20,0,0
70192,-100,4,2,1,5,0,0
70558,-100,4,2,1,25,0,0
72753,-100,4,2,1,15,0,0
75314,-100,4,2,1,25,0,0
75497,-100,4,2,1,25,0,0
75862,-100,4,2,1,25,0,0
76045,-100,4,2,1,25,0,0
76411,-100,4,2,1,25,0,0
76960,-100,4,2,1,5,0,0
77326,-100,4,2,1,25,0,0
77509,-100,4,2,1,5,0,0
77875,-100,4,2,1,25,0,0
79704,-100,4,2,1,15,0,0
80619,-100,4,2,1,5,0,0
81167,-100,4,2,1,25,0,0
81350,-100,4,2,1,5,0,0
81899,-100,4,2,1,25,0,0
82814,-100,4,2,1,25,0,0
83728,-100,4,2,1,20,0,0
85558,-100,4,2,1,15,0,0
85740,-100,4,2,1,15,0,0
87204,-100,4,2,1,5,0,0
87570,-100,4,2,1,25,0,0
87753,-100,4,2,1,5,0,0
88119,-100,4,2,1,25,0,0
88850,-100,4,2,1,15,0,0
89948,-100,4,2,1,25,0,0
90131,-100,4,2,1,5,0,0
90497,-100,4,2,1,25,0,0
90680,-100,4,2,1,5,0,0
91045,-100,4,2,1,25,0,0
91777,-100,4,2,1,15,0,0
92875,-100,4,2,1,25,0,0
93058,-100,4,2,1,5,0,0
93423,-100,4,2,1,25,0,0
93606,-100,4,2,1,5,0,0
93972,-100,4,2,1,25,0,0
94704,-100,4,2,1,15,0,0
97265,-100,4,2,1,25,0,0
102387,-100,4,2,1,15,0,0
103119,-100,4,2,1,10,0,0
106045,-100,4,2,1,8,0,0
107509,-200,4,2,1,5,0,0

[Colours]
Combo1 : 220,86,86
Combo2 : 218,223,111
Combo3 : 153,153,153
Combo4 : 230,180,77

[HitObjects]
402,324,680,6,0,B|414:270|414:270|400:171,1,140,2|2,0:0|0:0,0:0:0:0:
362,111,1777,1,2,0:0:0:0:
289,68,2143,2,0,P|164:71|138:81,1,140,0|2,0:0|0:0,0:0:0:0:
44,205,3606,6,0,B|28:252|28:252|38:346,2,140,0|0|0,0:0|0:0|0:0,0:0:0:0:
246,54,6167,1,2,0:0:0:0:
312,105,6533,6,0,P|328:162|307:259,1,140,2|2,0:0|0:0,0:0:0:0:
158,181,7997,2,0,P|141:113|154:45,1,140,0|2,0:0|0:0,0:0:0:0:
229,7,9094,1,2,0:0:0:0:
301,49,9460,6,0,B|309:80|309:80|310:137,1,70,2|0,0:0|0:0,0:0:0:0:
257,184,10192,2,0,B|249:215|249:215|248:272,1,70,2|0,0:0|0:0,0:0:0:0:
299,319,10923,1,0,0:0:0:0:
434,219,11655,1,2,0:0:0:0:
334,84,12387,6,0,B|282:70|282:70|181:63,1,140,2|2,0:0|0:0,0:0:0:0:
37,119,13850,2,0,B|49:189|49:189|31:256|31:256|48:341,1,210,0|2,0:0|0:0,0:0:0:0:
123,353,15314,6,0,P|180:358|210:352,1,70,2|2,0:0|0:0,0:0:0:0:
259,306,16045,2,0,P|316:301|346:307,1,70,2|2,0:0|0:0,0:0:0:0:
389,360,16777,2,0,P|385:277|390:193,1,140,0|0,0:0|0:0,0:0:0:0:
268,101,18240,6,0,L|266:180,1,70,2|2,0:0|0:0,0:0:0:0:
194,214,18972,2,0,L|196:293,1,70,2|2,0:0|0:0,0:0:0:0:
264,332,19704,2,0,B|301:327|318:346|318:346|336:333|386:336,2,105,2|2|2,0:0|0:0|0:0,0:0:0:0:
195,283,21167,5,2,0:0:0:0:
193,334,24094,6,0,P|196:252|178:188,1,140,2|2,0:0|0:0,0:0:0:0:
126,132,25192,1,2,0:0:0:0:
191,79,25558,2,0,B|243:69|243:69|352:72,1,140,0|2,0:0|0:0,0:0:0:0:
424,210,27021,6,0,P|392:257|398:338,2,140,2|2|2,0:0|0:0|0:0,0:0:0:0:
191,306,29582,1,2,0:0:0:0:
111,279,29948,6,0,P|90:238|91:138,1,140,2|2,0:0|0:0,0:0:0:0:
144,82,31045,1,2,0:0:0:0:
212,131,31411,2,0,L|288:127,2,70,0|2|2,0:0|0:0|0:0,0:0:0:0:
370,74,32875,6,0,B|399:155|349:205|349:205|419:254|379:348,1,280,2|0,0:0|0:0,0:0:0:0:
221,359,35070,1,2,0:0:0:0:
112,230,35801,6,0,P|112:170|112:141,1,70,2|2,0:0|0:0,0:0:0:0:
161,91,36533,2,0,P|221:91|250:91,1,70,2|2,0:0|0:0,0:0:0:0:
300,140,37265,2,0,P|300:200|300:210,1,70,2|2,0:0|0:0,0:0:0:0:
200,345,38362,1,2,0:0:0:0:
282,364,38728,6,0,P|342:370|371:367,1,70,2|2,0:0|0:0,0:0:0:0:
433,348,39460,2,0,P|439:288|436:259,1,70,2|2,0:0|0:0,0:0:0:0:
392,207,40192,2,0,P|386:172|386:137,1,70,2|2,0:0|0:0,0:0:0:0:
234,66,41289,1,2,0:0:0:0:
170,120,41655,6,0,B|158:164|158:164|164:245,2,105,2|2|2,0:0|0:0|0:0,0:0:0:0:
234,66,43119,2,0,B|278:78|278:78|359:72,2,105,2|2|2,0:0|0:0|0:0,0:0:0:0:
156,38,44582,5,2,0:0:0:0:
124,203,45314,1,0,0:0:0:0:
251,314,46045,1,0,0:0:0:0:
284,149,46777,1,0,0:0:0:0:
326,76,47143,6,0,P|367:69|403:70,1,70,2|2,0:0|0:0,0:0:0:0:
124,115,50801,6,0,P|73:108|53:101,2,70,2|2|2,0:0|0:0|0:0,0:0:0:0:
184,173,51899,2,0,P|184:124|196:58,2,105,2|2|2,0:0|0:0|0:0,0:0:0:0:
248,227,53362,6,0,P|187:256|124:232,1,140,2|0,0:0|0:0,0:0:0:0:
61,175,54460,1,2,0:0:0:0:
134,134,54826,2,0,B|184:115|191:52|191:52|222:102|292:90,1,210,2|2,0:0|0:0,0:0:0:0:
351,45,56289,5,2,0:0:0:0:
403,202,57021,1,0,0:0:0:0:
250,269,57753,2,0,P|170:270|130:268,2,105,0|2|2,0:0|0:0|0:0,0:0:0:0:
306,206,59216,6,0,P|386:205|426:207,2,105,2|2|2,0:0|0:0|0:0,0:0:0:0:
250,269,60680,1,2,0:0:0:0:
62,50,62509,6,0,P|54:91|62:142,1,70,2|2,0:0|0:0,0:0:0:0:
96,192,63240,1,2,0:0:0:0:
177,173,63606,2,0,P|237:175|301:203,2,105,2|2|2,0:0|0:0|0:0,0:0:0:0:
152,251,65070,6,0,P|82:273|27:236,1,140,2|0,0:0|0:0,0:0:0:0:
10,157,66167,1,2,0:0:0:0:
61,90,66533,2,0,L|234:77,1,140,2|2,0:0|0:0,0:0:0:0:
283,91,67631,1,2,0:0:0:0:
345,147,67997,5,2,0:0:0:0:
237,275,68728,1,0,0:0:0:0:
109,167,69460,2,0,P|41:180|10:200,2,105,2|0|2,0:0|0:0|0:0,0:0:0:0:
176,217,70923,6,0,L|172:89,2,105,2|2|2,0:0|0:0|0:0,0:0:0:0:
260,217,72387,2,0,B|257:138|257:138|306:63,1,140,2|2,0:0|0:0,0:0:0:0:
444,20,73850,5,0,0:0:0:0:
444,20,75314,2,0,P|383:16|320:23,2,105,2|2|2,0:0|0:0|0:0,0:0:0:0:
437,103,76777,6,0,B|433:146|433:146|439:239,2,105,2|2|2,0:0|0:0|0:0,0:0:0:0:
444,20,78240,1,2,0:0:0:0:
184,234,79704,5,0,0:0:0:0:
345,188,80436,2,0,B|384:185|413:207|413:207|444:186|483:194,2,140,2|2|2,0:0|0:0|0:0,0:0:0:0:
184,234,82631,6,0,P|78:226|76:116,1,210,2|2,0:0|0:0,0:0:0:0:
112,72,84094,1,2,0:0:0:0:
447,52,85558,6,0,P|468:154|459:258,1,210,0|0,0:0|0:0,0:0:0:0:
412,328,87021,2,0,P|473:306|531:316,2,105,0|2|2,0:0|0:0|0:0,0:0:0:0:
330,346,88484,6,0,L|250:347,2,70,2|0|0,0:0|0:0|0:0,0:0:0:0:
327,177,89948,2,0,P|266:155|208:165,2,105,2|2|2,0:0|0:0|0:0,0:0:0:0:
409,195,91411,6,0,L|489:196,2,70,2|0|0,0:0|0:0|0:0,0:0:0:0:
256,266,92875,2,0,L|268:378,2,105,2|2|2,0:0|0:0|0:0,0:0:0:0:
289,188,94338,6,0,P|285:134|276:100,1,70,2|0,0:0|0:0,0:0:0:0:
210,73,95070,1,0,0:0:0:0:
210,73,97265,5,2,0:0:0:0:
64,88,100192,6,0,P|128:56|212:60,1,140,2|2,0:0|0:0,0:0:0:0:
274,82,101289,1,2,0:0:0:0:
333,141,101655,2,0,L|327:283,1,140,0|2,0:0|0:0,0:0:0:0:
162,315,103119,6,0,B|117:312|90:319|90:319|65:299|7:288,2,140,0|0|0,0:0|0:0|0:0,0:0:0:0:
414,311,105680,1,2,0:0:0:0:
467,246,106045,6,0,L|462:86,1,140,2|2,0:0|0:0,0:0:0:0:
256,192,107509,12,0,110436,0:0:0:0:
