osu file format v14

[General]
AudioFilename: audio.mp3
AudioLeadIn: 0
PreviewTime: 21517
Countdown: 0
SampleSet: Soft
StackLeniency: 0.3
Mode: 0
LetterboxInBreaks: 0
WidescreenStoryboard: 0

[Editor]
DistanceSpacing: 1.7
BeatDivisor: 4
GridSize: 32
TimelineZoom: 1

[Metadata]
Title:Wakare no Toki
TitleUnicode:別れの時
Artist:Keisuke Ito, Yasuhiro Kawagoe, Noriko Murakami
ArtistUnicode:いとうけいすけ、川越康弘、村上徳子
Creator:fieryrage
Version:Goodbye
Source:ポケモン超不思議のダンジョン
Tags:pokemon pokémon super mystery dungeon time to part ways pocket monsters nintendo the company game freak 3ds
BeatmapID:1356548
BeatmapSetID:639633

[Difficulty]
HPDrainRate:5
CircleSize:3.4
OverallDifficulty:7.2
ApproachRate:8
SliderMultiplier:1.7
SliderTickRate:1

[Events]
//Background and Video events
0,0,"farewell.png",0,0
//Break Periods
//Storyboard Layer 0 (Background)
//Storyboard Layer 1 (Fail)
//Storyboard Layer 2 (Pass)
//Storyboard Layer 3 (Foreground)
//Storyboard Sound Samples

[TimingPoints]
398,461.538461538462,4,2,2,5,1,0
4090,-100,4,2,1,25,0,0
22551,-100,4,2,1,25,0,1
42859,-125,4,2,1,25,0,1
42974,-125,4,2,1,5,0,1
44244,-100,4,2,1,25,0,1
50244,-100,4,2,1,30,0,0

[Colours]
Combo1 : 184,94,88
Combo2 : 174,172,98
Combo3 : 130,134,147
Combo4 : 92,154,78

[HitObjects]
256,192,398,12,0,3628,0:0:0:0:
395,309,4090,6,0,P|415:237|383:134,1,170,2|2,0:0|0:0,0:0:0:0:
141,154,4782,2,0,B|281:193|255:113|397:148,1,255,2|0,0:0|0:0,0:0:0:0:
137,316,5705,1,2,0:0:0:0:
137,316,5936,6,0,P|117:244|149:141,1,170,2|2,0:0|0:0,0:0:0:0:
351,209,6628,2,0,P|344:272|239:197,1,255,2|0,0:0|0:0,0:0:0:0:
449,139,7551,1,2,0:0:0:0:
449,139,7782,6,0,P|381:107|288:111,1,170,2|2,0:0|0:0,0:0:0:0:
126,139,8474,2,0,P|209:144|287:111,1,170,2|0,0:0|0:0,0:0:0:0:
112,14,9167,1,2,0:0:0:0:
126,139,9398,1,2,0:0:0:0:
372,189,9628,6,0,P|379:137|374:101,1,85
387,296,10090,2,0,P|427:283|462:254,1,85
372,189,10551,1,0,0:0:0:0:
143,259,11013,2,0,P|97:263|57:253,1,85,0|2,0:0|0:0,0:0:0:0:
142,90,11474,6,0,L|144:261,1,170,2|2,0:0|0:0,0:0:0:0:
292,353,12167,2,0,P|356:326|251:283,1,255,2|0,0:0|0:0,0:0:0:0:
446,193,13090,1,2,0:0:0:0:
446,193,13321,6,0,P|388:139|299:124,1,170,2|2,0:0|0:0,0:0:0:0:
143,259,14013,2,0,B|120:175|166:180|136:88,1,170,2|0,0:0|0:0,0:0:0:0:
300,123,14705,1,2,0:0:0:0:
265,29,14936,1,2,0:0:0:0:
137,91,15167,6,0,L|37:87,1,85,2|0,0:0|0:0,0:0:0:0:
300,123,15628,1,2,0:0:0:0:
143,259,15859,2,0,L|227:255,1,85,2|0,0:0|0:0,0:0:0:0:
300,123,16321,1,2,0:0:0:0:
209,153,16551,1,2,0:0:0:0:
231,59,16782,1,2,0:0:0:0:
227,255,17013,6,0,P|265:274|315:273,1,85
444,170,17474,2,0,P|401:171|364:189,1,85,2|0,0:0|0:0,0:0:0:0:
416,355,17936,2,0,L|418:265,1,85,2|0,0:0|0:0,0:0:0:0:
275,90,18398,2,0,L|276:174,1,85,2|0,0:0|0:0,0:0:0:0:
192,328,18859,6,0,B|123:378|32:379|10:329|-25:266|-15:197|24:165|69:144|115:148|115:148|160:147|201:188|237:189|279:173,1,595,2|0,0:0|0:0,0:0:0:0:
454,60,20705,1,2,0:0:0:0:
454,60,21628,5,2,0:0:0:0:
352,77,21859,1,2,0:0:0:0:
369,179,22090,1,2,0:0:0:0:
471,162,22321,1,2,0:0:0:0:
352,77,22551,6,0,B|183:41|183:131|17:81,1,340,2|2,0:0|0:0,0:0:0:0:
115,285,23705,1,2,0:0:0:0:
139,180,23936,1,2,0:0:0:0:
17,81,24167,6,0,P|7:130|17:181,1,85,2|0,0:0|0:0,0:0:0:0:
228,217,24628,2,0,P|232:174|222:133,1,85,2|0,0:0|0:0,0:0:0:0:
115,285,25090,1,0,0:0:0:0:
115,285,25321,2,0,L|111:372,1,85,2|2,0:0|0:0,0:0:0:0:
228,217,25782,2,0,L|232:304,1,85,2|2,0:0|0:0,0:0:0:0:
151,126,26244,6,0,P|204:105|317:137,2,170,2|2|0,0:0|0:0|0:0,0:0:0:0:
228,217,27398,1,2,0:0:0:0:
310,131,27628,2,0,L|404:128,1,85,2|0,0:0|0:0,0:0:0:0:
228,217,28090,6,0,L|134:214,2,85
338,240,28782,1,0,0:0:0:0:
310,131,29013,1,0,0:0:0:0:
310,131,29474,2,0,P|307:84|317:42,1,85,2|0,0:0|0:0,0:0:0:0:
401,213,29936,6,0,B|311:261|229:217|229:217|201:249|221:297,1,255,2|0,0:0|0:0,0:0:0:0:
341,358,30859,2,0,L|441:354,1,85,2|0,0:0|0:0,0:0:0:0:
401,213,31321,1,2,0:0:0:0:
247,272,31551,1,2,0:0:0:0:
401,213,31782,6,0,P|412:166|406:118,2,85,0|2|0,0:0|0:0|0:0,0:0:0:0:
304,162,32474,1,0,0:0:0:0:
304,162,32705,2,0,B|222:139|222:186|133:161,1,170,2|2,0:0|0:0,0:0:0:0:
184,72,33398,1,2,0:0:0:0:
136,161,33628,6,0,P|125:212|131:259,2,85,0|2|0,0:0|0:0|0:0,0:0:0:0:
184,72,34321,1,0,0:0:0:0:
184,72,34551,2,0,L|272:68,1,85,2|2,0:0|0:0,0:0:0:0:
391,166,35013,2,0,L|303:162,1,85,2|2,0:0|0:0,0:0:0:0:
127,244,35474,6,0,B|70:251|26:217|26:217|45:252|41:277,1,170,2|0,0:0|0:0,0:0:0:0:
203,372,36167,1,2,0:0:0:0:
203,372,36282,1,0,0:0:0:0:
203,372,36398,2,0,P|216:322|210:278,1,85,2|2,0:0|0:0,0:0:0:0:
85,73,36859,2,0,P|82:115|95:155,1,85,2|2,0:0|0:0,0:0:0:0:
213,289,37321,6,0,P|336:274|259:123,1,340,2|2,0:0|0:0,0:0:0:0:
95,155,38474,1,2,0:0:0:0:
266,214,38705,1,2,0:0:0:0:
213,47,38936,6,0,P|267:32|313:39,1,85,2|0,0:0|0:0,0:0:0:0:
318,293,39398,2,0,P|277:306|235:305,1,85,2|0,0:0|0:0,0:0:0:0:
266,214,39859,1,0,0:0:0:0:
95,155,40090,1,2,0:0:0:0:
278,98,40321,1,2,0:0:0:0:
162,249,40551,1,2,0:0:0:0:
495,323,41013,6,0,P|507:251|478:153,1,170,2|2,0:0|0:0,0:0:0:0:
278,98,41936,1,0,0:0:0:0:
278,98,42167,2,0,L|369:94,1,85,2|0,0:0|0:0,0:0:0:0:
474,31,42628,1,2,0:0:0:0:
362,94,42859,6,0,B|402:161|383:223|383:223|359:301|392:358,1,272
46,38,44244,5,2,0:0:0:0:
62,273,44705,1,2,0:0:0:0:
62,273,45628,6,0,L|68:178,1,85,2|2,0:0|0:0,0:0:0:0:
186,283,46090,2,0,L|191:367,1,85,2|2,0:0|0:0,0:0:0:0:
2,116,46551,6,0,P|51:98|156:148,1,170,2|2,0:0|0:0,0:0:0:0:
407,164,47244,2,0,P|337:208|255:191,1,170,2|2,0:0|0:0,0:0:0:0:
255,191,48398,5,2,0:0:0:0:
256,192,48513,12,2,50244,0:0:0:0:
